Subcategories

Power Theory - An Axe To Grind (2012)

Posted By: Andi_Deris
Power Theory - An Axe To Grind (2012)

Power Theory - An Axe To Grind (2012)
EAC Rip | FLAC: Image+Cue+Log | 402 Mb | MP3 CBR 320 kbps | 126 Mb | Scans | 48:41
Pure Steel Records | PSRCD066
Heavy Metal

Power Theory's An Axe to Grind is a Traditional Metal affair with a modern production highlighting an 80s sound. They are influenced heavily by Metallica and Saxon. Although that may seem like an odd pairing; once you hear the blended sound you’ll ask why this hasn’t been done in the past. Sounds Like: Savatage, Saxon, Grave Digger, Metal Church, Cirith Ungol.

Power Theory - An Axe To Grind (2012)




Power Theory - An Axe To Grind (2012)


Track Listing

01. Edge Of Knives (4:59)
02. Deceiver (6:43)
03. Puresteel (5:03)
04. An Axe To Grind (5:29)
05. A Fist In The Face Of God (4:00)
06. The Seer (5:39)
07. On The Inside (5:26)
08. Colossus (3:54)
09. The Hammer Strikes (Mjolnir's song) (7:28)

The Band

• Bob "BB" Ballinger: Guitar and Backing Vocals
• Dave Santini: Lead Vocals
• Jay Pekala: Bass and Backing Vocals
• Lorin Savadore: Drums

Power Theory - An Axe To Grind (2012)


Exact Audio Copy V0.99 prebeta 5 from 4. May 2009

EAC extraction logfile from 9. July 2012, 15:59

Power Theory / An Axe To Grind

Used drive : Optiarc DVD RW AD-7240S Adapter: 0 ID: 0

Read mode : Secure
Utilize accurate stream : Yes
Defeat audio cache : Yes
Make use of C2 pointers : No

Read offset correction : 48
Overread into Lead-In and Lead-Out : No
Fill up missing offset samples with silence : Yes
Delete leading and trailing silent blocks : No
Null samples used in CRC calculations : No
Used interface : Native Win32 interface for Win NT & 2000

Used output format : User Defined Encoder
Selected bitrate : 32 kBit/s
Quality : High
Add ID3 tag : No
Command line compressor : C:\FLAC.EXE
Additional command line options : -6 -V %s


TOC of the extracted CD

Track | Start | Length | Start sector | End sector
––––––––––––––––––––––––––––-
1 | 0:00.00 | 4:59.16 | 0 | 22440
2 | 4:59.16 | 6:43.55 | 22441 | 52720
3 | 11:42.71 | 5:03.37 | 52721 | 75482
4 | 16:46.33 | 5:29.40 | 75483 | 100197
5 | 22:15.73 | 4:00.00 | 100198 | 118197
6 | 26:15.73 | 5:39.45 | 118198 | 143667
7 | 31:55.43 | 5:26.36 | 143668 | 168153
8 | 37:22.04 | 3:54.17 | 168154 | 185720
9 | 41:16.21 | 7:28.20 | 185721 | 219340


Range status and errors

Selected range

Filename G:\Power Theory - An Axe To Grind.wav

Peak level 100.0 %
Range quality 100.0 %
Copy CRC 29DA904B
Copy OK

No errors occurred


AccurateRip summary

Track 1 not present in database
Track 2 not present in database
Track 3 not present in database
Track 4 not present in database
Track 5 not present in database
Track 6 not present in database
Track 7 not present in database
Track 8 not present in database
Track 9 not present in database

None of the tracks are present in the AccurateRip database

End of status report


Many thanks to the original uploader: Exploded



Password: pass