Tags
Language
Tags

Prefab Sprout - Crimson / Red (2013) {Blu-Spec CD2, Japan}

Posted By: popsakov
Prefab Sprout - Crimson / Red (2013) {Blu-Spec CD2, Japan}

Prefab Sprout - Crimson / Red (2013) {Blu-Spec CD2, Japan}
EAC Rip | FLAC (Tracks) + Cue + m3u8 + Log ~ 293 Mb | MP3 CBR320 ~ 98 Mb
Full Scans ~ 322 Mb | RAR 5% Recovery
Pop Rock / Alternative Rock / Indie Rock / Sophisti-Pop
Epic / Sony Music Japan #SICP 30401

Crimson/Red is the tenth studio album by the English pop group Prefab Sprout. It was released in the United Kingdom by Icebreaker Records/Kitchenware Records on 7 October 2013. The album title is a reference to artist Mark Rothko. Crimson/Red was a chart success for Prefab Sprout. The album debuted at No. 15 in the UK Albums Chart, giving the band their highest-charting record since Andromeda Heights in 1997.

Even though he had been suffering from hearing and sight impairments, Prefab Sprout man Paddy McAloon actually picked up the pace with the release of Crimson/Red, an album that follows Let's Change the World with Music by four years, halving the eight-year wait after 2001's The Gunman and Other Stories. It's also interesting that songs like "Mysterious" (an appreciation of Bob Dylan) and "The Songs of Danny Galway" (a lush love letter to the work of Jimmy Webb) cover the same ground as Let's Change the World's numerous odes to the power of pop music, but that album was arguably "tricky," because with the Sprout, overly smart and overly ambitious are the delicious pratfalls fans still savor. This one, like previous albums Steve McQueen (titled Two Wheels Good in the U.S.) and Jordan: The Comeback, is both grand and easily accessible, opening with a perfect example called "The Best Jewel Thief in the World," where busy and big work in tandem with the song's highly infectious hook. Singing it aloud might just make you more clever and warm, while the great "Adolescence" ("What's it like?/It's like a psychedelic motorbike/You smash it up ten times a day, then walk away") sorts out that kinetic and wide-eyed stage of life quite nicely. The music throughout is just as beautiful and bold as the lyrics, with "Devil Came a Calling" being built out of a loving tower of country music camp, while the much smaller "The Old Magician" works its magic with a little bit of keyboards and guitar. A tight ten-song track list, immaculate production, and an overall classic album flow are all icing on the cake, and when it comes to McAloon quotables, "Power, wealth, and a mansion on Fellatio Dr." jumps into the gifted man's Top Ten.

~ David Jeffries, All Music

***************

Prefab Sprout - Crimson / Red (2013) {Blu-Spec CD2, Japan}

Track List:

01. The Best Jewel Thief in the World [3:49]
02. List of Impossible Things [3:41]
03. Adolescence [4:27]
04. Grief That Built the Taj Mahal [3:27]
05. Devil Came a Calling [3:40]
06. Billy [4:37]
07. The Dreamer [6:00]
08. The Songs of Danny Galway [3:48]
09. The Old Magician [2:51]
10. Mysterious [4:22]

Exact Audio Copy V1.3 from 2. September 2016

EAC extraction logfile from 1. May 2019, 20:05

Prefab Sprout / Crimson/Red (BSCD2 release)

Used drive : ASUS BW-12D1S-U Adapter: 1 ID: 1

Read mode : Secure
Utilize accurate stream : Yes
Defeat audio cache : Yes
Make use of C2 pointers : No

Read offset correction : 667
Overread into Lead-In and Lead-Out : No
Fill up missing offset samples with silence : Yes
Delete leading and trailing silent blocks : No
Null samples used in CRC calculations : Yes
Used interface : Native Win32 interface for Win NT & 2000
Gap handling : Appended to previous track

Used output format : User Defined Encoder
Selected bitrate : 1024 kBit/s
Quality : High
Add ID3 tag : No
Command line compressor : C:\Program Files (x86)\Exact Audio Copy\FLAC\FLAC.EXE
Additional command line options : -V -8 -T "Genre=%genre%" -T "Artist=%artist%" -T "Title=%title%" -T "Album=%albumtitle%" -T "Date=%year%" -T "Tracknumber=%tracknr%" -T "Comment=%comment%" %source%


TOC of the extracted CD

Track | Start | Length | Start sector | End sector
––––––––––––––––––––––––––––-
1 | 0:00.00 | 3:50.69 | 0 | 17318
2 | 3:50.69 | 3:42.58 | 17319 | 34026
3 | 7:33.52 | 4:27.20 | 34027 | 54071
4 | 12:00.72 | 3:28.01 | 54072 | 69672
5 | 15:28.73 | 3:41.19 | 69673 | 86266
6 | 19:10.17 | 4:37.20 | 86267 | 107061
7 | 23:47.37 | 6:00.43 | 107062 | 134104
8 | 29:48.05 | 3:48.11 | 134105 | 151215
9 | 33:36.16 | 2:51.28 | 151216 | 164068
10 | 36:27.44 | 4:22.21 | 164069 | 183739


Track 1

Filename E:\Torrents of Autumn\Prefab Sprout [2013] Crimson-Red (Blu-specCD2, Japan, 2013)\01. The Best Jewel Thief in the World.wav

Pre-gap length 0:00:02.00

Peak level 97.7 %
Extraction speed 4.4 X
Track quality 100.0 %
Test CRC 6BC9431F
Copy CRC 6BC9431F
Accurately ripped (confidence 60) [35E03DCB] (AR v2)
Copy OK

Track 2

Filename E:\Torrents of Autumn\Prefab Sprout [2013] Crimson-Red (Blu-specCD2, Japan, 2013)\02. List of Impossible Things.wav

Pre-gap length 0:00:01.68

Peak level 97.7 %
Extraction speed 4.2 X
Track quality 99.9 %
Test CRC 89AD16DD
Copy CRC 89AD16DD
Accurately ripped (confidence 60) [6AA68136] (AR v2)
Copy OK

Track 3

Filename E:\Torrents of Autumn\Prefab Sprout [2013] Crimson-Red (Blu-specCD2, Japan, 2013)\03. Adolescence.wav

Pre-gap length 0:00:01.62

Peak level 97.7 %
Extraction speed 4.8 X
Track quality 99.9 %
Test CRC 4FAC1E2F
Copy CRC 4FAC1E2F
Accurately ripped (confidence 60) [B347186D] (AR v2)
Copy OK

Track 4

Filename E:\Torrents of Autumn\Prefab Sprout [2013] Crimson-Red (Blu-specCD2, Japan, 2013)\04. Grief That Built the Taj Mahal.wav

Pre-gap length 0:00:00.39

Peak level 97.7 %
Extraction speed 5.5 X
Track quality 100.0 %
Test CRC 90CAB54B
Copy CRC 90CAB54B
Accurately ripped (confidence 60) [FBB471C1] (AR v2)
Copy OK

Track 5

Filename E:\Torrents of Autumn\Prefab Sprout [2013] Crimson-Red (Blu-specCD2, Japan, 2013)\05. Devil Came a Calling.wav

Pre-gap length 0:00:00.70

Peak level 97.7 %
Extraction speed 5.8 X
Track quality 100.0 %
Test CRC 28C65160
Copy CRC 28C65160
Accurately ripped (confidence 60) [B36A82E0] (AR v2)
Copy OK

Track 6

Filename E:\Torrents of Autumn\Prefab Sprout [2013] Crimson-Red (Blu-specCD2, Japan, 2013)\06. Billy.wav

Pre-gap length 0:00:00.65

Peak level 97.7 %
Extraction speed 6.3 X
Track quality 100.0 %
Test CRC ADACF703
Copy CRC ADACF703
Accurately ripped (confidence 60) [D6F5BBFC] (AR v2)
Copy OK

Track 7

Filename E:\Torrents of Autumn\Prefab Sprout [2013] Crimson-Red (Blu-specCD2, Japan, 2013)\07. The Dreamer.wav

Pre-gap length 0:00:00.46

Peak level 97.7 %
Extraction speed 6.8 X
Track quality 100.0 %
Test CRC 247D03CA
Copy CRC 247D03CA
Accurately ripped (confidence 60) [32309A3E] (AR v2)
Copy OK

Track 8

Filename E:\Torrents of Autumn\Prefab Sprout [2013] Crimson-Red (Blu-specCD2, Japan, 2013)\08. The Songs of Danny Galway.wav

Pre-gap length 0:00:00.55

Peak level 97.7 %
Extraction speed 6.8 X
Track quality 100.0 %
Test CRC 68C3D776
Copy CRC 68C3D776
Accurately ripped (confidence 60) [00547B89] (AR v2)
Copy OK

Track 9

Filename E:\Torrents of Autumn\Prefab Sprout [2013] Crimson-Red (Blu-specCD2, Japan, 2013)\09. The Old Magician.wav

Pre-gap length 0:00:00.14

Peak level 97.7 %
Extraction speed 6.7 X
Track quality 100.0 %
Test CRC 57C06CFE
Copy CRC 57C06CFE
Accurately ripped (confidence 60) [20026087] (AR v2)
Copy OK

Track 10

Filename E:\Torrents of Autumn\Prefab Sprout [2013] Crimson-Red (Blu-specCD2, Japan, 2013)\10. Mysterious.wav

Pre-gap length 0:00:00.46

Peak level 97.7 %
Extraction speed 6.6 X
Track quality 99.9 %
Test CRC AF2CCD4D
Copy CRC AF2CCD4D
Accurately ripped (confidence 61) [A3AD01F1] (AR v2)
Copy OK


All tracks accurately ripped

No errors occurred

End of status report

–– CUETools DB Plugin V2.1.6

[CTDB TOCID: OmVHBHbOb7MlEp8SJ8AkTHy4Z3o-] found
Submit result: OmVHBHbOb7MlEp8SJ8AkTHy4Z3o- has been confirmed
Track | CTDB Status
1 | (207/208) Accurately ripped
2 | (207/208) Accurately ripped
3 | (207/208) Accurately ripped
4 | (207/208) Accurately ripped
5 | (207/208) Accurately ripped
6 | (207/208) Accurately ripped
7 | (206/208) Accurately ripped
8 | (206/208) Accurately ripped
9 | (206/208) Accurately ripped
10 | (205/208) Accurately ripped


==== Log checksum ED6678D865B757624284ABA5247CA44AF7BDFA25F1359DBCA110DD63E03F32F4 ====

Prefab Sprout - Crimson / Red (2013) {Blu-Spec CD2, Japan}

All thanks go to DoobieBro

>>> "Prefab Sprout" in my Blog <<<

Download from icerbox.com: