Subcategories

Prefab Sprout - Jordan: The Comeback (1990) {2013, Blu-Spec CD2, Remastered, Japan}

Posted By: popsakov
Prefab Sprout - Jordan: The Comeback (1990) {2013, Blu-Spec CD2, Remastered, Japan}

Prefab Sprout - Jordan: The Comeback (1990) {2013, Blu-Spec CD2, Remastered, Japan}
EAC Rip | FLAC (Tracks) + Cue + m3u8 + Log ~ 435 Mb | MP3 CBR320 ~ 154 Mb
Full Scans ~ 169 Mb | RAR 5% Recovery
Pop Rock / Indie Rock / Sophisti-Pop / Art Pop
Epic / Sony Music Japan #SICP 30404

Jordan: The Comeback is Prefab Sprout's largely successful attempt to embrace the breadth of popular music; wisely reuniting with producer Thomas Dolby, Paddy McAloon freely indulges his myriad ambitions and obsessions to weave a dense, finely textured tapestry closer in spirit and construction to a lavish Broadway musical than to the conventional rock concept LP. Over the course of no less than 19 tracks, McAloon chases his twin preoccupations of religion and celebrity, creating a loose thematic canvas perfect for his expanding musical palette; quickly dispensing with common pop idioms, the album moves from tracks like the samba-styled "Carnival 2000" to the self-explanatory "Jesse James Symphony" and its companion piece "Jesse James Bolero" with remarkable dexterity. Dolby's atmospheric production lends an even greater visual dimension to the songs, which – with their tightly constructed narratives and occasional spoken-word passages – seem almost destined to someday reach the stage; indeed, Jordan: The Comeback is like an original cast recording minus the actors, or a rock opera without the silliness and bombast – a truly inspired work.

~ Jason Ankeny, All Music

***************

Prefab Sprout - Jordan: The Comeback (1990) {2013, Blu-Spec CD2, Remastered, Japan}

Prefab Sprout - Jordan: The Comeback (1990) {2013, Blu-Spec CD2, Remastered, Japan}

Track List:

01. Looking for Atlantis [4:01]
02. Wild Horses [3:44]
03. Machine Gun Ibiza [3:43]
04. We Let the Stars Go [3:36]
05. Carnival 2000 [3:23]
06. Jordan: the Comeback [4:12]
07. Jesse James Symphony [2:15]
08. Jesse James Bolero [4:10]
09. Moon Dog [4:07]
10. All the World Loves Lovers [3:50]
11. All Boys Believe Anything [1:34]
12. The Ice Maiden [3:20]
13. Paris Smith [2:55]
14. Wedding March [2:47]
15. One of the Broken [3:53]
16. Michael [3:02]
17. Mercy [1:23]
18. Scarlet Nights [4:15]
19. Doo-Wop in Harlem [3:44]

Personnel:
Paddy McAloon
Martin McAloon
Wendy Smith
Neil Conti

Additional musicians:
Luís Jardim - percussion
Judd Lander - harmonica (on "Looking for Atlantis")
Jenny Agutter - "I Want to Have You" vocals (on "Wild Horses")
The Phantom Horns - horns (on "Carnival 2000")

Exact Audio Copy V1.3 from 2. September 2016

EAC extraction logfile from 22. April 2019, 23:43

Prefab Sprout / Jordan: The Comeback

Used drive : ASUS BW-12D1S-U Adapter: 1 ID: 1

Read mode : Secure
Utilize accurate stream : Yes
Defeat audio cache : Yes
Make use of C2 pointers : No

Read offset correction : 667
Overread into Lead-In and Lead-Out : No
Fill up missing offset samples with silence : Yes
Delete leading and trailing silent blocks : No
Null samples used in CRC calculations : Yes
Used interface : Native Win32 interface for Win NT & 2000
Gap handling : Appended to previous track

Used output format : User Defined Encoder
Selected bitrate : 1024 kBit/s
Quality : High
Add ID3 tag : No
Command line compressor : C:\Program Files (x86)\Exact Audio Copy\FLAC\FLAC.EXE
Additional command line options : -V -8 -T "Genre=%genre%" -T "Artist=%artist%" -T "Title=%title%" -T "Album=%albumtitle%" -T "Date=%year%" -T "Tracknumber=%tracknr%" -T "Comment=%comment%" %source%


TOC of the extracted CD

Track | Start | Length | Start sector | End sector
––––––––––––––––––––––––––––-
1 | 0:00.00 | 4:02.63 | 0 | 18212
2 | 4:02.63 | 3:44.19 | 18213 | 35031
3 | 7:47.07 | 3:43.00 | 35032 | 51756
4 | 11:30.07 | 3:39.14 | 51757 | 68195
5 | 15:09.21 | 3:23.49 | 68196 | 83469
6 | 18:32.70 | 4:13.26 | 83470 | 102470
7 | 22:46.21 | 2:15.20 | 102471 | 112615
8 | 25:01.41 | 4:10.51 | 112616 | 131416
9 | 29:12.17 | 4:07.02 | 131417 | 149943
10 | 33:19.19 | 3:50.10 | 149944 | 167203
11 | 37:09.29 | 1:34.25 | 167204 | 174278
12 | 38:43.54 | 3:19.49 | 174279 | 189252
13 | 42:03.28 | 2:55.28 | 189253 | 202405
14 | 44:58.56 | 2:50.24 | 202406 | 215179
15 | 47:49.05 | 3:55.06 | 215180 | 232810
16 | 51:44.11 | 3:02.18 | 232811 | 246478
17 | 54:46.29 | 1:23.25 | 246479 | 252728
18 | 56:09.54 | 4:17.07 | 252729 | 272010
19 | 60:26.61 | 3:44.03 | 272011 | 288813


Track 1

Filename E:\Torrents of Autumn\Prefab Sprout [1990] Jordan~ The Comeback (Blu-specCD2, Japan, 2013)\01. Looking for Atlantis.wav

Pre-gap length 0:00:02.00

Peak level 100.0 %
Extraction speed 4.9 X
Track quality 100.0 %
Test CRC 0FD8B077
Copy CRC 0FD8B077
Accurately ripped (confidence 8) [5436B946] (AR v2)
Copy OK

Track 2

Filename E:\Torrents of Autumn\Prefab Sprout [1990] Jordan~ The Comeback (Blu-specCD2, Japan, 2013)\02. Wild Horses.wav

Pre-gap length 0:00:02.12

Peak level 100.0 %
Extraction speed 5.2 X
Track quality 100.0 %
Test CRC A57DAEE5
Copy CRC A57DAEE5
Accurately ripped (confidence 8) [DB115238] (AR v2)
Copy OK

Track 3

Filename E:\Torrents of Autumn\Prefab Sprout [1990] Jordan~ The Comeback (Blu-specCD2, Japan, 2013)\03. Machine Gun Ibiza.wav

Peak level 100.0 %
Extraction speed 5.6 X
Track quality 100.0 %
Test CRC 7DE81071
Copy CRC 7DE81071
Accurately ripped (confidence 8) [8FF668BB] (AR v2)
Copy OK

Track 4

Filename E:\Torrents of Autumn\Prefab Sprout [1990] Jordan~ The Comeback (Blu-specCD2, Japan, 2013)\04. We Let the Stars Go.wav

Peak level 100.0 %
Extraction speed 5.9 X
Track quality 100.0 %
Test CRC AE7DF9F5
Copy CRC AE7DF9F5
Accurately ripped (confidence 8) [042CEE30] (AR v2)
Copy OK

Track 5

Filename E:\Torrents of Autumn\Prefab Sprout [1990] Jordan~ The Comeback (Blu-specCD2, Japan, 2013)\05. Carnival 2000.wav

Pre-gap length 0:00:03.35

Peak level 100.0 %
Extraction speed 6.1 X
Track quality 100.0 %
Test CRC C4182547
Copy CRC C4182547
Accurately ripped (confidence 8) [8C7AAAA1] (AR v2)
Copy OK

Track 6

Filename E:\Torrents of Autumn\Prefab Sprout [1990] Jordan~ The Comeback (Blu-specCD2, Japan, 2013)\06. Jordan- the Comeback.wav

Pre-gap length 0:00:01.00

Peak level 100.0 %
Extraction speed 6.5 X
Track quality 100.0 %
Test CRC A76B5612
Copy CRC A76B5612
Accurately ripped (confidence 8) [DD7581AF] (AR v2)
Copy OK

Track 7

Filename E:\Torrents of Autumn\Prefab Sprout [1990] Jordan~ The Comeback (Blu-specCD2, Japan, 2013)\07. Jesse James Symphony.wav

Pre-gap length 0:00:01.48

Peak level 100.0 %
Extraction speed 6.1 X
Track quality 100.0 %
Test CRC 222DF14B
Copy CRC 222DF14B
Accurately ripped (confidence 8) [AB631F94] (AR v2)
Copy OK

Track 8

Filename E:\Torrents of Autumn\Prefab Sprout [1990] Jordan~ The Comeback (Blu-specCD2, Japan, 2013)\08. Jesse James Bolero.wav

Peak level 100.0 %
Extraction speed 6.3 X
Track quality 99.9 %
Test CRC 1A96BB93
Copy CRC 1A96BB93
Accurately ripped (confidence 8) [7FCCEDB8] (AR v2)
Copy OK

Track 9

Filename E:\Torrents of Autumn\Prefab Sprout [1990] Jordan~ The Comeback (Blu-specCD2, Japan, 2013)\09. Moon Dog.wav

Pre-gap length 0:00:00.64

Peak level 100.0 %
Extraction speed 7.2 X
Track quality 100.0 %
Test CRC A7D5E340
Copy CRC A7D5E340
Accurately ripped (confidence 8) [8C9A4AC5] (AR v2)
Copy OK

Track 10

Filename E:\Torrents of Autumn\Prefab Sprout [1990] Jordan~ The Comeback (Blu-specCD2, Japan, 2013)\10. All the World Loves Lovers.wav

Peak level 100.0 %
Extraction speed 7.4 X
Track quality 100.0 %
Test CRC 1C8792FB
Copy CRC 1C8792FB
Accurately ripped (confidence 8) [A2189750] (AR v2)
Copy OK

Track 11

Filename E:\Torrents of Autumn\Prefab Sprout [1990] Jordan~ The Comeback (Blu-specCD2, Japan, 2013)\11. All Boys Believe Anything.wav

Peak level 100.0 %
Extraction speed 6.2 X
Track quality 100.0 %
Test CRC C683FBB8
Copy CRC C683FBB8
Accurately ripped (confidence 8) [37EFEC98] (AR v2)
Copy OK

Track 12

Filename E:\Torrents of Autumn\Prefab Sprout [1990] Jordan~ The Comeback (Blu-specCD2, Japan, 2013)\12. The Ice Maiden.wav

Peak level 100.0 %
Extraction speed 7.4 X
Track quality 100.0 %
Test CRC 022393BC
Copy CRC 022393BC
Accurately ripped (confidence 8) [0FA2B04B] (AR v2)
Copy OK

Track 13

Filename E:\Torrents of Autumn\Prefab Sprout [1990] Jordan~ The Comeback (Blu-specCD2, Japan, 2013)\13. Paris Smith.wav

Peak level 100.0 %
Extraction speed 7.4 X
Track quality 100.0 %
Test CRC 82E45C93
Copy CRC 82E45C93
Accurately ripped (confidence 8) [56E30624] (AR v2)
Copy OK

Track 14

Filename E:\Torrents of Autumn\Prefab Sprout [1990] Jordan~ The Comeback (Blu-specCD2, Japan, 2013)\14. Wedding March.wav

Peak level 100.0 %
Extraction speed 6.5 X
Track quality 99.9 %
Test CRC 8BDB3EF8
Copy CRC 8BDB3EF8
Accurately ripped (confidence 8) [E6238291] (AR v2)
Copy OK

Track 15

Filename E:\Torrents of Autumn\Prefab Sprout [1990] Jordan~ The Comeback (Blu-specCD2, Japan, 2013)\15. One of the Broken.wav

Pre-gap length 0:00:03.59

Peak level 100.0 %
Extraction speed 8.0 X
Track quality 100.0 %
Test CRC 26419692
Copy CRC 26419692
Accurately ripped (confidence 8) [E53D244C] (AR v2)
Copy OK

Track 16

Filename E:\Torrents of Autumn\Prefab Sprout [1990] Jordan~ The Comeback (Blu-specCD2, Japan, 2013)\16. Michael.wav

Pre-gap length 0:00:02.22

Peak level 100.0 %
Extraction speed 6.8 X
Track quality 99.9 %
Test CRC 7D992A85
Copy CRC 7D992A85
Accurately ripped (confidence 8) [61E4F96D] (AR v2)
Copy OK

Track 17

Filename E:\Torrents of Autumn\Prefab Sprout [1990] Jordan~ The Comeback (Blu-specCD2, Japan, 2013)\17. Mercy.wav

Peak level 100.0 %
Extraction speed 5.1 X
Track quality 99.8 %
Test CRC 87CABCC7
Copy CRC 87CABCC7
Accurately ripped (confidence 8) [2BA6E267] (AR v2)
Copy OK

Track 18

Filename E:\Torrents of Autumn\Prefab Sprout [1990] Jordan~ The Comeback (Blu-specCD2, Japan, 2013)\18. Scarlet Nights.wav

Peak level 100.0 %
Extraction speed 8.6 X
Track quality 100.0 %
Test CRC 09C76263
Copy CRC 09C76263
Accurately ripped (confidence 8) [2E45E9CE] (AR v2)
Copy OK

Track 19

Filename E:\Torrents of Autumn\Prefab Sprout [1990] Jordan~ The Comeback (Blu-specCD2, Japan, 2013)\19. Doo-Wop in Harlem.wav

Pre-gap length 0:00:02.38

Peak level 100.0 %
Extraction speed 8.6 X
Track quality 100.0 %
Test CRC 736EAB51
Copy CRC 736EAB51
Accurately ripped (confidence 8) [11917072] (AR v2)
Copy OK


All tracks accurately ripped

No errors occurred

End of status report

–– CUETools DB Plugin V2.1.6

[CTDB TOCID: XIp.ujGEUNapGIfCOdI2oF6XwoU-] found
Submit result: XIp.ujGEUNapGIfCOdI2oF6XwoU- has been confirmed
Track | CTDB Status
1 | (30/30) Accurately ripped
2 | (30/30) Accurately ripped
3 | (30/30) Accurately ripped
4 | (30/30) Accurately ripped
5 | (30/30) Accurately ripped
6 | (30/30) Accurately ripped
7 | (30/30) Accurately ripped
8 | (30/30) Accurately ripped
9 | (30/30) Accurately ripped
10 | (30/30) Accurately ripped
11 | (30/30) Accurately ripped
12 | (30/30) Accurately ripped
13 | (30/30) Accurately ripped
14 | (30/30) Accurately ripped
15 | (30/30) Accurately ripped
16 | (30/30) Accurately ripped
17 | (30/30) Accurately ripped
18 | (30/30) Accurately ripped
19 | (30/30) Accurately ripped


==== Log checksum A107AC1C943F8838937EE412AEEF41BAFE18EC514550657DD18DEB193FBA7FC4 ====

Prefab Sprout - Jordan: The Comeback (1990) {2013, Blu-Spec CD2, Remastered, Japan}

All thanks go to DoobieBro

>>> "Prefab Sprout" in my Blog <<<

Download from icerbox.com: