Subcategories

Primal Scream - Screamadelica (1991) 20th Anniversary Japan 2CD Edition 2011

Posted By: Designol
Primal Scream - Screamadelica (1991) 20th Anniversary Japan 2CD Edition 2011

Primal Scream - Screamadelica (1991) 20th Anniversary Japan 2CD Edition 2011
EAC | FLAC | Image (Cue&Log) ~ 604 Mb (incl 5%) | Mp3 (CBR320/Stereo) ~ 212 Mb (incl 5%) | Scans ~ 85 Mb
Genre: Alternative Rock, BritPop, Dance-Rock, Acid House | Label: Sony | # SICP 3130~1 | Time: 01:28:11

Two CD edition contains the original 11 track album remastered by Primal Scream and Kevin Shields, plus a bonus CD containing the four track Dixie Narco EP. Digitally remastered 20th Anniversary edition of this classic 1991 album. The first signs of the genesis of Screamadelica came in Spring 1990 when they released 'Loaded'. Initially a throwaway Dance/Rock excursion, Andrew Weatherall took a sample from I'm Losing More Than I'll Ever Have from their previous album, slipped in some acid-fried funk and threw on a Peter Fonda sample and transformed it into a masterpiece of the era. 'Loaded' was the Primal's passport to Top Of The Pops and elevated Bobby Gillespie to Smash Hits poster-boy status. Subsequent singles were equally potent: 'Come Together', 'Higher Than The Sun' and the MC5-meets-Rave-Italo sensation 'Don't Fight It Feel It'. The album was released to widespread critical acclaim, and is still today frequently acknowledged as one of, if not THE, best albums of the 1990s.
There's no overestimating the importance of Screamadelica, the record that brought acid house, techno, and rave culture crashing into the British mainstream – an impact that rivaled that of Nirvana's Nevermind, the other 1991 release that changed rock. Prior to Screamadelica, Primal Scream were Stonesy classic rock revivalists with a penchant for Detroit rock. They retained those fascinations on Screamadelica – one listen to the Jimmy Miller-produced, Stephen Stills-rip "Movin' on Up" proves that – but they burst everything wide open here, turning rock inside out by marrying it to a gleeful rainbow of modern dance textures. This is such a brilliant, gutsy innovative record, so unlike anything the Scream did before, that it's little wonder that there's been much debate behind who is actually responsible for its grooves, especially since Andrew Weatherall is credited with production with eight of the tracks, and it's clearly in line with his work. Even if Primal Scream took credit for Weatherall's endeavors, that doesn't erase the fact that they shepherded this album, providing the ideas and impetus for this dubtastic, elastic, psychedelic exercise in deep house and neo-psychedelic. Like any dance music, this is tied to its era to a certain extent, but it transcends it due to its fierce imagination and how it doubles back on rock history, making the past present and vice versa. It was such a monumental step forward that Primal Scream stumbled before regaining their footing, but by that point, the innovations of Screamadelica had been absorbed by everyone from the underground to mainstream. There's little chance that this record will be as revolutionary to first-time listeners, but after its initial spin, the genius in its construction will become apparent – and it's that attention to detail that makes Screamadelica an album that transcends its time and influence.

Review by Stephen Thomas Erlewine, Allmusic.com
Primal Scream - Screamadelica (1991) 20th Anniversary Japan 2CD Edition 2011



Tracklist:

CD1
The Original Album:

01. Movin' on Up (03:51)
02. Slip Inside This House (05:16)
03. Don't Fight It, Feel It (06:54)
04. Higher Than the Sun (03:38)
05. Inner Flight (05:01)
06. Come Together (10:25)
07. Loaded (07:02)
08. Damaged (05:39)
09. I'm Comin' Down (06:01)
10. Higher Than the Sun (A Dub Symphony in Two Parts) (07:38)
11. Shine Like Stars (03:47)

CD2
Dixie Narco EP:

01. Movin' On Up (03:48)
02. Stone My Soul (03:01)
03. Carry Me Home (05:16)
04. Screamadelica (10:48)


Exact Audio Copy V1.0 beta 3 from 29. August 2011

EAC extraction logfile from 20. October 2012, 12:49

Primal Scream / Screamadelica

Used drive : TEAC DV-W516GD Adapter: 0 ID: 0

Read mode : Secure
Utilize accurate stream : Yes
Defeat audio cache : Yes
Make use of C2 pointers : No

Read offset correction : 6
Overread into Lead-In and Lead-Out : No
Fill up missing offset samples with silence : Yes
Delete leading and trailing silent blocks : No
Null samples used in CRC calculations : Yes
Used interface : Installed external ASPI interface

Used output format : Internal WAV Routines
Sample format : 44.100 Hz; 16 Bit; Stereo


TOC of the extracted CD

Track | Start | Length | Start sector | End sector
––––––––––––––––––––––––––––-
1 | 0:00.00 | 3:51.18 | 0 | 17342
2 | 3:51.18 | 5:16.49 | 17343 | 41091
3 | 9:07.67 | 6:54.09 | 41092 | 72150
4 | 16:02.01 | 3:38.22 | 72151 | 88522
5 | 19:40.23 | 5:01.73 | 88523 | 111170
6 | 24:42.21 | 10:25.19 | 111171 | 158064
7 | 35:07.40 | 7:02.47 | 158065 | 189761
8 | 42:10.12 | 5:39.34 | 189762 | 215220
9 | 47:49.46 | 6:01.06 | 215221 | 242301
10 | 53:50.52 | 7:38.13 | 242302 | 276664
11 | 61:28.65 | 3:47.27 | 276665 | 293716


Range status and errors

Selected range

Filename D:\Temp\Primal Scream - Screamadelica\Primal Scream - Screamadelica.wav

Peak level 99.7 %
Extraction speed 2.4 X
Range quality 100.0 %
Test CRC C145B2BA
Copy CRC C145B2BA
Copy OK

No errors occurred


AccurateRip summary

Track 1 not present in database
Track 2 not present in database
Track 3 not present in database
Track 4 not present in database
Track 5 not present in database
Track 6 not present in database
Track 7 not present in database
Track 8 not present in database
Track 9 not present in database
Track 10 not present in database
Track 11 not present in database

None of the tracks are present in the AccurateRip database

End of status report

–– CUETools DB Plugin V2.1.3

[CTDB TOCID: RTDfNRrfTi_EI5S_lDIVObAv2Bg-] found, Submit result: RTDfNRrfTi_EI5S_lDIVObAv2Bg- has been confirmed
[e8dd205b] (1/1) Accurately ripped


==== Log checksum 8FBDE1BEA30E6250697357C69351FD0DD213A7BA267C89E35830227BC1DAB1B1 ====

foobar2000 1.2.1 / Dynamic Range Meter 1.1.1
log date: 2013-02-16 21:11:36

––––––––––––––––––––––––––––––––––––––––
Analyzed: Primal Scream / Screamadelica
––––––––––––––––––––––––––––––––––––––––

DR Peak RMS Duration Track
––––––––––––––––––––––––––––––––––––––––
DR9 -0.02 dB -10.90 dB 3:51 01-Movin' on Up
DR7 -1.59 dB -10.66 dB 5:17 02-Slip Inside This House
DR10 -0.03 dB -10.79 dB 6:54 03-Don't Fight It, Feel It
DR9 -0.21 dB -11.92 dB 3:38 04-Higher Than the Sun
DR11 -0.20 dB -14.00 dB 5:02 05-Inner Flight
DR9 -0.94 dB -11.36 dB 10:25 06-Come Together
DR9 -0.34 dB -11.66 dB 7:03 07-Loaded
DR9 -0.39 dB -13.40 dB 5:39 08-Damaged
DR10 -0.40 dB -14.07 dB 6:01 09-I'm Comin' Down
DR10 -0.07 dB -13.23 dB 7:38 10-Higher Than the Sun (A Dub Symphony in Two Parts)
DR10 -0.93 dB -13.90 dB 3:47 11-Shine Like Stars
––––––––––––––––––––––––––––––––––––––––

Number of tracks: 11
Official DR value: DR9

Samplerate: 44100 Hz
Channels: 2
Bits per sample: 16
Bitrate: 910 kbps
Codec: FLAC
================================================================================

Exact Audio Copy V1.0 beta 3 from 29. August 2011

EAC extraction logfile from 20. October 2012, 19:25

Primal Scream / Screamadelica

Used drive : TEAC DV-W516GD Adapter: 0 ID: 0

Read mode : Secure
Utilize accurate stream : Yes
Defeat audio cache : Yes
Make use of C2 pointers : No

Read offset correction : 6
Overread into Lead-In and Lead-Out : No
Fill up missing offset samples with silence : Yes
Delete leading and trailing silent blocks : No
Null samples used in CRC calculations : Yes
Used interface : Installed external ASPI interface

Used output format : Internal WAV Routines
Sample format : 44.100 Hz; 16 Bit; Stereo


TOC of the extracted CD

Track | Start | Length | Start sector | End sector
––––––––––––––––––––––––––––-
1 | 0:00.00 | 3:48.07 | 0 | 17106
2 | 3:48.07 | 3:01.56 | 17107 | 30737
3 | 6:49.63 | 5:16.17 | 30738 | 54454
4 | 12:06.05 | 10:48.65 | 54455 | 103119


Range status and errors

Selected range

Filename D:\Temp\Primal Scream - Screamadelica (CD2)\Primal Scream - Screamadelica.wav

Peak level 99.9 %
Extraction speed 2.4 X
Range quality 100.0 %
Test CRC DF1F9AB8
Copy CRC DF1F9AB8
Copy OK

No errors occurred


AccurateRip summary

Track 1 not present in database
Track 2 not present in database
Track 3 not present in database
Track 4 not present in database

None of the tracks are present in the AccurateRip database

End of status report

–– CUETools DB Plugin V2.1.3

[CTDB TOCID: eIPYH9kiakUZy3wFg0heDESeCus-] disk not present in database, Submit result: eIPYH9kiakUZy3wFg0heDESeCus- has been uploaded


==== Log checksum 4A8157FBEEE93ECE0300B3CE1420D6382009C05E64DE515A8C0AAD39C9F2B3AF ====

foobar2000 1.2.1 / Dynamic Range Meter 1.1.1
log date: 2013-02-16 21:11:58

––––––––––––––––––––––––––––––––––––––––
Analyzed: Primal Scream / Screamadelica
––––––––––––––––––––––––––––––––––––––––

DR Peak RMS Duration Track
––––––––––––––––––––––––––––––––––––––––
DR7 -0.01 dB -8.95 dB 3:48 01-Movin' On Up
DR10 -0.46 dB -13.32 dB 3:02 02-Stone My Soul
DR9 -0.01 dB -12.71 dB 5:16 03-Carry Me Home
DR9 0.00 dB -10.88 dB 10:49 04-Screamadelica
––––––––––––––––––––––––––––––––––––––––

Number of tracks: 4
Official DR value: DR9

Samplerate: 44100 Hz
Channels: 2
Bits per sample: 16
Bitrate: 923 kbps
Codec: FLAC
================================================================================

Primal Scream - Screamadelica (1991) 20th Anniversary Japan 2CD Edition 2011

Primal Scream - Screamadelica (1991) 20th Anniversary Japan 2CD Edition 2011

All thanks to original releaser - vladaz

More interesting music in My Blog