Subcategories

Procol Harum - A Salty Dog (1969) [2017, MFSL UDSACD 2192]

Posted By: v3122
Procol Harum - A Salty Dog (1969) [2017, MFSL UDSACD 2192]

Procol Harum - A Salty Dog (1969)
EAC | Flac(Image) + Cue + Log & MP3 CBR 320Kbps
MFSL UDSACD 2192 | ~ 234 or 97 Mb | Scans(png) -> 125 Mb
Psychedelic Rock, Prog Rock

This album, the group's third, was where they showed just how far their talents extended across the musical landscape, from blues to R&B to classical rock. In contrast to their hastily recorded debut, or its successor, done to stretch their performance and composition range, A Salty Dog was recorded in a reasonable amount of time, giving the band a chance to fully develop their ideas. The title track is one of the finest songs ever to come from Procol Harum and one of the best pieces of progressive rock ever heard, and a very succinct example at that at under five minutes running time – the lyric and the music combine to form a perfect mood piece, and the performance is bold and subtle at once, in the playing and the singing, respectively. The range of sounds on the rest includes "Juicy John Pink," a superb piece of pre-World War II-style country blues, while "Crucifiction Lane" is a killer Otis Redding-style soul piece, and "Pilgrim's Progress" is a virtuoso keyboard workout.

by Bruce Eder, allmusic
Procol Harum - A Salty Dog (1969):

Procol Harum - A Salty Dog (1969) [2017, MFSL UDSACD 2192]

Tracklist:

01 A Salty Dog
02 The Milk Of Human Kindness
03 Too Much Between Us
04 The Devil Came From Kansas
05 Boredom
06 Juicy John Pink
07 Wreck Of The Hesperus
08 All This And More
09 Crucifiction Lane
10 Pilgrim's Progress

Exact Audio Copy V1.1 from 23. June 2015

EAC extraction logfile from 13. August 2017, 16:44

Procol Harum / A Salty Dog MFSL

Used drive : PLEXTOR BD-R PX-B950SA Adapter: 1 ID: 1

Read mode : Secure
Utilize accurate stream : Yes
Defeat audio cache : Yes
Make use of C2 pointers : No

Read offset correction : 6
Overread into Lead-In and Lead-Out : No
Fill up missing offset samples with silence : Yes
Delete leading and trailing silent blocks : No
Null samples used in CRC calculations : Yes
Used interface : Native Win32 interface for Win NT & 2000

Used output format : Internal WAV Routines
Sample format : 44.100 Hz; 16 Bit; Stereo


TOC of the extracted CD

Track | Start | Length | Start sector | End sector
––––––––––––––––––––––––––––-
1 | 0:00.00 | 4:43.49 | 0 | 21273
2 | 4:43.49 | 3:47.19 | 21274 | 38317
3 | 8:30.68 | 3:45.30 | 38318 | 55222
4 | 12:16.23 | 4:38.22 | 55223 | 76094
5 | 16:54.45 | 4:38.19 | 76095 | 96963
6 | 21:32.64 | 2:08.05 | 96964 | 106568
7 | 23:40.69 | 3:49.33 | 106569 | 123776
8 | 27:30.27 | 3:52.16 | 123777 | 141192
9 | 31:22.43 | 5:03.50 | 141193 | 163967
10 | 36:26.18 | 4:31.37 | 163968 | 184329


Range status and errors

Selected range

Filename C:\Users\Meijin\Desktop\ALLexxess\Procol Harum\1969 A Salty Dog (Hybrid SACD MFSL 2017)\Procol Harum - A Salty Dog MFSL.wav

Peak level 95.9 %
Extraction speed 3.4 X
Range quality 100.0 %
Test CRC 4456745A
Copy CRC 4456745A
Copy OK

No errors occurred


AccurateRip summary

Track 1 accurately ripped (confidence 2) [C121D1AD] (AR v2)
Track 2 accurately ripped (confidence 2) [87D4EBB1] (AR v2)
Track 3 accurately ripped (confidence 2) [71EA121A] (AR v2)
Track 4 accurately ripped (confidence 2) [82F666AA] (AR v2)
Track 5 accurately ripped (confidence 2) [85FB9177] (AR v2)
Track 6 accurately ripped (confidence 2) [F3841C48] (AR v2)
Track 7 accurately ripped (confidence 2) [31F46D77] (AR v2)
Track 8 accurately ripped (confidence 2) [6C7E55C1] (AR v2)
Track 9 accurately ripped (confidence 2) [393D86F0] (AR v2)
Track 10 accurately ripped (confidence 2) [318AD1B6] (AR v2)

All tracks accurately ripped

End of status report

–– CUETools DB Plugin V2.1.6

[CTDB TOCID: mClsBY5JyBxg103r7y6n6LTAW74-] found
Submit result: mClsBY5JyBxg103r7y6n6LTAW74- has been confirmed
Track | CTDB Status
1 | (5/5) Accurately ripped
2 | (5/5) Accurately ripped
3 | (5/5) Accurately ripped
4 | (5/5) Accurately ripped
5 | (5/5) Accurately ripped
6 | (5/5) Accurately ripped
7 | (5/5) Accurately ripped
8 | (5/5) Accurately ripped
9 | (5/5) Accurately ripped
10 | (5/5) Accurately ripped


==== Log checksum B9D77C3013413A0DD8DC8CC58D037CC54FCB3B551639CF9440601A8FED6CDA7E ====


[CUETools log; Date: 08.09.2017 15:16:21; Version: 2.1.5]
[AccurateRip ID: 000f605f-007a4c34-8209990a] found.
Track [ CRC | V2 ] Status
01 [09bb2df8|c121d1ad] (0+2/2) Accurately ripped
02 [270abbb1|87d4ebb1] (0+2/2) Accurately ripped
03 [66c19ff6|71ea121a] (0+2/2) Accurately ripped
04 [e3029243|82f666aa] (0+2/2) Accurately ripped
05 [0da7a9d3|85fb9177] (0+2/2) Accurately ripped
06 [3a306d92|f3841c48] (0+2/2) Accurately ripped
07 [49c6788b|31f46d77] (0+2/2) Accurately ripped
08 [8b719d1d|6c7e55c1] (0+2/2) Accurately ripped
09 [3dd31bb4|393d86f0] (0+2/2) Accurately ripped
10 [0d982a01|318ad1b6] (0+2/2) Accurately ripped

Track Peak [ CRC32 ] [W/O NULL] [ LOG ]
– 95,9 [4456745A] [C805AA6B] CRC32
01 85,3 [437C1F26] [EF517620]
02 90,5 [E9D04D3F] [AED40E66]
03 57,1 [BE490D6B] [15651E9F]
04 73,1 [5D782C5F] [36964170]
05 72,8 [8510E683] [E87D6A78]
06 79,6 [57DBD9AF] [A027CFE0]
07 81,0 [5B2BC53B] [4EFE37B6]
08 83,1 [D72BF41F] [756D500D]
09 94,6 [88E92316] [807C3741]
10 95,9 [F3BD0B87] [7729BF7A]


Procol Harum - A Salty Dog (1969) [2017, MFSL UDSACD 2192]

All thanks go to ALLexxess

Procol Harum in my Blog

Download Procol Harum - A Salty Dog (1969):