Subcategories

Procol Harum - Still There'll Be More: An Anthology 1967-2017 (2018) [5CD + 3DVD Box Set]

Posted By: v3122
Procol Harum - Still There'll Be More: An Anthology 1967-2017 (2018) [5CD + 3DVD Box Set]

Procol Harum - Still There'll Be More: An Anthology 1967-2017 (2018)
EAC | Flac(Image) + Cue + Log & MP3 CBR 320Kbps
5CD | Esoteric Recordings / Cherry Red, 5013929471009 | ~ 2144 or 857 Mb | Scans(jpg) -> 1.48 Gb
3xDVD5: NTSC 4:3 (720x480) VBR | LinearPCM, 2 ch -> 11.47 Gb
Progressive Rock

Of the legendary bands Great Britain birthed during the 1960s, none sound remotely like Procol Harum. From their emergence with the single version of "A Whiter Shade of Pale" months before the world heard the Beatles' Sgt. Pepper's Lonely Hearts Club Band, they were prog before prog, psychedelic before the world knew what it was, and a rocking R&B outfit. Their signature sound was a tense, often sublime balance of singer Gary Brooker's piano and dark, soul-drenched singing of Keith Reid's elliptical lyrics, Matthew Fisher's alternately haunted and fearsome organ, B.J. Wilson's drumming and – at least through 1971's brilliant Broken Barricades – the emergent electric blues guitar playing of Robin Trower. The weave of classical, pop, prog, and R&B was full of a dramatic tension, perverse, often black humor, biting commentary, history, and poetry. It exerted its influence on bands from the Who (Tommy) to Queen (A Night at the Opera) and beyond. Other tracks, including "A Salty Dog," "Whiskey Train," "Simple Sister," and "Conquistador," are also regarded as iconic.

England's Esoteric Recordings tells the band's story properly for the first time in this deluxe, 50th anniversary eight-disc box set that compiles studio recordings and live performances. It is comprised of five audio discs and three DVDs. The first three compact discs draw upon key tracks from the band's discography thus far. Opening with the 45 mixes of the first two singles, disc one covers their debut album, Shine on Brightly, A Salty Dog, and Home, along with the rocking B-side "Long Gone Geek" and a 1967 outtake of "Understandably Blue." Disc two picks up with music from Broken Barricades before digging deep into Live in Concert with the Edmonton Symphony Orchestra. Thankfully, Grand Hotel gets its proper respect with five cuts before the disc closes with three from Exotic Birds and Fruit – disc three commences with two more and moves straight on through Procol's Ninth, 1977's Something Magic, 1991's reunion album (with both Fisher and Trower) The Prodigal Stranger, and subsequent efforts from The Well's on Fire (2003) and 2017's Novum. Personnel changes frequently, and by Novum, even Reid had been replaced by lyricist Pete Brown (who penned lyrics to some of Cream's classic hits). Discs four and five include two full concerts: In 1973 with an orchestra and chorus at the Hollywood Bowl, and without them in 1976 from the Bournemouth Winter Gardens. The three DVDs feature over three-and-a-half hours of (mostly) unissued footage from 1967-1977 include performances from Top of the Pops and BBC Sight and Sound in Concert, Bremen Beat Club, and Radio Bremen. Also included is a 68-page hardback book with a lengthy, authoritative essay by Patrick Humphries, in-depth track-by-track commentary by Roland Clare, and previously unseen photographs and memorabilia from Gary Brooker's collection. The audio is better than any previously issued compilation, the video is superb, and the presentation is excellent. Though fans will likely have all the music, it's worth it for the video alone. This is the Procol Harum story as it was meant to be told.

by Thom Jurek, allmusic
Procol Harum - Still There'll Be More: An Anthology 1967-2017 (2018) [5CD + 3DVD Box Set]

Procol Harum - Still There'll Be More: An Anthology 1967-2017 (2018) :

Procol Harum - Still There'll Be More: An Anthology 1967-2017 (2018) [5CD + 3DVD Box Set]

Tracklist CD1:

01 A Whiter Shade Of Pale (A-Side Of Single)
02 Homburg (A-Side Of Single)
From The Album ’Procol Harum’
03 Cerdes (Outside The Gates Of)
04 Salad Days (Are Here Again)
05 Kaleidoscope
06 Repent Walpurgis
Recorded At Olympic Studios,1967
07 Understandably Blue
From The Album ’Shine On Brightly’
08 Shine On Brightly
09 Quite Rightly So
10 Skip Softly My Moonbeams
From The Album ’A Salty Dog’
11 A Salty Dog
12 The Devil Came From Kansas
13 Pilgrim’s Progress
14 The Milk Of Human Kindness
––––––––––––––-
15 Long Gone Geek (B-Side Of Single)
From The Album ’Home’
16 Whisky Train
17 Barnyard Story
18 Still There’ll Be More
19 Whaling Stories

Exact Audio Copy V1.3 from 2. September 2016

EAC extraction logfile from 20. April 2018, 19:39

Procol Harum / Still There'll Be More CD1

Used drive : PLEXTOR BD-R PX-B950SA Adapter: 1 ID: 1

Read mode : Secure
Utilize accurate stream : Yes
Defeat audio cache : Yes
Make use of C2 pointers : No

Read offset correction : 6
Overread into Lead-In and Lead-Out : No
Fill up missing offset samples with silence : Yes
Delete leading and trailing silent blocks : No
Null samples used in CRC calculations : Yes
Used interface : Native Win32 interface for Win NT & 2000

Used output format : Internal WAV Routines
Sample format : 44.100 Hz; 16 Bit; Stereo


TOC of the extracted CD

Track | Start | Length | Start sector | End sector
––––––––––––––––––––––––––––-
1 | 0:00.00 | 4:08.49 | 0 | 18648
2 | 4:08.49 | 3:56.74 | 18649 | 36422
3 | 8:05.48 | 5:03.60 | 36423 | 59207
4 | 13:09.33 | 3:40.09 | 59208 | 75716
5 | 16:49.42 | 2:54.50 | 75717 | 88816
6 | 19:44.17 | 5:02.50 | 88817 | 111516
7 | 24:46.67 | 3:32.10 | 111517 | 127426
8 | 28:19.02 | 3:32.34 | 127427 | 143360
9 | 31:51.36 | 3:41.03 | 143361 | 159938
10 | 35:32.39 | 3:47.12 | 159939 | 176975
11 | 39:19.51 | 4:37.73 | 176976 | 197823
12 | 43:57.49 | 4:36.37 | 197824 | 218560
13 | 48:34.11 | 4:31.17 | 218561 | 238902
14 | 53:05.28 | 3:45.14 | 238903 | 255791
15 | 56:50.42 | 3:10.38 | 255792 | 270079
16 | 60:01.05 | 4:30.24 | 270080 | 290353
17 | 64:31.29 | 2:44.62 | 290354 | 302715
18 | 67:16.16 | 4:53.21 | 302716 | 324711
19 | 72:09.37 | 7:03.61 | 324712 | 356497


Range status and errors

Selected range

Filename C:\Users\Alex\Desktop\ALLexxess\Procol Harum\2018 Still There'll Be More (8-Disc Box Set Esoteric Records)\CD1\Procol Harum - Still There'll Be More CD1.wav

Peak level 98.8 %
Extraction speed 4.0 X
Range quality 100.0 %
Test CRC D17FEC00
Copy CRC D17FEC00
Copy OK

No errors occurred


AccurateRip summary

Track 1 not present in database
Track 2 not present in database
Track 3 not present in database
Track 4 not present in database
Track 5 not present in database
Track 6 not present in database
Track 7 not present in database
Track 8 not present in database
Track 9 not present in database
Track 10 not present in database
Track 11 not present in database
Track 12 not present in database
Track 13 not present in database
Track 14 not present in database
Track 15 not present in database
Track 16 not present in database
Track 17 not present in database
Track 18 not present in database
Track 19 not present in database

None of the tracks are present in the AccurateRip database

End of status report

–– CUETools DB Plugin V2.1.6

[CTDB TOCID: qquaMXRipCY7xX8j80b0UHY27R8-] found
Submit result: qquaMXRipCY7xX8j80b0UHY27R8- has been confirmed
Track | CTDB Status
1 | (11/11) Accurately ripped
2 | (11/11) Accurately ripped
3 | (11/11) Accurately ripped
4 | (11/11) Accurately ripped
5 | (11/11) Accurately ripped
6 | (11/11) Accurately ripped
7 | (11/11) Accurately ripped
8 | (11/11) Accurately ripped
9 | (11/11) Accurately ripped
10 | (11/11) Accurately ripped
11 | (11/11) Accurately ripped
12 | (11/11) Accurately ripped
13 | (11/11) Accurately ripped
14 | (11/11) Accurately ripped
15 | (11/11) Accurately ripped
16 | (11/11) Accurately ripped
17 | (11/11) Accurately ripped
18 | (11/11) Accurately ripped
19 | (11/11) Accurately ripped


==== Log checksum 7F54BB643FB0F896FBF287207B7A1C56EEB620C730207AD2CD64BE03ADF49485 ====


[CUETools log; Date: 26.04.2018 13:50:37; Version: 2.1.5]
[CTDB TOCID: qquaMXRipCY7xX8j80b0UHY27R8-] found.
Track | CTDB Status
1 | (13/13) Accurately ripped
2 | (13/13) Accurately ripped
3 | (13/13) Accurately ripped
4 | (13/13) Accurately ripped
5 | (13/13) Accurately ripped
6 | (13/13) Accurately ripped
7 | (13/13) Accurately ripped
8 | (13/13) Accurately ripped
9 | (13/13) Accurately ripped
10 | (13/13) Accurately ripped
11 | (13/13) Accurately ripped
12 | (13/13) Accurately ripped
13 | (13/13) Accurately ripped
14 | (13/13) Accurately ripped
15 | (13/13) Accurately ripped
16 | (13/13) Accurately ripped
17 | (13/13) Accurately ripped
18 | (13/13) Accurately ripped
19 | (13/13) Accurately ripped
[AccurateRip ID: 0034b222-02e1836a-01129113] disk not present in database.

Track Peak [ CRC32 ] [W/O NULL] [ LOG ]
– 98,8 [D17FEC00] [99B03794] CRC32
01 98,8 [BB329DC3] [F014B213]
02 98,8 [844E0A36] [634E105B]
03 98,8 [FBA45B44] [40DA0B39]
04 98,8 [C3439824] [9261FF25]
05 98,8 [677E9055] [419A0DE1]
06 98,8 [3365A3E7] [43AC14BD]
07 90,8 [376BFE73] [784BCF28]
08 98,8 [F411CA7F] [B9EFEBD0]
09 98,8 [5C184C4A] [5D7A5C8C]
10 98,8 [376B6F97] [BABBEA3B]
11 98,8 [31F9F6CD] [C43B1478]
12 98,8 [A7440A8B] [976C8038]
13 98,8 [45BF2032] [3BC528AC]
14 98,8 [1F913940] [0EF50D29]
15 98,3 [508D9F6F] [259D12C4]
16 98,8 [5A14398C] [597D5004]
17 86,4 [35C3E19C] [47489A01]
18 98,8 [01128F19] [DA2DC9C1]
19 98,8 [E0ED3C44] [1B91D1FE]


Procol Harum - Still There'll Be More: An Anthology 1967-2017 (2018) [5CD + 3DVD Box Set]

Tracklist CD2:

From The Album ’Broken Barricades’
01 Simple Sister
02 Broken Barricades
03 Luskus Delph
04 Memorial Drive
From The Album ’Live In Concert
With The Edmonton Symphony Orchestra’
05 Conquistador
06 In Held ‘Twas In I
a. Glimpses Of Nirvana
b. ‘Twas Tea Time At The Circus
c. In the Autumn of My Madness
d. Look to Your Soul
e. Grand Finale
From The Album ’Grand Hotel’
07 Grand Hotel
08 Robert’s Box
09 For Liquorice John
10 Souvenir Of London
11 Fires (Which Burnt Brightly)
From The Album ’Exotic Birds And Fruit’
12 Nothing But The Truth
13 The Idol
14 The Thin End Of The Wedge

Exact Audio Copy V1.3 from 2. September 2016

EAC extraction logfile from 20. April 2018, 18:40

Procol Harum / Still There'll Be More CD2

Used drive : PLEXTOR BD-R PX-B950SA Adapter: 1 ID: 1

Read mode : Secure
Utilize accurate stream : Yes
Defeat audio cache : Yes
Make use of C2 pointers : No

Read offset correction : 6
Overread into Lead-In and Lead-Out : No
Fill up missing offset samples with silence : Yes
Delete leading and trailing silent blocks : No
Null samples used in CRC calculations : Yes
Used interface : Native Win32 interface for Win NT & 2000

Used output format : Internal WAV Routines
Sample format : 44.100 Hz; 16 Bit; Stereo


TOC of the extracted CD

Track | Start | Length | Start sector | End sector
––––––––––––––––––––––––––––-
1 | 0:00.00 | 5:50.37 | 0 | 26286
2 | 5:50.37 | 3:11.30 | 26287 | 40641
3 | 9:01.67 | 3:46.13 | 40642 | 57604
4 | 12:48.05 | 3:45.47 | 57605 | 74526
5 | 16:33.52 | 4:16.63 | 74527 | 93789
6 | 20:50.40 | 18:59.67 | 93790 | 179281
7 | 39:50.32 | 6:07.49 | 179282 | 206855
8 | 45:58.06 | 4:42.14 | 206856 | 228019
9 | 50:40.20 | 4:21.53 | 228020 | 247647
10 | 55:01.73 | 3:20.10 | 247648 | 262657
11 | 58:22.08 | 5:06.72 | 262658 | 285679
12 | 63:29.05 | 3:12.57 | 285680 | 300136
13 | 66:41.62 | 6:38.59 | 300137 | 330045
14 | 73:20.46 | 3:43.01 | 330046 | 346771


Range status and errors

Selected range

Filename C:\Users\Alex\Desktop\ALLexxess\Procol Harum\2018 Still There'll Be More (8-Disc Box Set Esoteric Records)\CD2\Procol Harum - Still There'll Be More CD2.wav

Peak level 98.8 %
Extraction speed 6.8 X
Range quality 100.0 %
Test CRC A384DC25
Copy CRC A384DC25
Copy OK

No errors occurred


AccurateRip summary

Track 1 not present in database
Track 2 not present in database
Track 3 not present in database
Track 4 not present in database
Track 5 not present in database
Track 6 not present in database
Track 7 not present in database
Track 8 not present in database
Track 9 not present in database
Track 10 not present in database
Track 11 not present in database
Track 12 not present in database
Track 13 not present in database
Track 14 not present in database

None of the tracks are present in the AccurateRip database

End of status report

–– CUETools DB Plugin V2.1.6

[CTDB TOCID: SVtZKB9c9uiAisRSVRsE.Y_XmFA-] found
Submit result: SVtZKB9c9uiAisRSVRsE.Y_XmFA- has been confirmed
Track | CTDB Status
1 | (9/9) Accurately ripped
2 | (9/9) Accurately ripped
3 | (9/9) Accurately ripped
4 | (9/9) Accurately ripped
5 | (9/9) Accurately ripped
6 | (9/9) Accurately ripped
7 | (9/9) Accurately ripped
8 | (9/9) Accurately ripped
9 | (9/9) Accurately ripped
10 | (9/9) Accurately ripped
11 | (9/9) Accurately ripped
12 | (9/9) Accurately ripped
13 | (9/9) Accurately ripped
14 | (8/9) Accurately ripped


==== Log checksum 852AF9260F9BDADE059B3A5EA6C84112A6A86E89AC8C19710B5B6754A764EDDF ====


[CUETools log; Date: 26.04.2018 13:51:23; Version: 2.1.5]
[CTDB TOCID: SVtZKB9c9uiAisRSVRsE.Y_XmFA-] found.
Track | CTDB Status
1 | (11/11) Accurately ripped
2 | (11/11) Accurately ripped
3 | (11/11) Accurately ripped
4 | (11/11) Accurately ripped
5 | (11/11) Accurately ripped
6 | (11/11) Accurately ripped
7 | (11/11) Accurately ripped
8 | (11/11) Accurately ripped
9 | (11/11) Accurately ripped
10 | (11/11) Accurately ripped
11 | (11/11) Accurately ripped
12 | (11/11) Accurately ripped
13 | (11/11) Accurately ripped
14 | (10/11) Accurately ripped
[AccurateRip ID: 0028e48e-01b7c2d5-a2120f0e] disk not present in database.

Track Peak [ CRC32 ] [W/O NULL] [ LOG ]
– 98,8 [A384DC25] [1B8F1C5C] CRC32
01 98,8 [EF5CB31D] [5F64BF8B]
02 98,8 [B141C1D2] [82284A16]
03 98,8 [D9C60DE7] [B0F5E12D]
04 98,8 [191CC39B] [A1AD6103]
05 98,8 [9093DCD0] [303CC12F]
06 98,8 [B7FF0D56] [7BE62919]
07 98,8 [BC8106C3] [AB6F7753]
08 98,8 [2D7910E7] [430FD8EF]
09 98,8 [4F419607] [2AFA320D]
10 98,8 [7CC5BFDC] [2C1F014F]
11 98,8 [16B72D9C] [3441C432]
12 98,8 [05AB1B6A] [45F34AD6]
13 98,8 [63BABDE0] [AAF540DE]
14 98,8 [07B2B9DB] [062F26F1]


Procol Harum - Still There'll Be More: An Anthology 1967-2017 (2018) [5CD + 3DVD Box Set]

Tracklist CD3:

From The Album ’Exotic Birds And Fruit’
01 Beyond The Pale
02 As Strong As Samson
From The Album ’Procol’s Ninth’
03 Pandora’s Box
04 The Unquiet Zone
05 Fool’s Gold
06 Typewriter Torment
From The Album ’Something Magic’
07 Something Magic
08 Skating On Thin Ice
09 Strangers In Space
From The Album ’The Prodigal Stranger’
10 Perpetual Motion
11 Holding On
From The Album ’The Well’s On Fire’
12 An Old English Dream
13 This World Is Rich (For Stephen Maboe)
14 The Emperor’s New Clothes
From The Album ’Novum’
15 Can’t Say That
16 The Only One

Exact Audio Copy V1.3 from 2. September 2016

EAC extraction logfile from 20. April 2018, 17:52

Procol Harum / Still There'll Be More CD3

Used drive : PLEXTOR BD-R PX-B950SA Adapter: 1 ID: 1

Read mode : Secure
Utilize accurate stream : Yes
Defeat audio cache : Yes
Make use of C2 pointers : No

Read offset correction : 6
Overread into Lead-In and Lead-Out : No
Fill up missing offset samples with silence : Yes
Delete leading and trailing silent blocks : No
Null samples used in CRC calculations : Yes
Used interface : Native Win32 interface for Win NT & 2000

Used output format : Internal WAV Routines
Sample format : 44.100 Hz; 16 Bit; Stereo


TOC of the extracted CD

Track | Start | Length | Start sector | End sector
––––––––––––––––––––––––––––-
1 | 0:00.00 | 3:04.14 | 0 | 13813
2 | 3:04.14 | 5:05.61 | 13814 | 36749
3 | 8:10.00 | 3:35.66 | 36750 | 52940
4 | 11:45.66 | 3:39.09 | 52941 | 69374
5 | 15:25.00 | 3:59.44 | 69375 | 87343
6 | 19:24.44 | 4:28.17 | 87344 | 107460
7 | 23:52.61 | 3:36.50 | 107461 | 123710
8 | 27:29.36 | 4:48.72 | 123711 | 145382
9 | 32:18.33 | 6:05.30 | 145383 | 172787
10 | 38:23.63 | 4:49.10 | 172788 | 194472
11 | 43:12.73 | 4:18.05 | 194473 | 213827
12 | 47:31.03 | 4:40.40 | 213828 | 234867
13 | 52:11.43 | 5:18.12 | 234868 | 258729
14 | 57:29.55 | 4:17.32 | 258730 | 278036
15 | 61:47.12 | 7:13.06 | 278037 | 310517
16 | 69:00.18 | 6:06.12 | 310518 | 337979


Range status and errors

Selected range

Filename C:\Users\Alex\Desktop\ALLexxess\Procol Harum\2018 Still There'll Be More (8-Disc Box Set Esoteric Records)\CD3\Procol Harum - Still There'll Be More CD3.wav

Peak level 98.8 %
Extraction speed 6.3 X
Range quality 99.9 %
Test CRC 9956E772
Copy CRC 9956E772
Copy OK

No errors occurred


AccurateRip summary

Track 1 not present in database
Track 2 not present in database
Track 3 not present in database
Track 4 not present in database
Track 5 not present in database
Track 6 not present in database
Track 7 not present in database
Track 8 not present in database
Track 9 not present in database
Track 10 not present in database
Track 11 not present in database
Track 12 not present in database
Track 13 not present in database
Track 14 not present in database
Track 15 not present in database
Track 16 not present in database

None of the tracks are present in the AccurateRip database

End of status report

–– CUETools DB Plugin V2.1.6

[CTDB TOCID: a8n.zCUGsTiwX558J7vHAo4W918-] found
Submit result: a8n.zCUGsTiwX558J7vHAo4W918- has been confirmed
Track | CTDB Status
1 | (9/9) Accurately ripped
2 | (9/9) Accurately ripped
3 | (9/9) Accurately ripped
4 | (9/9) Accurately ripped
5 | (9/9) Accurately ripped
6 | (9/9) Accurately ripped
7 | (9/9) Accurately ripped
8 | (9/9) Accurately ripped
9 | (9/9) Accurately ripped
10 | (9/9) Accurately ripped
11 | (9/9) Accurately ripped
12 | (9/9) Accurately ripped
13 | (9/9) Accurately ripped
14 | (9/9) Accurately ripped
15 | (9/9) Accurately ripped
16 | (9/9) Accurately ripped


==== Log checksum 83799E07B4B7915AAE79A916D879D068143712D3BC86117AB7C17D09F8F63F97 ====


[CUETools log; Date: 26.04.2018 13:52:02; Version: 2.1.5]
[CTDB TOCID: a8n.zCUGsTiwX558J7vHAo4W918-] found.
Track | CTDB Status
1 | (11/11) Accurately ripped
2 | (11/11) Accurately ripped
3 | (11/11) Accurately ripped
4 | (11/11) Accurately ripped
5 | (11/11) Accurately ripped
6 | (11/11) Accurately ripped
7 | (11/11) Accurately ripped
8 | (11/11) Accurately ripped
9 | (11/11) Accurately ripped
10 | (11/11) Accurately ripped
11 | (11/11) Accurately ripped
12 | (11/11) Accurately ripped
13 | (11/11) Accurately ripped
14 | (11/11) Accurately ripped
15 | (11/11) Accurately ripped
16 | (11/11) Accurately ripped
[AccurateRip ID: 002840b1-01ec4f22-da119a10] disk not present in database.

Track Peak [ CRC32 ] [W/O NULL] [ LOG ]
– 98,8 [9956E772] [AF59D3F9] CRC32
01 98,8 [50451C3F] [C66A79D8]
02 98,8 [CD482655] [A77EF8D7]
03 98,8 [4003B34C] [BAD3403E]
04 98,8 [8B935140] [0EF2A9A1]
05 98,8 [F207F34D] [533B6ADE]
06 98,8 [0411C380] [6EA64D98]
07 98,8 [046A1E84] [880A42BF]
08 98,8 [8314D472] [6F4374C3]
09 98,8 [49B4ED2D] [8381D23A]
10 98,8 [7C563333] [6D97301E]
11 98,8 [5D045FB0] [3457FA8B]
12 98,8 [86AFA4BE] [9CB9C0E4]
13 98,8 [B9F280F4] [B29703F1]
14 98,8 [9722DB8B] [8DF07702]
15 98,8 [4E97F9DD] [AD850342]
16 98,8 [3F05EE9A] [916E94C8]


Procol Harum - Still There'll Be More: An Anthology 1967-2017 (2018) [5CD + 3DVD Box Set]

Tracklist CD4:

Live At The Hollywood Bowl
With The Los Angeles Philharmonic Orchestra
01 Sanctus
02 Broken Barricades
03 Simple Sister
04 A Christmas Camel
05 Toujours L’Amour
06 Grand Hotel
07 Fires (Which Burnt Brightly)
08 A Salty Dog
09 Conquistador
10 Grand Finale
11 TV Ceasar / Rule Britannia

Exact Audio Copy V1.3 from 2. September 2016

EAC extraction logfile from 18. April 2018, 17:51

Procol Harum / Still There'll Be More CD4

Used drive : PLEXTOR BD-R PX-B950SA Adapter: 1 ID: 1

Read mode : Secure
Utilize accurate stream : Yes
Defeat audio cache : Yes
Make use of C2 pointers : No

Read offset correction : 6
Overread into Lead-In and Lead-Out : No
Fill up missing offset samples with silence : Yes
Delete leading and trailing silent blocks : No
Null samples used in CRC calculations : Yes
Used interface : Native Win32 interface for Win NT & 2000

Used output format : Internal WAV Routines
Sample format : 44.100 Hz; 16 Bit; Stereo


TOC of the extracted CD

Track | Start | Length | Start sector | End sector
––––––––––––––––––––––––––––-
1 | 0:00.00 | 1:42.59 | 0 | 7708
2 | 1:42.59 | 2:44.14 | 7709 | 20022
3 | 4:26.73 | 5:23.71 | 20023 | 44318
4 | 9:50.69 | 6:01.58 | 44319 | 71451
5 | 15:52.52 | 3:49.46 | 71452 | 88672
6 | 19:42.23 | 6:38.25 | 88673 | 118547
7 | 26:20.48 | 6:12.22 | 118548 | 146469
8 | 32:32.70 | 5:40.05 | 146470 | 171974
9 | 38:13.00 | 4:38.47 | 171975 | 192871
10 | 42:51.47 | 3:59.06 | 192872 | 210802
11 | 46:50.53 | 7:14.31 | 210803 | 243383


Range status and errors

Selected range

Filename C:\Users\Alex\Desktop\ALLexxess\Procol Harum\2018 Still There'll Be More (8-Disc Box Set Esoteric Records)\CD4\Procol Harum - Still There'll Be More CD4.wav

Peak level 98.8 %
Extraction speed 7.2 X
Range quality 100.0 %
Test CRC CD9AE804
Copy CRC CD9AE804
Copy OK

No errors occurred


AccurateRip summary

Track 1 not present in database
Track 2 not present in database
Track 3 not present in database
Track 4 not present in database
Track 5 not present in database
Track 6 not present in database
Track 7 not present in database
Track 8 not present in database
Track 9 not present in database
Track 10 not present in database
Track 11 not present in database

None of the tracks are present in the AccurateRip database

End of status report

–– CUETools DB Plugin V2.1.6

[CTDB TOCID: alsfC9VPWc67mfd3QwXAKwsaPWE-] found
Submit result: alsfC9VPWc67mfd3QwXAKwsaPWE- has been confirmed
Track | CTDB Status
1 | (11/11) Accurately ripped
2 | (11/11) Accurately ripped
3 | (11/11) Accurately ripped
4 | (11/11) Accurately ripped
5 | (11/11) Accurately ripped
6 | (11/11) Accurately ripped
7 | (11/11) Accurately ripped
8 | (11/11) Accurately ripped
9 | (11/11) Accurately ripped
10 | (11/11) Accurately ripped
11 | (11/11) Accurately ripped


==== Log checksum 689B756D1C25394C300B51DDB05EE605D018939970682335967FDD5518C3E821 ====


[CUETools log; Date: 26.04.2018 13:52:33; Version: 2.1.5]
[CTDB TOCID: alsfC9VPWc67mfd3QwXAKwsaPWE-] found.
Track | CTDB Status
1 | (13/13) Accurately ripped
2 | (13/13) Accurately ripped
3 | (13/13) Accurately ripped
4 | (13/13) Accurately ripped
5 | (13/13) Accurately ripped
6 | (13/13) Accurately ripped
7 | (13/13) Accurately ripped
8 | (13/13) Accurately ripped
9 | (13/13) Accurately ripped
10 | (13/13) Accurately ripped
11 | (13/13) Accurately ripped
[AccurateRip ID: 00141584-00b4f68a-9a0cad0b] disk not present in database.

Track Peak [ CRC32 ] [W/O NULL] [ LOG ]
– 98,8 [CD9AE804] [65053FE1] CRC32
01 98,8 [FCBD7269] [82CC948C]
02 98,8 [243266FB] [08C70EBB]
03 98,8 [7BE5090A] [0325E01F]
04 98,8 [6933836F] [8F4AFBE7]
05 98,8 [4EAF51A5] [FF949D5C]
06 98,8 [04F3902A] [0D988963]
07 98,8 [6961834A] [C6AF8D3B]
08 98,8 [54A812CA] [2EDCC85C]
09 98,8 [85795070] [46ABE814]
10 98,8 [19ED761A] [3EDDE661]
11 98,8 [DC15FFB5] [D4F0785E]


Procol Harum - Still There'll Be More: An Anthology 1967-2017 (2018) [5CD + 3DVD Box Set]

Tracklist CD5:

Live At Bournemouth Winter Gardens
01 The Unquiet Zone
02 Beyond The Pale
03 Whaling Stories
04 All This And More
05 A Salty Dog
06 I Keep Forgetting
07 The Blue Danube
08 I Can’t Help Myself (Sugar Pie, Honey Bunch) / Nothing But The Truth
09 A Whiter Shade Of Pale

Exact Audio Copy V1.3 from 2. September 2016

EAC extraction logfile from 18. April 2018, 17:10

Procol Harum / Still There'll Be More CD5

Used drive : PLEXTOR BD-R PX-B950SA Adapter: 1 ID: 1

Read mode : Secure
Utilize accurate stream : Yes
Defeat audio cache : Yes
Make use of C2 pointers : No

Read offset correction : 6
Overread into Lead-In and Lead-Out : No
Fill up missing offset samples with silence : Yes
Delete leading and trailing silent blocks : No
Null samples used in CRC calculations : Yes
Used interface : Native Win32 interface for Win NT & 2000

Used output format : Internal WAV Routines
Sample format : 44.100 Hz; 16 Bit; Stereo


TOC of the extracted CD

Track | Start | Length | Start sector | End sector
––––––––––––––––––––––––––––-
1 | 0:00.00 | 5:51.19 | 0 | 26343
2 | 5:51.19 | 3:47.29 | 26344 | 43397
3 | 9:38.48 | 9:22.63 | 43398 | 85610
4 | 19:01.36 | 4:05.22 | 85611 | 104007
5 | 23:06.58 | 5:11.50 | 104008 | 127382
6 | 28:18.33 | 4:05.01 | 127383 | 145758
7 | 32:23.34 | 8:16.24 | 145759 | 182982
8 | 40:39.58 | 5:01.50 | 182983 | 205607
9 | 45:41.33 | 7:35.46 | 205608 | 239778


Range status and errors

Selected range

Filename C:\Users\Alex\Desktop\ALLexxess\Procol Harum\2018 Still There'll Be More (8-Disc Box Set Esoteric Records)\CD5\Procol Harum - Still There'll Be More CD5.wav

Peak level 98.8 %
Extraction speed 6.9 X
Range quality 99.9 %
Test CRC 466E1E87
Copy CRC 466E1E87
Copy OK

No errors occurred


AccurateRip summary

Track 1 not present in database
Track 2 not present in database
Track 3 not present in database
Track 4 not present in database
Track 5 not present in database
Track 6 not present in database
Track 7 not present in database
Track 8 not present in database
Track 9 not present in database

None of the tracks are present in the AccurateRip database

End of status report

–– CUETools DB Plugin V2.1.6

[CTDB TOCID: sdPAzWTsZehxBVMARVj2Jq9nzqI-] found
Submit result: sdPAzWTsZehxBVMARVj2Jq9nzqI- has been confirmed
Track | CTDB Status
1 | (12/12) Accurately ripped
2 | (12/12) Accurately ripped
3 | (12/12) Accurately ripped
4 | (12/12) Accurately ripped
5 | (12/12) Accurately ripped
6 | (12/12) Accurately ripped
7 | (12/12) Accurately ripped
8 | (12/12) Accurately ripped
9 | (12/12) Accurately ripped


==== Log checksum 1A67F5F3CF69314BFBE95F4F6AF39B419C5DFD1EC7C8A8D94F63B73EE2A663F7 ====


[CUETools log; Date: 26.04.2018 13:53:20; Version: 2.1.5]
[CTDB TOCID: sdPAzWTsZehxBVMARVj2Jq9nzqI-] found.
Track | CTDB Status
1 | (14/14) Accurately ripped
2 | (14/14) Accurately ripped
3 | (14/14) Accurately ripped
4 | (14/14) Accurately ripped
5 | (14/14) Accurately ripped
6 | (14/14) Accurately ripped
7 | (14/14) Accurately ripped
8 | (14/14) Accurately ripped
9 | (14/14) Accurately ripped
[AccurateRip ID: 0011b6a9-00825798-6d0c7d09] disk not present in database.

Track Peak [ CRC32 ] [W/O NULL] [ LOG ]
– 98,8 [466E1E87] [760178EB] CRC32
01 98,8 [CB0AA8C7] [A629E969]
02 98,8 [02B98416] [24CCE69A]
03 98,8 [9AD392CF] [1A86C5B4]
04 98,8 [A9C9E3DD] [5642CEE7]
05 98,8 [8F577677] [1CA40652]
06 98,8 [F9E0D5C7] [4D01EE8C]
07 98,8 [F442340D] [7B03174E]
08 98,8 [FADCBB2A] [9B039B86]
09 98,8 [AC61A2BB] [0C78101B]


Procol Harum - Still There'll Be More: An Anthology 1967-2017 (2018) [5CD + 3DVD Box Set]

Tracklist DVD1:

’Top Of The Pops’ - BBC TV 1967
01 A Whiter Shade Of Pale
’Beat-Club’ - Radio Bremen 1967
02 Homburg
’Beat-Club’ - Radio Bremen 1968
03 Quite Rightly So
’Beat-Club’ - Radio Bremen 1969
04 A Salty Dog
05 The Devil Came From Kansas
06 Long Gone Geek
’Beat-Club Workshop’ - Radio Bremen 1971
07 Shine On Brightly
08 In the Wee Small Hours Of Sixpence
09 Still There’ll Be More
10 Pilgrim’s Progress
11 Quite Rightly So
12 Magdalene My Regal Zonophone
13 Power Failure
14 A Salty Dog
15 Simple Sister
16a. In The Autumn Of My Madness
16b. Look To Your Soul
16c. Grand Finale

Title: Procol Harum 2018 - Still There'll Be More DVD1
Size: 4.39 Gb ( 4 607 244,00 KBytes ) - DVD-9
Enabled regions: 1, 2, 3, 4, 5, 6, 7, 8

VTS_01 :
Play Length: 01:17:16
Video: NTSC 4:3 (720x480) VBR
Audio:
English (LinearPCM, 2 ch)

VTS_02 :
Play Length: 00:00:12
Video: NTSC 4:3 (720x480) VBR


Procol Harum - Still There'll Be More: An Anthology 1967-2017 (2018) [5CD + 3DVD Box Set]

Tracklist DVD2:

’Musikladen’ - Radio Bremen 1973
01 Drunk Again
02 Grand Hotel
03 Conquistador
04 Bringing Home The Bacon
05 Too Much Between Us
06 Toujours L’Amour
07 Whaling Stories
08 Fires (Which Burnt Brightly)
09 Kaleidoscope

Title: Procol Harum 2018 - Still There'll Be More DVD2
Size: 3.31 Gb ( 3 473 512,00 KBytes ) - DVD-5
Enabled regions: 1, 2, 3, 4, 5, 6, 7, 8

VTS_01 :
Play Length: 00:00:12
Video: NTSC 4:3 (720x480) VBR

VTS_02 :
Play Length: 00:51:07
Video: NTSC 4:3 (720x480) VBR
Audio:
English (LinearPCM, 2 ch)


Procol Harum - Still There'll Be More: An Anthology 1967-2017 (2018) [5CD + 3DVD Box Set]

Tracklist DVD3:

’Top Of The Pops’ - BBC TV 1975
01 Pandora’s Box
BBC TV ’Sight And Sound In Concert’
At The Hippodrome, Golders Green 1977
02 Something Magic
03 Conquistador
04 Nothing But The Truth
05 Strangers In Space
06 Grand Hotel
07 Pandora’s Box
08 Skating On Thin Ice
09 The Mark Of The Claw
10 Wizard Man
11 This Old Dog
12 A Whiter Shade Of Pale

Title: Procol Harum 2018 - Still There'll Be More DVD3
Size: 2.97 Gb ( 3 115 406,00 KBytes ) - DVD-5
Enabled regions: 1, 2, 3, 4, 5, 6, 7, 8

VTS_01 :
Play Length: 00:02:39
Video: NTSC 4:3 (720x480) VBR
Audio:
English (LinearPCM, 2 ch)

VTS_02 :
Play Length: 00:54:12
Video: NTSC 4:3 (720x480) VBR
Audio:
English (LinearPCM, 2 ch)

VTS_03 :
Play Length: 00:00:12
Video: NTSC 4:3 (720x480) VBR


Procol Harum - Still There'll Be More: An Anthology 1967-2017 (2018) [5CD + 3DVD Box Set]

Procol Harum - Still There'll Be More: An Anthology 1967-2017 (2018) [5CD + 3DVD Box Set]

Procol Harum - Still There'll Be More: An Anthology 1967-2017 (2018) [5CD + 3DVD Box Set]

Procol Harum - Still There'll Be More: An Anthology 1967-2017 (2018) [5CD + 3DVD Box Set]

All thanks go to ALLexxess

Procol Harum or Procol Harum in my Blog

Download Procol Harum - Still There'll Be More: An Anthology 1967-2017 (2018) :