Subcategories

Procol Harum - Broken Barricades (1971) {2002, Remastered} RE-UP

Posted By: popsakov
Procol Harum - Broken Barricades (1971) {2002, Remastered} RE-UP

Procol Harum - Broken Barricades (1971) {2002, Remastered}
EAC Rip | FLAC (Img) + Cue + Log ~ 268 Mb | MP3 CBR320 ~ 112 Mb
Scans (JPG, 600 dpi) ~ 54 Mb | RAR 5% Recovery
Progressive Rock | Repertoire Records #REP 4980

Broken Barricades is the fifth studio album by British rock band Procol Harum, released in 1971. It was Robin Trower's last album with Procol Harum before his solo career. The album features a tribute to Jimi Hendrix ("Song for a Dreamer") written by Robin Trower and Keith Reid. Trower and Reid were stunned by Hendrix's death at the age of only 27. ~ Wiki

Despite the departure of organist Matthew Fisher, Procol Harum survived, and this album is ample proof. Fisher was one of the prime architects of the Harum sound, and his work on such classics as "Shine on Brightly" and, of course, "Whiter Shade of Pale" underline that. Procol continued as a four-piece, and it was indeed a good thing that they decided not to replace Fisher. The sound of the band on this album is a bit sparser, but definitely not without dimension and dynamics. "Simple Sister," one of the finest Gary Brooker/Keith Reid compositions, is truly glorious, with Robin Trower's frightening lead guitar work juxtaposed nicely against a wonderful string arrangement. Several other tracks are first rate, including "Power Failure" and "Playmate of the Mouth." Along with Little Feat, Procol Harum was a great survivor among rock bands that have lost a key member. The proof is in these grooves. This German issue includes a mono mix of "Simple Sister," and single edits of "Broken Barricades" and "Power Failure."
~ Matthew Greenwald, All Music

***************

Procol Harum - Broken Barricades (1971) {2002, Remastered} RE-UP

Track List:

01. Simple Sister [05:51]
02. Broken Barricades [03:12]
03. Memorial Drive [03:46]
04. Luskus Delph [03:47]
05. Power Failure [04:32]
06. Song For A Dreamer [05:39]
07. Playmate Of The Mouth [05:06]
08. Poor Mohammed [03:08]
Bonus Tracks
09. Broken Barricades (Single Edit) [02:35]
10. Power Failure (Single Edit) [03:12]
11. Simple Sister (Mono Version) [05:49]

Exact Audio Copy V1.0 beta 1 from 15. November 2010

EAC extraction logfile from 30. January 2016, 13:21

Procol Harum / Broken Barricades

Used drive : MATSHITADVD-RAM UJ8A0AS Adapter: 0 ID: 1

Read mode : Secure
Utilize accurate stream : Yes
Defeat audio cache : Yes
Make use of C2 pointers : No

Read offset correction : 102
Overread into Lead-In and Lead-Out : No
Fill up missing offset samples with silence : Yes
Delete leading and trailing silent blocks : No
Null samples used in CRC calculations : Yes
Used interface : Native Win32 interface for Win NT & 2000

Used output format : Internal WAV Routines
Sample format : 44.100 Hz; 16 Bit; Stereo


TOC of the extracted CD

Track | Start | Length | Start sector | End sector
––––––––––––––––––––––––––––-
1 | 0:00.00 | 5:50.28 | 0 | 26277
2 | 5:50.28 | 3:11.54 | 26278 | 40656
3 | 9:02.07 | 3:45.36 | 40657 | 57567
4 | 12:47.43 | 3:46.28 | 57568 | 74545
5 | 16:33.71 | 4:31.51 | 74546 | 94921
6 | 21:05.47 | 5:38.47 | 94922 | 120318
7 | 26:44.19 | 5:05.30 | 120319 | 143223
8 | 31:49.49 | 3:07.52 | 143224 | 157300
9 | 34:57.26 | 2:34.60 | 157301 | 168910
10 | 37:32.11 | 3:11.42 | 168911 | 183277
11 | 40:43.53 | 5:48.14 | 183278 | 209391


Range status and errors

Selected range

Filename C:\Users\Alex\Music\Alexharvey\Procol Harum - Broken Barricades.wav

Peak level 98.8 %
Extraction speed 0.1 X
Range quality 100.0 %
Test CRC FF7C5A12
Copy CRC FF7C5A12
Copy OK

No errors occurred


AccurateRip summary

Track 1 accurately ripped (confidence 17) [5F2559BF]
Track 2 accurately ripped (confidence 19) [E6E84CAF]
Track 3 accurately ripped (confidence 17) [59D80DBC]
Track 4 accurately ripped (confidence 17) [CC264F17]
Track 5 accurately ripped (confidence 19) [A33CCFEF]
Track 6 accurately ripped (confidence 17) [6CA36666]
Track 7 accurately ripped (confidence 17) [20E1F7E6]
Track 8 accurately ripped (confidence 19) [3351FCAB]
Track 9 accurately ripped (confidence 17) [24CE2EAF]
Track 10 accurately ripped (confidence 17) [93867FD5]
Track 11 accurately ripped (confidence 17) [6F819923]

All tracks accurately ripped

End of status report

==== Log checksum E507D501F8A0DB97C46C96F82A63981F42CCFB6CE0416CC02ADFA03D64E3A259 ====

foobar2000 1.2.6 / Dynamic Range Meter 1.1.1
log date: 2016-02-02 12:20:24

––––––––––––––––––––––––––––––––––––––––
Analyzed: Procol Harum / Broken Barricades
––––––––––––––––––––––––––––––––––––––––

DR Peak RMS Duration Track
––––––––––––––––––––––––––––––––––––––––
DR7 -0.10 dB -9.21 dB 5:50 01-Simple Sister
DR9 -0.10 dB -10.85 dB 3:12 02-Broken Barricades
DR7 -0.10 dB -8.56 dB 3:45 03-Memorial Drive
DR9 -0.10 dB -11.32 dB 3:46 04-Luskus Delph
DR8 -0.10 dB -10.41 dB 4:32 05-Power Failure
DR8 -0.10 dB -10.81 dB 5:39 06-Song For A Dreamer
DR9 -0.10 dB -10.25 dB 5:05 07-Playmate Of The Mouth
DR8 -0.10 dB -10.15 dB 3:08 08-Poor Mohammed
DR8 -0.10 dB -9.59 dB 2:35 09-Broken Barricades (Single Edit)
DR8 -0.10 dB -10.50 dB 3:12 10-Power Failure (Single Edit)
DR7 -0.10 dB -8.25 dB 5:48 11-Simple Sister (Mono Version)
––––––––––––––––––––––––––––––––––––––––

Number of tracks: 11
Official DR value: DR8

Samplerate: 44100 Hz
Channels: 2
Bits per sample: 16
Bitrate: 765 kbps
Codec: FLAC
================================================================================

[CUETools log; Date: 02.02.2016 12:20:19; Version: 2.1.5]
[CTDB TOCID: 7iPHU61Dhu_ynv5YJFAlgMxf4wE-] found.
Track | CTDB Status
1 | (24/26) Accurately ripped
2 | (24/26) Accurately ripped
3 | (24/26) Accurately ripped
4 | (24/26) Accurately ripped
5 | (24/26) Accurately ripped
6 | (22/26) Accurately ripped
7 | (24/26) Accurately ripped
8 | (24/26) Accurately ripped
9 | (25/26) Accurately ripped
10 | (24/26) Accurately ripped
11 | (25/26) Accurately ripped
[AccurateRip ID: 001379ec-00a75e5c-9f0ae70b] found.
Track [ CRC | V2 ] Status
01 [5f2559bf|b37ab596] (14+17/33) Accurately ripped
02 [e6e84caf|77a57c13] (14+19/33) Accurately ripped
03 [59d80dbc|ec111b5a] (13+17/32) Accurately ripped
04 [cc264f17|435683a3] (13+17/32) Accurately ripped
05 [a33ccfef|8458f9df] (14+19/33) Accurately ripped
06 [6ca36666|d97e5cce] (15+17/34) Accurately ripped
07 [20e1f7e6|49c60ee3] (14+17/33) Accurately ripped
08 [3351fcab|7b04c9d4] (14+19/33) Accurately ripped
09 [24ce2eaf|dd8e884f] (14+17/31) Accurately ripped
10 [93867fd5|f3c23648] (12+17/29) Accurately ripped
11 [6f819923|cf71cf5f] (11+17/28) Accurately ripped

Track Peak [ CRC32 ] [W/O NULL] [ LOG ]
– 98,8 [FF7C5A12] [22353320] CRC32
01 98,8 [F9010794] [44EC506F]
02 98,8 [3A366A4F] [87D0DD1C]
03 98,8 [F00E92AC] [C0B4BA35]
04 98,8 [AA9356EE] [86060270]
05 98,8 [BF4E2054] [333A161A]
06 98,8 [C9287702] [33F7BA22]
07 98,8 [168BA84F] [D566B691]
08 98,8 [FE281F94] [77046073]
09 98,8 [4B263B80] [8F78431E]
10 98,8 [409965D2] [232DF6BE]
11 98,8 [400B16DC] [0BE1D5A7]

Procol Harum - Broken Barricades (1971) {2002, Remastered} RE-UP

All thanks go to Alexharvey

>>> My Blog <<<

Download from icerbox.com: