Subcategories

Procol Harum - Grand Hotel (1973) [Victor VICP-64104, Japan]

Posted By: v3122
Procol Harum - Grand Hotel (1973) [Victor VICP-64104, Japan]

Procol Harum - Grand Hotel (1973)
EAC | Flac(Image) + Cue + Log & MP3 CBR 320Kbps
2008 | Victor, VICP-64104 | ~ 279 or 98 Mb | Scans(600dpi, jpg) -> 118 Mb
Psychedelic Rock / Prog Rock / Classic Rock

Procol Harum's first album for Chrysalis, Grand Hotel, found the band returning to the grandeur of earlier works such as Shine on Brightly and Salty Dog. Robin Trower's replacement Mick Grabham is capable, even powerful, but not nearly as distinctive as his predecessor; consequently, the material tends to rely more on ornate arrangements than guitar riffs, making this somewhat more dignified than either of their previous studio albums, Home and Broken Barricades. Brooker and lyricist Keith Reid step up with strong material, notably the title track, "Toujours L'Amour," and "Fires (Which Burnt Brightly)." While the keyboard and orchestra-based arrangements harken back to earlier triumphs, the lyrics deal less with whaling stories than with social commentary; "A Souvenir of London" is about social diseases, with "T.V. Caesar" about the pervasive influence of television.

by James A. Gardner, AMG
Procol Harum - Grand Hotel (1973) [Victor VICP-64104, Japan]


Procol Harum - Grand Hotel (1973):

Procol Harum - Grand Hotel (1973) [Victor VICP-64104, Japan]

Tracklist:

01. Grand Hotel 6:13
02. Toujours L'Armour 3:35
03. A Rum Tale 3:24
04. T.V. Caesar 5:56
05. A Souvenir Of London 3:23
06. Bringing Home The Bacon 4:23
07. For Liquorice John 4:30
08. Fires (Which Burn Brightly) 5:13
09. Robert's Box 4:46

Exact Audio Copy V1.1 from 23. June 2015

EAC extraction logfile from 17. October 2015, 14:19

Procol Harum / Grand Hotel (VICP-64104)

Used drive : PLEXTOR DVDR PX-891SA Adapter: 1 ID: 0

Read mode : Secure
Utilize accurate stream : Yes
Defeat audio cache : Yes
Make use of C2 pointers : No

Read offset correction : 6
Overread into Lead-In and Lead-Out : No
Fill up missing offset samples with silence : Yes
Delete leading and trailing silent blocks : No
Null samples used in CRC calculations : Yes
Used interface : Native Win32 interface for Win NT & 2000

Used output format : User Defined Encoder
Selected bitrate : 128 kBit/s
Quality : High
Add ID3 tag : No
Command line compressor : C:\Program Files (x86)\Exact Audio Copy\Flac\flac.exe
Additional command line options : -V -8 -T "Genre=%genre%" -T "Artist=%artist%" -T "Title=%title%" -T "Album=%albumtitle%" -T "Date=%year%" -T "Tracknumber=%tracknr%" -T "Comment=%comment%" %source%


TOC of the extracted CD

Track | Start | Length | Start sector | End sector
––––––––––––––––––––––––––––-
1 | 0:00.00 | 6:13.16 | 0 | 27990
2 | 6:13.16 | 3:34.55 | 27991 | 44095
3 | 9:47.71 | 3:23.40 | 44096 | 59360
4 | 13:11.36 | 5:56.13 | 59361 | 86073
5 | 19:07.49 | 3:23.37 | 86074 | 101335
6 | 22:31.11 | 4:23.37 | 101336 | 121097
7 | 26:54.48 | 4:30.05 | 121098 | 141352
8 | 31:24.53 | 5:12.63 | 141353 | 164815
9 | 36:37.41 | 4:46.12 | 164816 | 186277


Range status and errors

Selected range

Filename H:\dafnaplus\Procol Harum\Grand Hotel\Procol Harum - Grand Hotel (VICP-64104).wav

Peak level 97.9 %
Extraction speed 7.1 X
Range quality 99.9 %
Test CRC 7C1DC899
Copy CRC 7C1DC899
Copy OK

No errors occurred


AccurateRip summary

Track 1 accurately ripped (confidence 3) [374A9A9B] (AR v2)
Track 2 accurately ripped (confidence 3) [D46407CF] (AR v2)
Track 3 accurately ripped (confidence 3) [33705492] (AR v2)
Track 4 accurately ripped (confidence 3) [418BFA8D] (AR v2)
Track 5 accurately ripped (confidence 3) [EC123A35] (AR v2)
Track 6 accurately ripped (confidence 3) [E904E41E] (AR v2)
Track 7 accurately ripped (confidence 3) [086FEE97] (AR v2)
Track 8 accurately ripped (confidence 3) [C541C646] (AR v2)
Track 9 accurately ripped (confidence 3) [A9174BE2] (AR v2)

All tracks accurately ripped

End of status report

–– CUETools DB Plugin V2.1.6

[CTDB TOCID: MP9KrT3Er9z37E7.mFy4wh971C8-] disk not present in database
Submit result: MP9KrT3Er9z37E7.mFy4wh971C8- has been uploaded


==== Log checksum 07A8A03B84EE02A792011E1E4A187BDB5617364FF7CCD02830FA1F7FC0170701 ====

foobar2000 1.2.9 / Dynamic Range Meter 1.1.1
log date: 2015-10-23 22:15:06

––––––––––––––––––––––––––––––––––––––––
Analyzed: Procol Harum / Grand Hotel (VICP-64104)
––––––––––––––––––––––––––––––––––––––––

DR Peak RMS Duration Track
––––––––––––––––––––––––––––––––––––––––
DR7 -0.18 dB -9.95 dB 6:13 01-Grand Hotel
DR7 -0.18 dB -8.50 dB 3:35 02-Toujours L'Armour
DR11 -0.18 dB -13.40 dB 3:24 03-A Rum Tale
DR8 -0.18 dB -9.27 dB 5:56 04-T.V. Caesar
DR11 -0.18 dB -12.46 dB 3:23 05-A Souvenir Of London
DR7 -0.18 dB -9.23 dB 4:23 06-Bringing Home The Bacon
DR8 -0.18 dB -10.13 dB 4:30 07-For Liquorice John
DR8 -0.18 dB -10.36 dB 5:13 08-Fires (Which Burn Brightly)
DR8 -0.18 dB -9.78 dB 4:46 09-Robert's Box
––––––––––––––––––––––––––––––––––––––––

Number of tracks: 9
Official DR value: DR8

Samplerate: 44100 Hz
Channels: 2
Bits per sample: 16
Bitrate: 917 kbps
Codec: FLAC

[CUETools log; Date: 23.10.2015 21:03:54; Version: 2.1.4]
[CTDB TOCID: MP9KrT3Er9z37E7.mFy4wh971C8-] found.
Track | CTDB Status
1 | (1/1) Accurately ripped
2 | (1/1) Accurately ripped
3 | (1/1) Accurately ripped
4 | (1/1) Accurately ripped
5 | (1/1) Accurately ripped
6 | (1/1) Accurately ripped
7 | (1/1) Accurately ripped
8 | (1/1) Accurately ripped
9 | (1/1) Accurately ripped
[AccurateRip ID: 000e3a33-0067967f-8f09b309] found.
Track [ CRC | V2 ] Status
01 [86418aeb|374a9a9b] (0+3/3) Accurately ripped
02 [08543b73|d46407cf] (0+3/3) Accurately ripped
03 [605f51b9|33705492] (0+3/3) Accurately ripped
04 [191936f4|418bfa8d] (0+3/3) Accurately ripped
05 [475ed70e|ec123a35] (0+3/3) Accurately ripped
06 [05490e7c|e904e41e] (0+3/3) Accurately ripped
07 [4ae4e8f4|086fee97] (0+3/3) Accurately ripped
08 [c5c84d45|c541c646] (0+3/3) Accurately ripped
09 [ea52047c|a9174be2] (0+3/3) Accurately ripped

Track Peak [ CRC32 ] [W/O NULL] [ LOG ]
– 97,9 [7C1DC899] [3884CF36] CRC32
01 97,9 [E97B8855] [82195AD4]
02 97,9 [D57A1641] [4E566C7D]
03 97,9 [B9F61B1B] [7D88ED53]
04 97,9 [8E05C277] [0B004B0F]
05 97,9 [A1F10118] [C30E784D]
06 97,9 [67BC890D] [2FACBAEB]
07 97,9 [704045BB] [86A36355]
08 97,9 [928166A5] [88656AB1]
09 97,9 [E8C9E106] [D7AC5BEC]

Procol Harum - Grand Hotel (1973) [Victor VICP-64104, Japan]

All thanks go to dafnaplus

Procol Harum in my Blog

Download Procol Harum - Grand Hotel (1973):