Subcategories

Procol Harum: 12CD Collection (1967-2012)

Posted By: v3122
Procol Harum: 12CD Collection (1967-2012)

Procol Harum: 12CD Collection (1967-2012)
EAC | Flac(Image) + Cue + Log & MP3 CBR 320Kbps
2012 | Victor, VICP-75090/100 | ~ 4086 or 1540 Mb | Scans(png) -> 2242 Mb
Progressive Rock, Psychedelic Rock

~ 12 x Cardboard Sleeve mini LP. K2 HD Mastering. Japanese pressing ~

Procol Harum (/ˈproʊkəl ˈhɑːrəm/) are an English rock band formed in 1967. They contributed to the development of symphonic rock, and by extension, progressive rock. Their best-known recording is their 1967 hit single "A Whiter Shade of Pale", considered a classic in popular music and one of the few singles to have sold over 10 million copies. Although noted for their baroque and classical influence, Procol Harum's music also embraces the blues, R&B, and soul.

~ wiki
Procol Harum: 12CD Collection (1967-2012)

Procol Harum: 12CD Collection (1967-2012):

Procol Harum: 12CD Collection (1967-2012)

Tracklist CD1 - 1967 - Procol Harum:
Victor Entertainment, VICP-75091

01. Conquistador 02:39
02. She Wandered Through The Garden Fence 03:26
03. Something Following Me 03:37
04. Mabel 01:56
05. Cerdes (Outside The Gates Of) 05:08
06. A Christmas Camel 04:48
07. Kaleidoscope 02:53
08. Salad Days (Are Here Again) 03:38
09. Good Captain Clack 01:30
10. Repent Walpurgis 05:05

Bonus Tracks:
11. A Whiter Shade Of Pale 04:07
12. Lime Street Blues 02:53
13. Homburg (Single Version) 03:57
14. Good Captain Clack (Single Version) 01:36
15. Il Tuo Diamante (Italian Single / Promo Version) 03:32
16. Understandably Blue 03:33
17. Pandora's Box (Version 1 / Backing Track) 03:46
18. Alpha 03:50
19. Conquistador (Stereo Version) 02:40
20. She Wandered Through The Garden Fence (Stereo Version) 03:27
21. Homburg (Album Version) 03:54

Exact Audio Copy V1.0 beta 3 from 29. August 2011

EAC extraction logfile from 8. January 2013, 19:25

Procol Harum / Procol Harum

Used drive : PLEXTOR BD-R PX-B950SA Adapter: 6 ID: 0

Read mode : Secure
Utilize accurate stream : Yes
Defeat audio cache : Yes
Make use of C2 pointers : No

Read offset correction : 6
Overread into Lead-In and Lead-Out : No
Fill up missing offset samples with silence : Yes
Delete leading and trailing silent blocks : No
Null samples used in CRC calculations : Yes
Used interface : Native Win32 interface for Win NT & 2000

Used output format : Internal WAV Routines
Sample format : 44.100 Hz; 16 Bit; Stereo


TOC of the extracted CD

Track | Start | Length | Start sector | End sector
––––––––––––––––––––––––––––-
1 | 0:00.00 | 2:39.06 | 0 | 11930
2 | 2:39.06 | 3:26.16 | 11931 | 27396
3 | 6:05.22 | 3:37.16 | 27397 | 43687
4 | 9:42.38 | 1:56.20 | 43688 | 52407
5 | 11:38.58 | 5:08.53 | 52408 | 75560
6 | 16:47.36 | 4:48.09 | 75561 | 97169
7 | 21:35.45 | 2:53.40 | 97170 | 110184
8 | 24:29.10 | 3:38.52 | 110185 | 126586
9 | 28:07.62 | 1:30.35 | 126587 | 133371
10 | 29:38.22 | 5:05.43 | 133372 | 156289
11 | 34:43.65 | 4:07.65 | 156290 | 174879
12 | 38:51.55 | 2:53.67 | 174880 | 187921
13 | 41:45.47 | 3:57.30 | 187922 | 205726
14 | 45:43.02 | 1:36.72 | 205727 | 212998
15 | 47:19.74 | 3:32.24 | 212999 | 228922
16 | 50:52.23 | 3:33.00 | 228923 | 244897
17 | 54:25.23 | 3:46.44 | 244898 | 261891
18 | 58:11.67 | 3:50.52 | 261892 | 279193
19 | 62:02.44 | 2:40.55 | 279194 | 291248
20 | 64:43.24 | 3:27.40 | 291249 | 306813
21 | 68:10.64 | 3:54.11 | 306814 | 324374


Range status and errors

Selected range

Filename C:\Users\Meijin\Desktop\Rip by ALLexxess\Procol Harum\1967 Procol Harum (Victor Entertainment Japan K2HD Mini LP HQCD 2012)\Procol Harum - Procol Harum.wav

Peak level 98.8 %
Extraction speed 3.8 X
Range quality 100.0 %
Test CRC 62A571FF
Copy CRC 62A571FF
Copy OK

No errors occurred


AccurateRip summary

Track 1 not present in database
Track 2 not present in database
Track 3 not present in database
Track 4 not present in database
Track 5 not present in database
Track 6 not present in database
Track 7 not present in database
Track 8 not present in database
Track 9 not present in database
Track 10 not present in database
Track 11 not present in database
Track 12 not present in database
Track 13 not present in database
Track 14 not present in database
Track 15 not present in database
Track 16 not present in database
Track 17 not present in database
Track 18 not present in database
Track 19 not present in database
Track 20 not present in database
Track 21 not present in database

None of the tracks are present in the AccurateRip database

End of status report

==== Log checksum 266CF707C5998D1FD9025172CB56BB0C509FF63F82F4D3E2ED6021FB68C38EB6 ====


[CUETools log; Date: 03.09.2017 17:51:43; Version: 2.1.5]
[CTDB TOCID: w32vXlUCKRSyHuWXXHqixasTzm4-] found.
Track | CTDB Status
1 | (12/12) Accurately ripped
2 | (12/12) Accurately ripped
3 | (12/12) Accurately ripped
4 | (12/12) Accurately ripped
5 | (12/12) Accurately ripped
6 | (12/12) Accurately ripped
7 | (12/12) Accurately ripped
8 | (12/12) Accurately ripped
9 | (12/12) Accurately ripped
10 | (12/12) Accurately ripped
11 | (12/12) Accurately ripped
12 | (12/12) Accurately ripped
13 | (12/12) Accurately ripped
14 | (12/12) Accurately ripped
15 | (12/12) Accurately ripped
16 | (12/12) Accurately ripped
17 | (12/12) Accurately ripped
18 | (12/12) Accurately ripped
19 | (11/12) Accurately ripped
20 | (12/12) Accurately ripped
21 | (12/12) Accurately ripped
[AccurateRip ID: 003638b6-03415f4c-3610e515] found.
Track [ CRC | V2 ] Status
01 [6027db94|092c0702] (0+9/9) Accurately ripped
02 [1b0f6026|961367eb] (0+9/9) Accurately ripped
03 [cd625396|dc1fbf57] (0+9/9) Accurately ripped
04 [8b37e3d9|8549dc99] (0+9/9) Accurately ripped
05 [3a61c952|864a4798] (0+9/9) Accurately ripped
06 [d7794ef7|0bb77b2c] (0+9/9) Accurately ripped
07 [25d526ee|8aec85c7] (0+9/9) Accurately ripped
08 [40be5fcf|d94ab86a] (0+9/9) Accurately ripped
09 [2fd930f5|4a315480] (0+9/9) Accurately ripped
10 [874478b7|5fe0c2e2] (0+9/9) Accurately ripped
11 [d2bf92d4|5b4281e4] (0+9/9) Accurately ripped
12 [b6e8571e|fe53713a] (0+9/9) Accurately ripped
13 [9fed0206|e3683f06] (0+9/9) Accurately ripped
14 [4f1dd34d|dcfa38d9] (0+9/9) Accurately ripped
15 [d1aed9aa|726307e6] (0+9/9) Accurately ripped
16 [3506ede3|a5c5206a] (0+8/8) Accurately ripped
17 [378e4e16|8e07b975] (0+9/9) Accurately ripped
18 [bb47da89|c18302a3] (0+9/9) Accurately ripped
19 [3ab955bd|84e0cb13] (0+9/9) Accurately ripped
20 [b93a23ef|0e36869b] (0+9/9) Accurately ripped
21 [e3cceef1|74eb3fb0] (0+9/9) Accurately ripped

Track Peak [ CRC32 ] [W/O NULL] [ LOG ]
– 98,8 [62A571FF] [EEF6ED8A] CRC32
01 98,8 [2863680E] [4AA40240]
02 98,8 [2B733956] [BAEA525E]
03 98,8 [8C5255A3] [3B5515B0]
04 98,8 [54CCD2A0] [9A2DC347]
05 98,8 [873C5C36] [79F1BF24]
06 98,8 [601693DD] [DC8BD9A3]
07 98,8 [902BD792] [E79EDBB3]
08 98,8 [881053A0] [815B232A]
09 98,8 [45318329] [9FB90101]
10 98,8 [3015240C] [534A7723]
11 98,8 [CE3ABCD3] [D58E0D80]
12 98,8 [10CA8107] [7ED61416]
13 98,8 [0FE95538] [60AECD55]
14 98,8 [73FEB8D4] [358839E7]
15 98,4 [D65FD41D] [1A3B5987]
16 98,8 [7B5DA7FC] [4AD1C48D]
17 98,8 [AB3C2185] [8EC3E347]
18 98,8 [635D9C52] [1DE25F65]
19 98,8 [BC350D0D] [FA9AB4FE]
20 98,8 [A0CB9995] [C77E4442]
21 98,8 [258F614D] [80884352]


Procol Harum: 12CD Collection (1967-2012)

Tracklist CD2 - 1968 - Shine On Brightly:
Victor Entertainment, VICP-75092

01. Quite Rightly So 03:38
02. Shine On Brightly 03:30
03. Skip Softly (My Moonbeams) 03:43
04. Wish Me Well 03:19
05. Rambling On 04:27
06. Magdalene (My Regal Zonophone) 02:47
In Held Twas In I
07. a) Glimpses Of Nirvana 04:20
08. b) 'Twas Teatime At The Circus 01:15
09. c) In The Autumn Of My Madness 03:01
10. d) Look To Your Soul 04:47
11. e) Grand Finale 03:39

Bonus Tracks:
12. Quite Rightly So (Mono Single Version) 03:41
13. In The Wee Small Hours Of Sixpence (Mono Single Version) 03:01
14. Monsieur Armand (Mono Outtake) 02:38
15. Seem To Have The Blues (Most All The Time) (Mono Single Version) 02:48
16. McGreggor (Stereo Outtake) 02:47
17. The Gospel According To… (Stereo Alternate Of 'Wish Me Well') 03:28
18. Shine On Brightly (Alternate Mono 1967 Version) 03:22
19. Magdalene (My Regal Zonophone) (Alternate Mono 1967 Version) 02:24
20. A Robe Of Silk (Stereo Backing Track) 01:58
21. Monsieur Armand (Stereo Backing Track) 02:42
22. In The Wee Small Hours Of Sixpence (Stereo Backing Track) 02:59

Exact Audio Copy V1.0 beta 3 from 29. August 2011

EAC extraction logfile from 8. January 2013, 12:37

Procol Harum / Shine On Brightly

Used drive : PLEXTOR BD-R PX-B950SA Adapter: 6 ID: 0

Read mode : Secure
Utilize accurate stream : Yes
Defeat audio cache : Yes
Make use of C2 pointers : No

Read offset correction : 6
Overread into Lead-In and Lead-Out : No
Fill up missing offset samples with silence : Yes
Delete leading and trailing silent blocks : No
Null samples used in CRC calculations : Yes
Used interface : Native Win32 interface for Win NT & 2000

Used output format : Internal WAV Routines
Sample format : 44.100 Hz; 16 Bit; Stereo


TOC of the extracted CD

Track | Start | Length | Start sector | End sector
––––––––––––––––––––––––––––-
1 | 0:00.00 | 3:38.08 | 0 | 16357
2 | 3:38.08 | 3:30.05 | 16358 | 32112
3 | 7:08.13 | 3:43.22 | 32113 | 48859
4 | 10:51.35 | 3:19.69 | 48860 | 63853
5 | 14:11.29 | 4:27.40 | 63854 | 83918
6 | 18:38.69 | 2:47.35 | 83919 | 96478
7 | 21:26.29 | 4:20.24 | 96479 | 116002
8 | 25:46.53 | 1:15.37 | 116003 | 121664
9 | 27:02.15 | 3:01.70 | 121665 | 135309
10 | 30:04.10 | 4:48.44 | 135310 | 156953
11 | 34:52.54 | 3:39.26 | 156954 | 173404
12 | 38:32.05 | 3:41.41 | 173405 | 190020
13 | 42:13.46 | 3:01.51 | 190021 | 203646
14 | 45:15.22 | 2:38.38 | 203647 | 215534
15 | 47:53.60 | 2:48.24 | 215535 | 228158
16 | 50:42.09 | 2:47.08 | 228159 | 240691
17 | 53:29.17 | 3:28.28 | 240692 | 256319
18 | 56:57.45 | 3:22.43 | 256320 | 271512
19 | 60:20.13 | 2:24.59 | 271513 | 282371
20 | 62:44.72 | 1:58.42 | 282372 | 291263
21 | 64:43.39 | 2:42.27 | 291264 | 303440
22 | 67:25.66 | 2:59.42 | 303441 | 316907


Range status and errors

Selected range

Filename C:\Users\Meijin\Desktop\Rip by ALLexxess\Procol Harum\1968 Shine On Brightly (Victor Entertainment Japan K2HD Mastering HQCD 2012)\Procol Harum - Shine On Brightly.wav

Peak level 98.8 %
Extraction speed 8.3 X
Range quality 100.0 %
Test CRC 482124E6
Copy CRC 482124E6
Copy OK

No errors occurred


AccurateRip summary

Track 1 cannot be verified as accurate (confidence 17) [2491A680], AccurateRip returned [0358ADF7] (AR v2)
Track 2 cannot be verified as accurate (confidence 17) [A4E7DDF8], AccurateRip returned [681487C3] (AR v2)
Track 3 cannot be verified as accurate (confidence 17) [91068A28], AccurateRip returned [A15FBFE4] (AR v2)
Track 4 cannot be verified as accurate (confidence 17) [619F13CD], AccurateRip returned [4300D51E] (AR v2)
Track 5 cannot be verified as accurate (confidence 17) [B1C8BA2A], AccurateRip returned [213D7E3A] (AR v2)
Track 6 cannot be verified as accurate (confidence 17) [1EED5EC6], AccurateRip returned [75CA06D6] (AR v2)
Track 7 cannot be verified as accurate (confidence 17) [74F07B6E], AccurateRip returned [B41821A0] (AR v2)
Track 8 cannot be verified as accurate (confidence 17) [7D58D8AB], AccurateRip returned [10F4232E] (AR v2)
Track 9 cannot be verified as accurate (confidence 17) [FED5CDA2], AccurateRip returned [9203DCCF] (AR v2)
Track 10 cannot be verified as accurate (confidence 17) [8E1D07B8], AccurateRip returned [24564526] (AR v2)
Track 11 cannot be verified as accurate (confidence 17) [CA0BAC70], AccurateRip returned [1FF67665] (AR v2)
Track 12 cannot be verified as accurate (confidence 16) [4F308012], AccurateRip returned [ECE48C76] (AR v2)
Track 13 cannot be verified as accurate (confidence 16) [F082A58F], AccurateRip returned [F2C5D113] (AR v2)
Track 14 cannot be verified as accurate (confidence 16) [C4C8C11C], AccurateRip returned [EE25E43D] (AR v2)
Track 15 cannot be verified as accurate (confidence 16) [435A2418], AccurateRip returned [B7D9F2A0] (AR v2)
Track 16 cannot be verified as accurate (confidence 15) [37C1277A], AccurateRip returned [9974C731] (AR v2)
Track 17 cannot be verified as accurate (confidence 15) [BB1D6CD5], AccurateRip returned [66907798] (AR v2)
Track 18 cannot be verified as accurate (confidence 15) [EC6D5B3E], AccurateRip returned [F192D668] (AR v2)
Track 19 cannot be verified as accurate (confidence 15) [DFA18A62], AccurateRip returned [9C9A4B25] (AR v2)
Track 20 cannot be verified as accurate (confidence 15) [61077234], AccurateRip returned [23AE3CA3] (AR v2)
Track 21 cannot be verified as accurate (confidence 15) [22A4D128], AccurateRip returned [F6E9F6AF] (AR v2)
Track 22 cannot be verified as accurate (confidence 14) [CF074CF7], AccurateRip returned [77234FAE] (AR v2)

No tracks could be verified as accurate
You may have a different pressing from the one(s) in the database

End of status report

==== Log checksum 33B440487D37F31270E25E417CE1F3CF12094A5BFDCD13EDC749B171EA0EB4CA ====


[CUETools log; Date: 03.09.2017 17:52:26; Version: 2.1.5]
[CTDB TOCID: tV.PRvsW4m6iz80uoVuSuzkEsE0-] found.
Track | CTDB Status
1 | ( 7/56) Accurately ripped
2 | ( 7/56) Accurately ripped
3 | ( 7/56) Accurately ripped
4 | ( 7/56) Accurately ripped
5 | ( 7/56) Accurately ripped
6 | ( 7/56) Accurately ripped
7 | ( 7/56) Accurately ripped
8 | ( 7/56) Accurately ripped
9 | ( 7/56) Accurately ripped
10 | ( 7/56) Accurately ripped
11 | ( 7/56) Accurately ripped
12 | ( 7/56) Accurately ripped
13 | ( 7/56) Accurately ripped
14 | ( 7/56) Accurately ripped
15 | ( 7/56) Accurately ripped
16 | ( 7/56) Accurately ripped
17 | ( 7/56) Accurately ripped
18 | ( 7/56) Accurately ripped
19 | ( 7/56) Accurately ripped
20 | ( 7/56) Accurately ripped
21 | ( 7/56) Accurately ripped
22 | ( 7/56) Accurately ripped
[AccurateRip ID: 003aaab8-039fcafd-2d108116] found.
Track [ CRC | V2 ] Status
01 [027bfac9|2491a680] (00+02/87) Accurately ripped
02 [bb9cd2b0|a4e7ddf8] (00+02/87) Accurately ripped
03 [3a9a30d7|91068a28] (00+02/87) Accurately ripped
04 [3bb6e938|619f13cd] (00+02/87) Accurately ripped
05 [15d93fcd|b1c8ba2a] (00+02/87) Accurately ripped
06 [c3fc5c23|1eed5ec6] (00+02/87) Accurately ripped
07 [a462e68d|74f07b6e] (00+02/88) Accurately ripped
08 [29b811ab|7d58d8ab] (00+02/88) Accurately ripped
09 [c9161023|fed5cda2] (00+02/88) Accurately ripped
10 [aead041c|8e1d07b8] (00+02/89) Accurately ripped
11 [70e37274|ca0bac70] (00+02/87) Accurately ripped
12 [afb66a6e|4f308012] (00+02/83) Accurately ripped
13 [205eee47|f082a58f] (00+02/85) Accurately ripped
14 [e1ad3a5e|c4c8c11c] (00+02/85) Accurately ripped
15 [c36aa109|435a2418] (00+02/85) Accurately ripped
16 [a3ddd849|37c1277a] (00+02/83) Accurately ripped
17 [181e2512|bb1d6cd5] (00+02/84) Accurately ripped
18 [28bbd097|ec6d5b3e] (00+02/84) Accurately ripped
19 [e5f39ec1|dfa18a62] (00+02/85) Accurately ripped
20 [54722942|61077234] (00+02/85) Accurately ripped
21 [4a079a4b|22a4d128] (00+02/83) Accurately ripped
22 [6720c5d0|cf074cf7] (00+02/83) Accurately ripped

Track Peak [ CRC32 ] [W/O NULL] [ LOG ]
– 98,8 [482124E6] [F36B0403] CRC32
01 98,8 [54D746C9] [7A36AC78]
02 98,8 [D81E8BC2] [32DAF4FB]
03 98,8 [8B72EBAB] [F38ADFAA]
04 98,8 [EF3D826F] [B9AED0FD]
05 98,8 [6BD6B3B7] [EA176CBA]
06 98,8 [E494A761] [680C977A]
07 98,8 [4ADD8206] [7DAA450A]
08 98,8 [E3732DFC] [6BC907D7]
09 98,8 [1C142BE5] [9B45B4E9]
10 98,8 [727E3202] [6F965BB1]
11 98,8 [2F6056DA] [DCEFA4B8]
12 98,8 [F0B9DF1D] [F36F6B0E]
13 98,8 [EF824B77] [A99BCA03]
14 98,8 [563E61DD] [72D0CF85]
15 98,8 [48CDE3B2] [07ED4FC9]
16 98,8 [E474991B] [CB03B145]
17 98,8 [F3CFB872] [5239566A]
18 98,8 [59B76F7B] [FB85EFDF]
19 98,8 [4E8E116E] [4397E4D9]
20 98,8 [190B4D9C] [B2E2E4B2]
21 98,8 [0813BE62] [9234A2CC]
22 98,8 [555ACE71] [1A8921B2]


Procol Harum: 12CD Collection (1967-2012)

Tracklist CD3 - 1969 - A Salty Dog:
Victor Entertainment, VICP-75093

01. A Salty Dog 04:38
02. The Milk Of Human Kindness 03:44
03. Too Much Between Us 03:40
04. The Devil Came From Kansas 04:32
05. Boredom 04:36
06. Juicy John Pink 02:04
07. Wreck Of The Hesperus 03:44
08. All This And More 03:47
09. Crucifiction Lane 04:56
10. Pilgrims Progress 04:33

Bonus Tracks:
11. Long Gone Geek 03:17
12. Goin' Down Slow (Live In The USA, April, 1969) 07:48
13. Juicy John Pink (Live In The USA, April, 1969) 02:38
14. Crucifiction Lane (Live In The USA, April, 1969) 04:34
15. Skip Softly (My Moonbeams) / Also Sprach Zarathustra (Live In The USA, April, 1969) 05:28
16. The Milk Of Human Kindness (Take 1 / Raw Track) 03:46

Exact Audio Copy V1.0 beta 3 from 29. August 2011

EAC extraction logfile from 8. January 2013, 11:25

Procul Harum / A Salty Dog

Used drive : PLEXTOR BD-R PX-B950SA Adapter: 6 ID: 0

Read mode : Secure
Utilize accurate stream : Yes
Defeat audio cache : Yes
Make use of C2 pointers : No

Read offset correction : 6
Overread into Lead-In and Lead-Out : No
Fill up missing offset samples with silence : Yes
Delete leading and trailing silent blocks : No
Null samples used in CRC calculations : Yes
Used interface : Native Win32 interface for Win NT & 2000

Used output format : Internal WAV Routines
Sample format : 44.100 Hz; 16 Bit; Stereo


TOC of the extracted CD

Track | Start | Length | Start sector | End sector
––––––––––––––––––––––––––––-
1 | 0:00.00 | 4:38.59 | 0 | 20908
2 | 4:38.59 | 3:44.08 | 20909 | 37716
3 | 8:22.67 | 3:40.30 | 37717 | 54246
4 | 12:03.22 | 4:32.65 | 54247 | 74711
5 | 16:36.12 | 4:36.38 | 74712 | 95449
6 | 21:12.50 | 2:04.27 | 95450 | 104776
7 | 23:17.02 | 3:44.29 | 104777 | 121605
8 | 27:01.31 | 3:47.35 | 121606 | 138665
9 | 30:48.66 | 4:56.11 | 138666 | 160876
10 | 35:45.02 | 4:33.22 | 160877 | 181373
11 | 40:18.24 | 3:17.68 | 181374 | 196216
12 | 43:36.17 | 7:48.05 | 196217 | 231321
13 | 51:24.22 | 2:38.57 | 231322 | 243228
14 | 54:03.04 | 4:34.55 | 243229 | 263833
15 | 58:37.59 | 5:28.41 | 263834 | 288474
16 | 64:06.25 | 3:46.47 | 288475 | 305471


Range status and errors

Selected range

Filename C:\Users\Meijin\Desktop\Rip by ALLexxess\Procol Harum\1969 A Salty Dog (Victor Entertainment Japan K2HD Mastering HQCD 2012)\Procul Harum - A Salty Dog.wav

Peak level 98.8 %
Extraction speed 8.0 X
Range quality 99.9 %
Test CRC 7D57AA4F
Copy CRC 7D57AA4F
Copy OK

No errors occurred


AccurateRip summary

Track 1 not present in database
Track 2 not present in database
Track 3 not present in database
Track 4 not present in database
Track 5 not present in database
Track 6 not present in database
Track 7 not present in database
Track 8 not present in database
Track 9 not present in database
Track 10 not present in database
Track 11 not present in database
Track 12 not present in database
Track 13 not present in database
Track 14 not present in database
Track 15 not present in database
Track 16 not present in database

None of the tracks are present in the AccurateRip database

End of status report

==== Log checksum FAF7D67FE0E73BAD6FD186CA5E7B484C13887AF931EC76894F078CA7ED0F87A3 ====


[CUETools log; Date: 03.09.2017 17:53:04; Version: 2.1.5]
[CTDB TOCID: FXflML86EH_AVIJ2uQhzmPhiLJs-] found.
Track | CTDB Status
1 | (6/6) Accurately ripped
2 | (6/6) Accurately ripped
3 | (6/6) Accurately ripped
4 | (6/6) Accurately ripped
5 | (6/6) Accurately ripped
6 | (6/6) Accurately ripped
7 | (6/6) Accurately ripped
8 | (6/6) Accurately ripped
9 | (6/6) Accurately ripped
10 | (6/6) Accurately ripped
11 | (6/6) Accurately ripped
12 | (6/6) Accurately ripped
13 | (6/6) Accurately ripped
14 | (6/6) Accurately ripped
15 | (6/6) Accurately ripped
16 | (6/6) Accurately ripped
[AccurateRip ID: 00266f64-01d00329-ea0fe810] found.
Track [ CRC | V2 ] Status
01 [92640ce4|a461804a] (0+5/5) Accurately ripped
02 [6eaffabb|6953eec7] (0+5/5) Accurately ripped
03 [8a231541|cd8c1630] (0+5/5) Accurately ripped
04 [211903a9|6ab1c53d] (0+5/5) Accurately ripped
05 [65189742|59abb847] (0+5/5) Accurately ripped
06 [aedb1341|35fb3ebb] (0+5/5) Accurately ripped
07 [ac6038f7|c05b6e0d] (0+5/5) Accurately ripped
08 [89356609|fb18bf84] (0+5/5) Accurately ripped
09 [293c8302|b17cecaa] (0+5/5) Accurately ripped
10 [08eb2ae9|aeabea91] (0+5/5) Accurately ripped
11 [f3292020|b26039f5] (0+5/5) Accurately ripped
12 [1e6f0a46|3f592984] (0+5/5) Accurately ripped
13 [888c25a4|33ea9aca] (0+5/5) Accurately ripped
14 [1232b260|fbbe16f7] (0+5/5) Accurately ripped
15 [efcdf8cf|14a32ee1] (0+5/5) Accurately ripped
16 [dcba8d12|a85b1261] (0+5/5) Accurately ripped

Track Peak [ CRC32 ] [W/O NULL] [ LOG ]
– 98,8 [7D57AA4F] [1558207C] CRC32
01 98,8 [39808B8F] [6027ECCE]
02 98,8 [7ACA7B80] [D0D1907B]
03 98,8 [174325F9] [3D0ABAE3]
04 98,8 [BCA9BA11] [FD9E5A95]
05 98,8 [11901632] [5E58FB40]
06 98,8 [E51CA3FA] [F80DD7A9]
07 98,8 [904411E3] [75312625]
08 98,8 [0F89C5DB] [F800E39E]
09 98,8 [77100583] [632E319A]
10 98,8 [57412CC0] [D39A8833]
11 98,8 [FF0C81CF] [633C313F]
12 98,8 [916E95CA] [E6BAFBAC]
13 98,8 [E986A9C1] [B3A00D97]
14 98,8 [2481790C] [F8A7DE96]
15 98,8 [3AA9A5B9] [2285F9D9]
16 98,8 [679109AC] [740F3699]


Procol Harum: 12CD Collection (1967-2012)

Tracklist CD4 - 1970 - Home:
Victor Entertainment, VICP-75094

01. Whisky Train 04:27
02. The Dead Man's Dream 04:40
03. Still There'll Be More 04:54
04. Nothing That I Didn't Know 03:34
05. About To Die 03:43
06. Barnyard Story 02:43
07. Piggy Pig Pig 04:43
08. Whaling Stories 07:01
09. Your Own Choice 03:16

Bonus Tracks:
10. Still There'll Be More (Take 3 / Raw Track) 04:59
11. Whaling Stories (Raw Track) 07:05

Exact Audio Copy V1.0 beta 3 from 29. August 2011

EAC extraction logfile from 8. January 2013, 10:51

Procol Harum / Home

Used drive : PLEXTOR BD-R PX-B950SA Adapter: 6 ID: 0

Read mode : Secure
Utilize accurate stream : Yes
Defeat audio cache : Yes
Make use of C2 pointers : No

Read offset correction : 6
Overread into Lead-In and Lead-Out : No
Fill up missing offset samples with silence : Yes
Delete leading and trailing silent blocks : No
Null samples used in CRC calculations : Yes
Used interface : Native Win32 interface for Win NT & 2000

Used output format : Internal WAV Routines
Sample format : 44.100 Hz; 16 Bit; Stereo


TOC of the extracted CD

Track | Start | Length | Start sector | End sector
––––––––––––––––––––––––––––-
1 | 0:00.00 | 4:27.35 | 0 | 20059
2 | 4:27.35 | 4:40.08 | 20060 | 41067
3 | 9:07.43 | 4:54.03 | 41068 | 63120
4 | 14:01.46 | 3:34.42 | 63121 | 79212
5 | 17:36.13 | 3:43.00 | 79213 | 95937
6 | 21:19.13 | 2:43.32 | 95938 | 108194
7 | 24:02.45 | 4:43.00 | 108195 | 129419
8 | 28:45.45 | 7:01.53 | 129420 | 161047
9 | 35:47.23 | 3:16.55 | 161048 | 175802
10 | 39:04.03 | 4:59.06 | 175803 | 198233
11 | 44:03.09 | 7:05.69 | 198234 | 230177


Range status and errors

Selected range

Filename C:\Users\Meijin\Desktop\Rip by ALLexxess\Procol Harum\1970 Home (Victor Entertainment Japan K2HD Mastering HQCD 2012)\Procol Harum - Home.wav

Peak level 98.8 %
Extraction speed 7.2 X
Range quality 100.0 %
Test CRC 1A6AA908
Copy CRC 1A6AA908
Copy OK

No errors occurred


AccurateRip summary

Track 1 not present in database
Track 2 not present in database
Track 3 not present in database
Track 4 not present in database
Track 5 not present in database
Track 6 not present in database
Track 7 not present in database
Track 8 not present in database
Track 9 not present in database
Track 10 not present in database
Track 11 not present in database

None of the tracks are present in the AccurateRip database

End of status report

==== Log checksum 940689D2EC29289030E614C06A5779484CB138A193F468A18433E68F9DDC7513 ====


[CUETools log; Date: 03.09.2017 17:53:45; Version: 2.1.5]
[CTDB TOCID: wZB3iKQg.r3VWSyHiE5.HQeS2kc-] found.
Track | CTDB Status
1 | (9/9) Accurately ripped
2 | (9/9) Accurately ripped
3 | (9/9) Accurately ripped
4 | (9/9) Accurately ripped
5 | (9/9) Accurately ripped
6 | (9/9) Accurately ripped
7 | (9/9) Accurately ripped
8 | (9/9) Accurately ripped
9 | (9/9) Accurately ripped
10 | (9/9) Accurately ripped
11 | (9/9) Accurately ripped
[AccurateRip ID: 0013df06-00ace35f-9c0bfd0b] found.
Track [ CRC | V2 ] Status
01 [2d20599f|48441611] (0+3/3) Accurately ripped
02 [a5fa8321|c0aa49e3] (0+3/3) Accurately ripped
03 [ab202c31|9db3defb] (0+3/3) Accurately ripped
04 [320611cf|d46e0a56] (0+3/3) Accurately ripped
05 [e3086bf2|edfc577b] (0+3/3) Accurately ripped
06 [0da2342a|6b43b485] (0+3/3) Accurately ripped
07 [ad82fdad|f9950083] (0+3/3) Accurately ripped
08 [5735cd24|d46d4c4e] (0+3/3) Accurately ripped
09 [25a79c3e|323e6b8a] (0+3/3) Accurately ripped
10 [01e4c2d4|0797c875] (0+3/3) Accurately ripped
11 [275a8db6|ba653ac5] (0+3/3) Accurately ripped

Track Peak [ CRC32 ] [W/O NULL] [ LOG ]
– 98,8 [1A6AA908] [4F4477C2] CRC32
01 98,8 [11B7777A] [BCD48564]
02 98,8 [9E473991] [532DE729]
03 98,8 [112A2FEF] [BA0480DD]
04 98,8 [95840D19] [418CD949]
05 98,8 [FB1100C2] [506E92A3]
06 98,8 [5BBEC181] [BB855AE2]
07 98,8 [4079F2A5] [6FC7F0A3]
08 98,8 [2471525D] [0AA95565]
09 98,8 [F9F29A02] [68C90F06]
10 98,8 [22F8100C] [03652838]
11 98,8 [473FAF15] [5DE73B6E]


Procol Harum: 12CD Collection (1967-2012)

Tracklist CD5 - 1971 - Broken Barricades:
Victor Entertainment, VICP-75095

01. Simple Sister 05:52
02. Broken Barricades 03:12
03. Memorial Drive 03:48
04. Luskus Delph 03:51
05. Power Failure 04:33
06. Song For A Dreamer 05:40
07. Playmate Of The Mouth 05:05
08. Poor Mohammed 03:15

Bonus Tracks:
09. Broken Barricades (Long Fade / Raw Track) 03:58
10. Simple Sister (Raw Track) 05:50
11. Poor Mohammed (Backing Track) 02:44
12. Song For A Dreamer (King Jimi) (Backing Track) 04:56

Exact Audio Copy V1.0 beta 3 from 29. August 2011

EAC extraction logfile from 8. January 2013, 10:17

Procol Harum / Broken Barricades

Used drive : PLEXTOR BD-R PX-B950SA Adapter: 6 ID: 0

Read mode : Secure
Utilize accurate stream : Yes
Defeat audio cache : Yes
Make use of C2 pointers : No

Read offset correction : 6
Overread into Lead-In and Lead-Out : No
Fill up missing offset samples with silence : Yes
Delete leading and trailing silent blocks : No
Null samples used in CRC calculations : Yes
Used interface : Native Win32 interface for Win NT & 2000

Used output format : Internal WAV Routines
Sample format : 44.100 Hz; 16 Bit; Stereo


TOC of the extracted CD

Track | Start | Length | Start sector | End sector
––––––––––––––––––––––––––––-
1 | 0:00.00 | 5:52.52 | 0 | 26451
2 | 5:52.52 | 3:12.15 | 26452 | 40866
3 | 9:04.67 | 3:48.15 | 40867 | 57981
4 | 12:53.07 | 3:51.59 | 57982 | 75365
5 | 16:44.66 | 4:33.35 | 75366 | 95875
6 | 21:18.26 | 5:40.58 | 95876 | 121433
7 | 26:59.09 | 5:05.15 | 121434 | 144323
8 | 32:04.24 | 3:15.49 | 144324 | 158997
9 | 35:19.73 | 3:58.20 | 158998 | 176867
10 | 39:18.18 | 5:50.28 | 176868 | 203145
11 | 45:08.46 | 2:44.55 | 203146 | 215500
12 | 47:53.26 | 4:56.33 | 215501 | 237733


Range status and errors

Selected range

Filename C:\Users\Meijin\Desktop\Rip by ALLexxess\Procol Harum\1971 Broken Barricades (Victor Entertainment Japan K2HD Mastering HQCD 2012)\Procol Harum - Broken Barricades.wav

Peak level 98.8 %
Extraction speed 7.3 X
Range quality 100.0 %
Test CRC 984FC37D
Copy CRC 984FC37D
Copy OK

No errors occurred


AccurateRip summary

Track 1 not present in database
Track 2 not present in database
Track 3 not present in database
Track 4 not present in database
Track 5 not present in database
Track 6 not present in database
Track 7 not present in database
Track 8 not present in database
Track 9 not present in database
Track 10 not present in database
Track 11 not present in database
Track 12 not present in database

None of the tracks are present in the AccurateRip database

End of status report

==== Log checksum DAC0F91A1F701A08DF1375C611114238D8F5ABE692B6DD2A459AF1E8B8721CD3 ====


[CUETools log; Date: 03.09.2017 17:54:17; Version: 2.1.5]
[CTDB TOCID: teN5xDDRx5PXLLwJ8cGhoXc8Ev4-] found.
Track | CTDB Status
1 | (8/8) Accurately ripped
2 | (8/8) Accurately ripped
3 | (8/8) Accurately ripped
4 | (8/8) Accurately ripped
5 | (8/8) Accurately ripped
6 | (8/8) Accurately ripped
7 | (8/8) Accurately ripped
8 | (8/8) Accurately ripped
9 | (8/8) Accurately ripped
10 | (8/8) Accurately ripped
11 | (8/8) Accurately ripped
12 | (8/8) Accurately ripped
[AccurateRip ID: 0017b874-00dcdedc-8f0c610c] found.
Track [ CRC | V2 ] Status
01 [42f8ddef|ce6d7da3] (0+6/6) Accurately ripped
02 [0d86998c|e2536b5b] (0+6/6) Accurately ripped
03 [7cac508a|f449df6a] (0+6/6) Accurately ripped
04 [a66e2ea8|cc0e259f] (0+6/6) Accurately ripped
05 [2a07c445|a7c1be66] (0+6/6) Accurately ripped
06 [43dd37f8|1a87f4fb] (0+6/6) Accurately ripped
07 [c85bc96b|fdea70d7] (0+6/6) Accurately ripped
08 [ebe498af|d0d93918] (0+6/6) Accurately ripped
09 [3f0811a2|1e88b18f] (0+6/6) Accurately ripped
10 [4a3d0c00|13f797b3] (0+6/6) Accurately ripped
11 [7050f1c7|80c212d4] (0+6/6) Accurately ripped
12 [ccbc1524|5a929b30] (0+6/6) Accurately ripped

Track Peak [ CRC32 ] [W/O NULL] [ LOG ]
– 98,8 [984FC37D] [12CF1A12] CRC32
01 98,8 [2866DF3B] [8C417F07]
02 98,8 [F71BDD0D] [E8EEDB14]
03 98,8 [3D8B1981] [90DDE504]
04 98,8 [E3EFD496] [9FDE38E4]
05 98,8 [65F11703] [F575A244]
06 98,8 [13C44D08] [85EB1A16]
07 98,8 [A82938D5] [68E7F492]
08 98,8 [DA9EE663] [3BDBFCD6]
09 98,8 [30612AA1] [65BB8346]
10 98,8 [D2CD9460] [CA2A5B70]
11 98,8 [BF4AA2F0] [5AE71300]
12 98,8 [5E99D2F3] [97370AF9]


Procol Harum: 12CD Collection (1967-2012)

Tracklist CD6 - 1972 - Procol Harum Live-In Concert With The Edmonton Symphony Orchestra:
Victor Entertainment, VICP-75096

01. Conquistador 05:01
02. Whaling Stories 07:41
03. A Salty Dog 05:34
04. All This And More 04:22
05. In Held 'Twas In I 19:07
a) Glimpses Of Nirvana
b) 'Twas Teatime At The Circus
c) In The Autumn Of My Madness
d) Look To Your Soul
e) Grand Finale

Bonus Tracks:
06. Luskus Delph (Single B-Side) 03:38
07. Simple Sister (From The Rehearsal) 03:20
08. Shine On Brightly (From The Rehearsal) 04:04

Exact Audio Copy V1.0 beta 3 from 29. August 2011

EAC extraction logfile from 7. January 2013, 21:29

Procol Harum / Live - In Concert With The Edmonton Symphony Orchestra

Used drive : PLEXTOR BD-R PX-B950SA Adapter: 6 ID: 0

Read mode : Secure
Utilize accurate stream : Yes
Defeat audio cache : Yes
Make use of C2 pointers : No

Read offset correction : 6
Overread into Lead-In and Lead-Out : No
Fill up missing offset samples with silence : Yes
Delete leading and trailing silent blocks : No
Null samples used in CRC calculations : Yes
Used interface : Native Win32 interface for Win NT & 2000

Used output format : Internal WAV Routines
Sample format : 44.100 Hz; 16 Bit; Stereo


TOC of the extracted CD

Track | Start | Length | Start sector | End sector
––––––––––––––––––––––––––––-
1 | 0:00.00 | 5:01.72 | 0 | 22646
2 | 5:01.72 | 7:41.37 | 22647 | 57258
3 | 12:43.34 | 5:34.59 | 57259 | 82367
4 | 18:18.18 | 4:22.71 | 82368 | 102088
5 | 22:41.14 | 19:07.08 | 102089 | 188121
6 | 41:48.22 | 3:38.15 | 188122 | 204486
7 | 45:26.37 | 3:20.54 | 204487 | 219540
8 | 48:47.16 | 4:04.65 | 219541 | 237905


Range status and errors

Selected range

Filename C:\Users\Meijin\Desktop\Rip by ALLexxess\Procol Harum\1972 Live In Concert (Victor Entertainment Japan K2HD Mastering HQCD 2012)\Procol Harum - Live In Concert.wav

Peak level 98.8 %
Extraction speed 7.3 X
Range quality 100.0 %
Test CRC 4018D58A
Copy CRC 4018D58A
Copy OK

No errors occurred


AccurateRip summary

Track 1 not present in database
Track 2 not present in database
Track 3 not present in database
Track 4 not present in database
Track 5 not present in database
Track 6 not present in database
Track 7 not present in database
Track 8 not present in database

None of the tracks are present in the AccurateRip database

End of status report

==== Log checksum 9B8386921A37348330DB3AC30DBF00E1F64F9677BA18CF8573156BB040F861E2 ====


[CUETools log; Date: 03.09.2017 17:54:51; Version: 2.1.5]
[CTDB TOCID: Vj2tVshk4LFJTAt1lmBH.NW1zD0-] found.
Track | CTDB Status
1 | (7/7) Accurately ripped
2 | (7/7) Accurately ripped
3 | (7/7) Accurately ripped
4 | (7/7) Accurately ripped
5 | (7/7) Accurately ripped
6 | (7/7) Accurately ripped
7 | (7/7) Accurately ripped
8 | (7/7) Accurately ripped
[AccurateRip ID: 00110133-0072a9f4-5a0c6408] found.
Track [ CRC | V2 ] Status
01 [3e4c4dee|0b426e83] (0+4/4) Accurately ripped
02 [20c7fb63|fc89a8a4] (0+4/4) Accurately ripped
03 [d9cc57bc|9d066a01] (0+4/4) Accurately ripped
04 [97946351|5b2a85bd] (0+4/4) Accurately ripped
05 [512feef2|3ab942bc] (0+4/4) Accurately ripped
06 [9db27eae|2f07f52a] (0+4/4) Accurately ripped
07 [f2acbcde|80b4981e] (0+4/4) Accurately ripped
08 [5b6cfacb|8c3c1ec4] (0+4/4) Accurately ripped

Track Peak [ CRC32 ] [W/O NULL] [ LOG ]
– 98,8 [4018D58A] [AF64EC74] CRC32
01 98,8 [1CE33258] [982CBFB4]
02 98,8 [DC02ABC1] [05AC284F]
03 98,8 [EB344FAA] [0F0EAFA6]
04 98,8 [492855C2] [FC8AE8EA]
05 98,8 [97EAE6BD] [314ACF6F]
06 98,8 [2DC820A5] [00183FB0]
07 98,8 [97E34930] [C8B5692C]
08 98,8 [24DC04B8] [12CAB81E]


Procol Harum: 12CD Collection (1967-2012)

Tracklist CD7 - 1973 - Grand Hotel:
Victor Entertainment, VICP-75097

01. Grand Hotel 06:13
02. Toujours L'amour 03:36
03. A Rum Tale 03:22
04. T.V. Ceasar 05:55
05. A Souvenir Of London 03:23
06. Bringing Home The Bacon 04:23
07. For Liquorice John 04:30
08. Fires (Which Burnt Brightly) 05:12
09. Robert's Box 04:53

Bonus Tracks:
10. Grand Hotel (Raw Track Without Orchestra) 06:09
11. Bringing Home The Bacon (Raw Track Featuring Dave Ball) 06:06

Exact Audio Copy V1.0 beta 3 from 29. August 2011

EAC extraction logfile from 7. January 2013, 20:59

Procol Harum / Grand Hotel

Used drive : PLEXTOR BD-R PX-B950SA Adapter: 6 ID: 0

Read mode : Secure
Utilize accurate stream : Yes
Defeat audio cache : Yes
Make use of C2 pointers : No

Read offset correction : 6
Overread into Lead-In and Lead-Out : No
Fill up missing offset samples with silence : Yes
Delete leading and trailing silent blocks : No
Null samples used in CRC calculations : Yes
Used interface : Native Win32 interface for Win NT & 2000

Used output format : Internal WAV Routines
Sample format : 44.100 Hz; 16 Bit; Stereo


TOC of the extracted CD

Track | Start | Length | Start sector | End sector
––––––––––––––––––––––––––––-
1 | 0:00.00 | 6:13.24 | 0 | 27998
2 | 6:13.24 | 3:36.15 | 27999 | 44213
3 | 9:49.39 | 3:22.12 | 44214 | 59375
4 | 13:11.51 | 5:55.74 | 59376 | 86074
5 | 19:07.50 | 3:23.36 | 86075 | 101335
6 | 22:31.11 | 4:23.34 | 101336 | 121094
7 | 26:54.45 | 4:30.00 | 121095 | 141344
8 | 31:24.45 | 5:12.48 | 141345 | 164792
9 | 36:37.18 | 4:53.15 | 164793 | 186782
10 | 41:30.33 | 6:09.12 | 186783 | 214469
11 | 47:39.45 | 6:06.11 | 214470 | 241930


Range status and errors

Selected range

Filename C:\Users\Meijin\Desktop\Rip by ALLexxess\Procol Harum\1973 Grand Hotel (Victor Entertainment Japan K2HD Mastering HQCD 2012)\Procol Harum - Grand Hotel.wav

Peak level 98.8 %
Extraction speed 5.9 X
Range quality 99.9 %
Test CRC 8FAA1E66
Copy CRC 8FAA1E66
Copy OK

No errors occurred


AccurateRip summary

Track 1 not present in database
Track 2 not present in database
Track 3 not present in database
Track 4 not present in database
Track 5 not present in database
Track 6 not present in database
Track 7 not present in database
Track 8 not present in database
Track 9 not present in database
Track 10 not present in database
Track 11 not present in database

None of the tracks are present in the AccurateRip database

End of status report

==== Log checksum 6CC04BEC6DD1A11F33AB206BA271D84CA1BD0791EC0A2B7454913EA90E7C09BA ====


[CUETools log; Date: 03.09.2017 18:02:26; Version: 2.1.5]
[CTDB TOCID: Sae2yllnDpDnHOxyXs5HeMTKdGQ-] found.
Track | CTDB Status
1 | (10/10) Accurately ripped
2 | (10/10) Accurately ripped
3 | (10/10) Accurately ripped
4 | (10/10) Accurately ripped
5 | (10/10) Accurately ripped
6 | (10/10) Accurately ripped
7 | (10/10) Accurately ripped
8 | (10/10) Accurately ripped
9 | (10/10) Accurately ripped
10 | (10/10) Accurately ripped
11 | (10/10) Accurately ripped
[AccurateRip ID: 00153369-00b7f6ce-aa0c990b] found.
Track [ CRC | V2 ] Status
01 [12f94bba|87f86f53] (0+4/4) Accurately ripped
02 [705e1e8f|8e64b00e] (0+4/4) Accurately ripped
03 [6b964266|529dbc11] (0+4/4) Accurately ripped
04 [982478d8|9005b96e] (0+4/4) Accurately ripped
05 [5802bc4b|9ac3c9ce] (0+4/4) Accurately ripped
06 [c58169bf|74167a1c] (0+4/4) Accurately ripped
07 [5d629a51|67b743b0] (0+4/4) Accurately ripped
08 [c5a43e5f|6a0e53a3] (0+4/4) Accurately ripped
09 [b744c6e7|32e55a5e] (0+4/4) Accurately ripped
10 [22aa790e|5f030dcb] (0+4/4) Accurately ripped
11 [a2ffecaa|49bdb5c2] (0+4/4) Accurately ripped

Track Peak [ CRC32 ] [W/O NULL] [ LOG ]
– 98,8 [8FAA1E66] [4BA09AE3] CRC32
01 98,8 [ADC0A71B] [99AFBC1B]
02 98,8 [C5EF5B2C] [8DB9B09E]
03 98,8 [040A9BF0] [1F33A91C]
04 98,8 [C2F88768] [DF892515]
05 98,8 [85C72F05] [982DB563]
06 98,8 [875D1493] [8D18FD64]
07 98,8 [56333E2B] [AA76435F]
08 98,8 [098EABD1] [701943A1]
09 98,8 [FD490DE1] [D6FFB6C6]
10 98,8 [191EF06E] [C6BF67A4]
11 98,8 [63361D96] [A7E79635]


Procol Harum: 12CD Collection (1967-2012)

Tracklist CD8 - 1974 - Exotic Birds And Fruit:
Victor Entertainment, VICP-75098

01. Nothing But The Truth 03:14
02. Beyond The Pale 03:06
03. As Strong As Samson 05:08
04. The Idol 06:40
05. The Thin End Of The Wedge 03:42
06. Monsieur R. Monde 03:41
07. Fresh Fruit 03:04
08. Butterfly Boys 04:26
09. New Lamps For Old 04:14

Bonus Tracks:
10. Drunk Again (Single B-Side) 04:31
11. As Strong As Samson (Alternate Mix In D?) 05:20

Exact Audio Copy V1.0 beta 3 from 29. August 2011

EAC extraction logfile from 7. January 2013, 20:23

Procol Harum / Exotic Birds And Fruit

Used drive : PLEXTOR BD-R PX-B950SA Adapter: 6 ID: 0

Read mode : Secure
Utilize accurate stream : Yes
Defeat audio cache : Yes
Make use of C2 pointers : No

Read offset correction : 6
Overread into Lead-In and Lead-Out : No
Fill up missing offset samples with silence : Yes
Delete leading and trailing silent blocks : No
Null samples used in CRC calculations : Yes
Used interface : Native Win32 interface for Win NT & 2000

Used output format : Internal WAV Routines
Sample format : 44.100 Hz; 16 Bit; Stereo


TOC of the extracted CD

Track | Start | Length | Start sector | End sector
––––––––––––––––––––––––––––-
1 | 0:00.00 | 3:14.15 | 0 | 14564
2 | 3:14.15 | 3:06.26 | 14565 | 28540
3 | 6:20.41 | 5:08.66 | 28541 | 51706
4 | 11:29.32 | 6:40.48 | 51707 | 81754
5 | 18:10.05 | 3:42.50 | 81755 | 98454
6 | 21:52.55 | 3:41.45 | 98455 | 115074
7 | 25:34.25 | 3:04.74 | 115075 | 128948
8 | 28:39.24 | 4:26.11 | 128949 | 148909
9 | 33:05.35 | 4:14.33 | 148910 | 167992
10 | 37:19.68 | 4:31.17 | 167993 | 188334
11 | 41:51.10 | 5:20.41 | 188335 | 212375


Range status and errors

Selected range

Filename C:\Users\Meijin\Desktop\Rip by ALLexxess\Procol Harum\1974 Exotic Birds And Fruit (Victor Entertainment Japan K2HD Mastering HQCD 2012)\Procol Harum - Exotic Birds And Fruit.wav

Peak level 98.8 %
Extraction speed 3.2 X
Range quality 100.0 %
Test CRC 672B478A
Copy CRC 672B478A
Copy OK

No errors occurred


AccurateRip summary

Track 1 not present in database
Track 2 not present in database
Track 3 not present in database
Track 4 not present in database
Track 5 not present in database
Track 6 not present in database
Track 7 not present in database
Track 8 not present in database
Track 9 not present in database
Track 10 not present in database
Track 11 not present in database

None of the tracks are present in the AccurateRip database

End of status report

==== Log checksum 6BA9989895D89EAE6310AE34F73A1852643CE7582C3CC321B2845F9651F0B557 ====


[CUETools log; Date: 03.09.2017 18:03:06; Version: 2.1.5]
[CTDB TOCID: PgtUvhllAasDhi8gbPHghzAazBM-] found.
Track | CTDB Status
1 | (5/5) Accurately ripped
2 | (5/5) Accurately ripped
3 | (5/5) Accurately ripped
4 | (5/5) Accurately ripped
5 | (5/5) Accurately ripped
6 | (5/5) Accurately ripped
7 | (5/5) Accurately ripped
8 | (5/5) Accurately ripped
9 | (5/5) Accurately ripped
10 | (5/5) Accurately ripped
11 | (5/5) Accurately ripped
[AccurateRip ID: 0012deb5-00a4c5b9-8b0b0f0b] found.
Track [ CRC | V2 ] Status
01 [e437aed4|3e5c9bf3] (0+2/2) Accurately ripped
02 [4fe227b6|8c08d632] (0+2/2) Accurately ripped
03 [1ecc6bbd|d0cc6a1e] (0+2/2) Accurately ripped
04 [75aa6289|ef86617f] (0+2/2) Accurately ripped
05 [093334fc|c653e335] (0+2/2) Accurately ripped
06 [ed79907a|dc7de7ce] (0+2/2) Accurately ripped
07 [e55fd6d6|3a08824c] (0+2/2) Accurately ripped
08 [9a771c21|f0d97af6] (0+2/2) Accurately ripped
09 [264ee2af|ecbb73d3] (0+2/2) Accurately ripped
10 [ef1c3b43|3b8b0525] (0+2/2) Accurately ripped
11 [87ef6610|5a91115e] (0+2/2) Accurately ripped

Track Peak [ CRC32 ] [W/O NULL] [ LOG ]
– 98,8 [672B478A] [20FC8DF2] CRC32
01 98,8 [E528F55F] [73682C83]
02 98,8 [97B66414] [E0062B7A]
03 98,8 [E47D2F10] [A31C745E]
04 98,8 [A8C436C9] [447E29FF]
05 98,8 [821F0D6E] [7B01B3AC]
06 98,8 [13BE722A] [CEC913A1]
07 98,8 [3861A04A] [AF47AA0E]
08 98,8 [366FE2D5] [2E3BDECE]
09 98,8 [2E0E4618] [936F387D]
10 98,8 [3BBD5650] [1FE3E2DF]
11 98,8 [96A7B5D6] [37A6A763]


Procol Harum: 12CD Collection (1967-2012)

Tracklist CD9 - 1975 - Procol's Ninth:
Victor Entertainment, VICP-75099

01. Pandora's Box 03:39
02. Fool's Gold 03:59
03. Taking The Time 03:39
04. The Unquiet Zone 03:39
05. The Final Thrust 04:41
06. I Keep Forgetting 03:27
07. Without A Doubt 04:30
08. The Piper's Tune 04:26
09. Typewriter Torment 04:29
10. Eight Days A Week 03:05

Bonus Tracks:
11. The Unquiet Zone (Raw Track) 04:25
12. Taking The Time (Raw Track) 04:36
13. Fool's Gold (Raw Track With Guide Vocal) 03:53

Exact Audio Copy V1.0 beta 3 from 29. August 2011

EAC extraction logfile from 7. January 2013, 19:34

Procol Harum / Procol's Ninth

Used drive : PLEXTOR BD-R PX-B950SA Adapter: 6 ID: 0

Read mode : Secure
Utilize accurate stream : Yes
Defeat audio cache : Yes
Make use of C2 pointers : No

Read offset correction : 6
Overread into Lead-In and Lead-Out : No
Fill up missing offset samples with silence : Yes
Delete leading and trailing silent blocks : No
Null samples used in CRC calculations : Yes
Used interface : Native Win32 interface for Win NT & 2000

Used output format : Internal WAV Routines
Sample format : 44.100 Hz; 16 Bit; Stereo


TOC of the extracted CD

Track | Start | Length | Start sector | End sector
––––––––––––––––––––––––––––-
1 | 0:00.00 | 3:39.31 | 0 | 16455
2 | 3:39.31 | 3:59.30 | 16456 | 34410
3 | 7:38.61 | 3:39.32 | 34411 | 50867
4 | 11:18.18 | 3:39.01 | 50868 | 67293
5 | 14:57.19 | 4:41.03 | 67294 | 88371
6 | 19:38.22 | 3:27.15 | 88372 | 103911
7 | 23:05.37 | 4:30.58 | 103912 | 124219
8 | 27:36.20 | 4:26.43 | 124220 | 144212
9 | 32:02.63 | 4:29.19 | 144213 | 164406
10 | 36:32.07 | 3:05.17 | 164407 | 178298
11 | 39:37.24 | 4:25.08 | 178299 | 198181
12 | 44:02.32 | 4:36.28 | 198182 | 218909
13 | 48:38.60 | 3:53.69 | 218910 | 236453


Range status and errors

Selected range

Filename C:\Users\Meijin\Desktop\Rip by ALLexxess\Procol Harum\1975 Procol's Ninth (Victor Entertainment Japan K2HD Mastering HQCD 2012)\Procol Harum - Procol's Ninth.wav

Peak level 98.8 %
Extraction speed 3.3 X
Range quality 100.0 %
Test CRC 73D5295D
Copy CRC 73D5295D
Copy OK

No errors occurred


AccurateRip summary

Track 1 not present in database
Track 2 not present in database
Track 3 not present in database
Track 4 not present in database
Track 5 not present in database
Track 6 not present in database
Track 7 not present in database
Track 8 not present in database
Track 9 not present in database
Track 10 not present in database
Track 11 not present in database
Track 12 not present in database
Track 13 not present in database

None of the tracks are present in the AccurateRip database

End of status report

==== Log checksum AB7DA8FBF92379C486E07E2DD0538267A738709E09FB195CF1F4548EC0E87AF1 ====


[CUETools log; Date: 03.09.2017 18:03:41; Version: 2.1.5]
[CTDB TOCID: b2AlJ6Cn45wr1vFzHxM3N3q5as8-] found.
Track | CTDB Status
1 | (5/5) Accurately ripped
2 | (5/5) Accurately ripped
3 | (5/5) Accurately ripped
4 | (5/5) Accurately ripped
5 | (5/5) Accurately ripped
6 | (5/5) Accurately ripped
7 | (5/5) Accurately ripped
8 | (5/5) Accurately ripped
9 | (5/5) Accurately ripped
10 | (5/5) Accurately ripped
11 | (5/5) Accurately ripped
12 | (5/5) Accurately ripped
13 | (5/5) Accurately ripped
[AccurateRip ID: 0018cf8e-00f9b636-bc0c500d] found.
Track [ CRC | V2 ] Status
01 [9b5bcdf0|b35609cd] (0+4/4) Accurately ripped
02 [c5ca558b|2381514f] (0+4/4) Accurately ripped
03 [e0c6e341|8bab5502] (0+4/4) Accurately ripped
04 [a5d39e69|04732d99] (0+4/4) Accurately ripped
05 [be196be9|4599d5f7] (0+4/4) Accurately ripped
06 [c15e8f79|215642f2] (0+4/4) Accurately ripped
07 [e0a474f1|648c847d] (0+4/4) Accurately ripped
08 [5f0a0b53|75bd4a8b] (0+4/4) Accurately ripped
09 [62508dd9|36c401a7] (0+4/4) Accurately ripped
10 [1597c5a4|b9b60b42] (0+4/4) Accurately ripped
11 [3dbb0be7|9acaef4c] (0+4/4) Accurately ripped
12 [bf3c2810|bda89ca8] (0+4/4) Accurately ripped
13 [31cae6ac|57a579af] (0+3/3) Accurately ripped

Track Peak [ CRC32 ] [W/O NULL] [ LOG ]
– 98,8 [73D5295D] [BC11A6B8] CRC32
01 98,8 [E0E5E30E] [9D1EB0A9]
02 98,8 [44686CE6] [2208D0E2]
03 98,8 [854111A4] [D77F8B03]
04 98,8 [09F560A8] [64B62844]
05 98,8 [8BE932C7] [F104A389]
06 98,8 [D5B79986] [55012BE5]
07 98,8 [D57DE761] [73BCAA3C]
08 98,8 [0A2ECC04] [74AD16DC]
09 98,8 [DFA8F5BC] [61998AE4]
10 98,8 [0290F317] [0C1104AE]
11 98,8 [65C78F89] [C586D623]
12 98,8 [F6DE2CF3] [63111CF7]
13 98,8 [74B79240] [47CCB85D]


Procol Harum: 12CD Collection (1967-2012)

Tracklist CD10 - 1977 - Something Magic:
Victor Entertainment, VICP-75100

01. Something Magic 03:38
02. Skating On Thin Ice 04:49
03. Wizard Man 02:41
04. The Mark Of The Claw 04:40
05. Strangers In Space 06:07
The Worm & The Tree
06. Part One: Introduction, Menace, Occupation 06:05
07. Part Two: Enervation, Expectancy, Battle 05:29
08. Part Three: Regeneration, Epilogue 05:28

Bonus Tracks:
09. Backgammon (Single B-Side) 03:25
10. You'd Better Wait (Live) 04:46
11. This Old Dog (Live) 03:41

Exact Audio Copy V1.0 beta 3 from 29. August 2011

EAC extraction logfile from 7. January 2013, 13:30

Procol Harum / Something Magic

Used drive : PLEXTOR BD-R PX-B950SA Adapter: 6 ID: 0

Read mode : Secure
Utilize accurate stream : Yes
Defeat audio cache : Yes
Make use of C2 pointers : No

Read offset correction : 6
Overread into Lead-In and Lead-Out : No
Fill up missing offset samples with silence : Yes
Delete leading and trailing silent blocks : No
Null samples used in CRC calculations : Yes
Used interface : Native Win32 interface for Win NT & 2000

Used output format : Internal WAV Routines
Sample format : 44.100 Hz; 16 Bit; Stereo


TOC of the extracted CD

Track | Start | Length | Start sector | End sector
––––––––––––––––––––––––––––-
1 | 0:00.00 | 3:38.08 | 0 | 16357
2 | 3:38.08 | 4:49.35 | 16358 | 38067
3 | 8:27.43 | 2:41.49 | 38068 | 50191
4 | 11:09.17 | 4:40.19 | 50192 | 71210
5 | 15:49.36 | 6:07.38 | 71211 | 98773
6 | 21:56.74 | 6:05.49 | 98774 | 126197
7 | 28:02.48 | 5:29.21 | 126198 | 150893
8 | 33:31.69 | 5:28.13 | 150894 | 175506
9 | 39:00.07 | 3:25.18 | 175507 | 190899
10 | 42:25.25 | 4:46.62 | 190900 | 212411
11 | 47:12.12 | 3:41.64 | 212412 | 229050


Range status and errors

Selected range

Filename C:\Users\Meijin\Desktop\Rip by ALLexxess\Procol Harum\1977 Something Magic (Victor Entertainment Japan K2HD Mastering HQCD 2012)\Procol Harum - Something Magic.wav

Peak level 98.8 %
Extraction speed 7.2 X
Range quality 100.0 %
Test CRC E1C4768D
Copy CRC E1C4768D
Copy OK

No errors occurred


AccurateRip summary

Track 1 not present in database
Track 2 not present in database
Track 3 not present in database
Track 4 not present in database
Track 5 not present in database
Track 6 not present in database
Track 7 not present in database
Track 8 not present in database
Track 9 not present in database
Track 10 not present in database
Track 11 not present in database

None of the tracks are present in the AccurateRip database

End of status report

==== Log checksum ADFD966450362B2657A217A830868CF9A2634DEDF3AC8569327C2E266938428C ====


[CUETools log; Date: 03.09.2017 18:04:17; Version: 2.1.5]
[CTDB TOCID: l74aPQ.5l4aoGWjrayT3Uw1rqxY-] found.
Track | CTDB Status
1 | (8/8) Accurately ripped
2 | (8/8) Accurately ripped
3 | (8/8) Accurately ripped
4 | (8/8) Accurately ripped
5 | (8/8) Accurately ripped
6 | (8/8) Accurately ripped
7 | (8/8) Accurately ripped
8 | (8/8) Accurately ripped
9 | (8/8) Accurately ripped
10 | (8/8) Accurately ripped
11 | (8/8) Accurately ripped
[AccurateRip ID: 0014becd-00b68139-850bee0b] found.
Track [ CRC | V2 ] Status
01 [d884b69e|a3701988] (0+3/3) Accurately ripped
02 [21c13c8d|e8abeed4] (0+3/3) Accurately ripped
03 [2b435598|645024ca] (0+3/3) Accurately ripped
04 [c9babba6|933e537a] (0+3/3) Accurately ripped
05 [59212743|16f30202] (0+3/3) Accurately ripped
06 [e1f50dd5|b3e84629] (0+3/3) Accurately ripped
07 [8d2ee3db|1e2a478c] (0+3/3) Accurately ripped
08 [15d8b5b0|338fc17d] (0+3/3) Accurately ripped
09 [f273947d|d94fd045] (0+3/3) Accurately ripped
10 [dd79aadc|63c7ce10] (0+3/3) Accurately ripped
11 [cfed64b2|301fbd56] (0+3/3) Accurately ripped

Track Peak [ CRC32 ] [W/O NULL] [ LOG ]
– 98,8 [E1C4768D] [DA311C04] CRC32
01 98,8 [12A02DA1] [B2700397]
02 98,8 [229D45B5] [C530647F]
03 98,8 [192A8D08] [388CEC1E]
04 98,8 [C4E4FDB4] [9748AD86]
05 98,8 [60934291] [E300C2AF]
06 98,8 [C8FA9EF6] [E3F21D5A]
07 98,8 [9DF55FD4] [CE46FD4A]
08 98,8 [E0F07311] [B94E64D6]
09 98,8 [B211EC37] [8F7A3781]
10 98,8 [030D4F08] [71B236E5]
11 98,8 [B067F19D] [A8A4DF16]


Procol Harum: 12CD Collection (1967-2012)

Tracklist CD11 - 2012 - The Best Of Procol Harum:
Victor Entertainment, VICP-75090

01. Conquistador 02:35
02. Christmas Camel 04:43
03. A Whiter Shade Of Pale 04:05
04. Homburg (Single Version) 03:53
05. Quite Rightly So 03:31
06. Shine On Brightly 03:23
07. A Salty Dog 04:34
08. The Devil Came From Kansas 04:30
09. Nothing That I Didn't Know 03:34
10. Simple Sister 05:47
11. Broken Barricades 03:08
12. Grand Hotel 06:08
13. Bringing Home The Bacon 04:18
14. For Liquorice John 04:22
15. Beyond The Pale 03:01
16. Monsieur R. Monde 03:38
17. Pandora's Box 03:33
18. Something Magic 03:34
19. Wizard Man 02:38
20. Conquistador (Live) 04:16

Exact Audio Copy V1.0 beta 3 from 29. August 2011

EAC extraction logfile from 7. January 2013, 12:28

Procol Harum / The Best Of Procol Harum

Used drive : PLEXTOR BD-R PX-B950SA Adapter: 6 ID: 0

Read mode : Secure
Utilize accurate stream : Yes
Defeat audio cache : Yes
Make use of C2 pointers : No

Read offset correction : 6
Overread into Lead-In and Lead-Out : No
Fill up missing offset samples with silence : Yes
Delete leading and trailing silent blocks : No
Null samples used in CRC calculations : Yes
Used interface : Native Win32 interface for Win NT & 2000

Used output format : Internal WAV Routines
Sample format : 44.100 Hz; 16 Bit; Stereo


TOC of the extracted CD

Track | Start | Length | Start sector | End sector
––––––––––––––––––––––––––––-
1 | 0:00.00 | 2:35.16 | 0 | 11640
2 | 2:35.16 | 4:43.21 | 11641 | 32886
3 | 7:18.37 | 4:05.34 | 32887 | 51295
4 | 11:23.71 | 3:53.10 | 51296 | 68780
5 | 15:17.06 | 3:31.65 | 68781 | 84670
6 | 18:48.71 | 3:23.57 | 84671 | 99952
7 | 22:12.53 | 4:34.35 | 99953 | 120537
8 | 26:47.13 | 4:30.12 | 120538 | 140799
9 | 31:17.25 | 3:34.35 | 140800 | 156884
10 | 34:51.60 | 5:47.74 | 156885 | 182983
11 | 40:39.59 | 3:08.54 | 182984 | 197137
12 | 43:48.38 | 6:08.74 | 197138 | 224811
13 | 49:57.37 | 4:18.55 | 224812 | 244216
14 | 54:16.17 | 4:22.73 | 244217 | 263939
15 | 58:39.15 | 3:01.22 | 263940 | 277536
16 | 61:40.37 | 3:38.58 | 277537 | 293944
17 | 65:19.20 | 3:33.25 | 293945 | 309944
18 | 68:52.45 | 3:34.43 | 309945 | 326037
19 | 72:27.13 | 2:38.13 | 326038 | 337900
20 | 75:05.26 | 4:16.34 | 337901 | 357134


Range status and errors

Selected range

Filename C:\Users\Meijin\Desktop\Rip by ALLexxess\Procol Harum\2012 The Best Of Procol Harum (Victor Entertainment Japan K2HD Mastering HQCD)\Procol Harum - The Best Of Procol Harum.wav

Peak level 98.8 %
Extraction speed 8.8 X
Range quality 100.0 %
Test CRC 31F0DA9E
Copy CRC 31F0DA9E
Copy OK

No errors occurred


AccurateRip summary

Track 1 not present in database
Track 2 not present in database
Track 3 not present in database
Track 4 not present in database
Track 5 not present in database
Track 6 not present in database
Track 7 not present in database
Track 8 not present in database
Track 9 not present in database
Track 10 not present in database
Track 11 not present in database
Track 12 not present in database
Track 13 not present in database
Track 14 not present in database
Track 15 not present in database
Track 16 not present in database
Track 17 not present in database
Track 18 not present in database
Track 19 not present in database
Track 20 not present in database

None of the tracks are present in the AccurateRip database

End of status report

==== Log checksum 66052FB116647DF596581A31DAC0D78EE800A9E5275F2C115DE0C6D0EC02902E ====


[CUETools log; Date: 03.09.2017 18:04:56; Version: 2.1.5]
[CTDB TOCID: 9BPf_9Ln4uV2NKYwToh4vvLQfbg-] found.
Track | CTDB Status
1 | (20/20) Accurately ripped
2 | (20/20) Accurately ripped
3 | (20/20) Accurately ripped
4 | (20/20) Accurately ripped
5 | (20/20) Accurately ripped
6 | (20/20) Accurately ripped
7 | (20/20) Accurately ripped
8 | (20/20) Accurately ripped
9 | (20/20) Accurately ripped
10 | (20/20) Accurately ripped
11 | (20/20) Accurately ripped
12 | (20/20) Accurately ripped
13 | (20/20) Accurately ripped
14 | (20/20) Accurately ripped
15 | (20/20) Accurately ripped
16 | (20/20) Accurately ripped
17 | (19/20) Accurately ripped
18 | (20/20) Accurately ripped
19 | (20/20) Accurately ripped
20 | (18/20) Accurately ripped
[AccurateRip ID: 0039b984-0353dc2e-20129914] found.
Track [ CRC | V2 ] Status
01 [7a61b338|e711f9e9] (0+9/9) Accurately ripped
02 [2c2ff1d9|dcf467f7] (0+9/9) Accurately ripped
03 [948407b1|41b0916a] (0+9/9) Accurately ripped
04 [41b80027|cdb9450c] (0+9/9) Accurately ripped
05 [773ba3c6|fe412b71] (0+9/9) Accurately ripped
06 [5a7f39ca|77a59aeb] (0+9/9) Accurately ripped
07 [448a16de|74f642ca] (0+9/9) Accurately ripped
08 [4953c16f|c9275c1a] (0+9/9) Accurately ripped
09 [c3b23a38|52ffb384] (0+9/9) Accurately ripped
10 [208873d0|53ddae1b] (0+9/9) Accurately ripped
11 [fd59c009|a85a9558] (0+9/9) Accurately ripped
12 [4006978d|d034bd03] (0+9/9) Accurately ripped
13 [01b39217|ce77060b] (0+9/9) Accurately ripped
14 [1acefce6|907dc2bd] (0+9/9) Accurately ripped
15 [0ba04a82|c0b34140] (0+9/9) Accurately ripped
16 [804e555b|78e87d80] (0+9/9) Accurately ripped
17 [3d0d727e|c160fc9e] (0+9/9) Accurately ripped
18 [cf039b57|63f3d7df] (0+9/9) Accurately ripped
19 [e7ae2d63|ce366924] (0+9/9) Accurately ripped
20 [386c96ba|c97d71f3] (0+8/8) Accurately ripped

Track Peak [ CRC32 ] [W/O NULL] [ LOG ]
– 98,8 [31F0DA9E] [94AA6404] CRC32
01 94,4 [A960A5AB] [9B6D63A1]
02 94,4 [32FB708E] [BC61F810]
03 94,4 [E68A8C16] [6F679A01]
04 94,4 [FA0B508F] [42B9B58D]
05 98,8 [9C851DFB] [DF12C795]
06 88,1 [6799AF8A] [AA0354EC]
07 83,1 [2A63F573] [327A7565]
08 98,8 [DE973D99] [B9A002BF]
09 97,9 [B43C800F] [A4FB4E18]
10 98,8 [651E8517] [38611209]
11 95,5 [54C83FDA] [2902CBAA]
12 96,6 [AC0E5513] [1FAF6AC7]
13 98,8 [C620E992] [A00A2977]
14 98,8 [CB1596DB] [1802184A]
15 97,9 [DEF8A37B] [63ECAE1A]
16 98,8 [FEFAB4BE] [5CBED581]
17 98,8 [617B0063] [A23D5C11]
18 97,9 [954A66A1] [7254C0AA]
19 97,9 [40CF165C] [BBE49EF2]
20 80,3 [A974B7E2] [0B40E88D]


* * *

All thanks go to ALLexxess

Procol Harum in my Blog

Download Procol Harum: 12CD Collection (1967-2012):