Tags
Language
Tags
December 2022
Su Mo Tu We Th Fr Sa
27 28 29 30 1 2 3
4 5 6 7 8 9 10
11 12 13 14 15 16 17
18 19 20 21 22 23 24
25 26 27 28 29 30 31

VA - Progressive Rock Trilogy (Remastered Special Edition) (2010)

Posted By: Rtax
VA - Progressive Rock Trilogy (Remastered Special Edition) (2010)

VA - Progressive Rock Trilogy (Remastered Special Edition) (2010)
EAC Rip | FLAC (tracks, cue, log) - 1.4 GB | MP3 CBR 320 kbps - 508 MB
3:41:31 | Prog Rock, Space Rock, Krautrock | Label: Music Brokers

With an impressive list of artists such as Yes, Rick Wakeman, Keith Emerson, Ian Anderson, Tangerine Dream, Caravan, Soft Machine, Premiata Fornería Marconi and many more, the Progressive Rock Trilogy provides the very best of this extensive genre in an organized fashion. This is without a doubt the most important compilation in the history of progressive rock. It is a must have for both novices to this type of music, which is one of the richest within the rock spectrum, and also for informed listeners who will be drawn to the classic hits and artists as well as hard to find gems like the A and B side of the single Ultima Thule by Tangerine Dream.

Tracklist
Disc 1 - The Greatest Progressive Songs
01. Yes - Looking Around 3:41
02. Premiata Forneria Marconi - Celebration 3:52
03. Ian Anderson - Living In The Past 4:41
04. Family - No Mule's Fool 3:18
05. Rick Wakeman - Catherine Howard 9:12
06. Adrian Belew & Alan White - Speak To Me/Breathe 5:38
07. Procol Harum - A Whiter Shade Of Pale 4:05
08. Tomorrow - Strawberry Fields Forever 3:49
09. Atomic Rooster - Tomorrow Night 4:49
10. Patrick Moraz - Los Endos 6:00
11. Keith Emerson & Dweezil Zappa - Run Like Hell 5:09
12. Vanilla Fudge - You Keep Me Hangin' On 3:45
13. Steve Howe & Rick Wakeman - The Great Gig In The Sky 4:39
14. Ian Anderson - Skating Away On The Thin Ice Of The New Day 3:36
15. Springwater - I Will Return 3:07

Disc 2 - The Canterbury Scene, Space Rock & Krautrock
01. Caravan - In The Land Of Grey And Pink 4:25
02. Soft Machine - Song Of Aeolus 4:27
03. Hatfield And The North - Going For A Song 4:03
04. Soft Machine - Bundles 3:16
05. Caravan - If I Could Do It All Over Again, I'd Do It All Over You 2:59
06. Gong - Outer Vision 3:25
07. Hawkwind - Brainstorm 8:32
08. Hawkwind - Space Is Deep 5:54
09. Can - All Gates Open 8:15
10. Tangerine Dream - Ultima Thule Part 1 3:18
11. Tangerine Dream - Ultima Thule Part 2 4:06
12. Amon Guru - Sumpfige Wasser 5:45
13. Brainticket - Egyptian Kings 5:51
14. Can - November 7:43
15. Tangerine Dream - Sunset In The Third System 6:37

Disc 3 - The Italian Scene, Folk Gems & Some Magical Prog Tunes
01. Premiata Forneria Marconi - From Under 7:27
02. Banco Del Mutuo Soccorso - L'Alberto Del Pane 4:39
03. Lindisfarne - Lady Eleanor 4:12
04. Fairport Convention - Orange Blossom Special 2:14
05. Peter Sinfield - A House Of Hopes And Dreams 4:03
06. Family - In My Own Time 3:32
07. Yes - Then 4:19
08. Affinity - Three Sisters 4:58
09. Carmen - Bullfight 4:17
10. Atomic Rooster - Death Walks Behind You 7:09
11. Third Ear Band - Cosmic Wheel 6:22
12. Brand X - Can-Utility And The Coastliners 5:40
13. Principal Edwards Magic Theatre - McAlpine Versus The Asmoto 6:16
14. Asia - Sole Survivor 6:16
15. John Wetton & Peter Banks & Tony Kaye - Eclipse 1:47
Exact Audio Copy V1.0 beta 1 from 15. November 2010

EAC extraction logfile from 26. March 2011, 1:46

Various / Progessive Rock Trilogy - Disc 1 - The Greatest Progressive Songs

Used drive : TSSTcorpDVD+-RW TS-L633A Adapter: 2 ID: 1

Read mode : Secure
Utilize accurate stream : Yes
Defeat audio cache : Yes
Make use of C2 pointers : No

Read offset correction : 6
Overread into Lead-In and Lead-Out : No
Fill up missing offset samples with silence : Yes
Delete leading and trailing silent blocks : No
Null samples used in CRC calculations : Yes
Used interface : Native Win32 interface for Win NT & 2000
Gap handling : Appended to previous track

Used output format : User Defined Encoder
Selected bitrate : 1024 kBit/s
Quality : High
Add ID3 tag : No
Command line compressor : C:\Programfiler\Exact Audio Copy\Flac\flac.exe
Additional command line options : -6 -V -T "ARTIST=%a" -T "TITLE=%t" -T "ALBUM=%g" -T "DATE=%y" -T "TRACKNUMBER=%n" -T "GENRE=%m" -T "COMMENT=%e" %j–picture="%i"%j %s -o %d


TOC of the extracted CD

Track | Start | Length | Start sector | End sector
––––––––––––––––––––––––––––-
1 | 0:00.00 | 3:41.14 | 0 | 16588
2 | 3:41.14 | 3:52.03 | 16589 | 33991
3 | 7:33.17 | 4:41.04 | 33992 | 55070
4 | 12:14.21 | 3:18.12 | 55071 | 69932
5 | 15:32.33 | 9:12.45 | 69933 | 111377
6 | 24:45.03 | 5:38.16 | 111378 | 136743
7 | 30:23.19 | 4:05.08 | 136744 | 155126
8 | 34:28.27 | 3:49.58 | 155127 | 172359
9 | 38:18.10 | 4:49.69 | 172360 | 194103
10 | 43:08.04 | 6:00.61 | 194104 | 221164
11 | 49:08.65 | 5:09.17 | 221165 | 244356
12 | 54:18.07 | 3:45.60 | 244357 | 261291
13 | 58:03.67 | 4:39.53 | 261292 | 282269
14 | 62:43.45 | 3:36.32 | 282270 | 298501
15 | 66:20.02 | 3:07.18 | 298502 | 312544


Track 1

Filename E:\Music\FLAC\Various Artists\Progressive Rock Trilogy\Progessive Rock Trilogy - Disc 1 - The Greatest Progressive Songs - 2010\01 - Yes - Looking Around - Yes - Looking Around.wav

Pre-gap length 0:00:02.00

Peak level 100.0 %
Extraction speed 2.6 X
Track quality 100.0 %
Test CRC 7AE2E4D7
Copy CRC 7AE2E4D7
Track not present in AccurateRip database
Copy OK

Track 2

Filename E:\Music\FLAC\Various Artists\Progressive Rock Trilogy\Progessive Rock Trilogy - Disc 1 - The Greatest Progressive Songs - 2010\02 - Premiata Forneria Marconi - Celebration - Premiata Forneria Marconi - Celebration.wav

Peak level 95.5 %
Extraction speed 2.9 X
Track quality 100.0 %
Test CRC AF147BE6
Copy CRC AF147BE6
Track not present in AccurateRip database
Copy OK

Track 3

Filename E:\Music\FLAC\Various Artists\Progressive Rock Trilogy\Progessive Rock Trilogy - Disc 1 - The Greatest Progressive Songs - 2010\03 - Ian Anderson - Living in the Past - Ian Anderson - Living in the Past.wav

Peak level 85.1 %
Extraction speed 3.2 X
Track quality 100.0 %
Test CRC 0BA9C2FA
Copy CRC 0BA9C2FA
Track not present in AccurateRip database
Copy OK

Track 4

Filename E:\Music\FLAC\Various Artists\Progressive Rock Trilogy\Progessive Rock Trilogy - Disc 1 - The Greatest Progressive Songs - 2010\04 - Family - No Mule's Fool - Family - No Mule's Fool.wav

Peak level 94.4 %
Extraction speed 3.3 X
Track quality 100.0 %
Test CRC A81F3125
Copy CRC A81F3125
Track not present in AccurateRip database
Copy OK

Track 5

Filename E:\Music\FLAC\Various Artists\Progressive Rock Trilogy\Progessive Rock Trilogy - Disc 1 - The Greatest Progressive Songs - 2010\05 - Rick Wakeman - Catherine Howard - Rick Wakeman - Catherine Howard.wav

Peak level 91.2 %
Extraction speed 4.0 X
Track quality 100.0 %
Test CRC 024AEADC
Copy CRC 024AEADC
Track not present in AccurateRip database
Copy OK

Track 6

Filename E:\Music\FLAC\Various Artists\Progressive Rock Trilogy\Progessive Rock Trilogy - Disc 1 - The Greatest Progressive Songs - 2010\06 - Adrian Belew & Alan White - Speak To Me - Breathe.wav

Peak level 98.9 %
Extraction speed 4.2 X
Track quality 100.0 %
Test CRC BCDCE93C
Copy CRC BCDCE93C
Track not present in AccurateRip database
Copy OK

Track 7

Filename E:\Music\FLAC\Various Artists\Progressive Rock Trilogy\Progessive Rock Trilogy - Disc 1 - The Greatest Progressive Songs - 2010\07 - Procol Harum - A Whiter Shade of Pale - Procol Harum - A Whiter Shade of Pale.wav

Peak level 100.0 %
Extraction speed 4.3 X
Track quality 100.0 %
Test CRC 336EBE28
Copy CRC 336EBE28
Track not present in AccurateRip database
Copy OK

Track 8

Filename E:\Music\FLAC\Various Artists\Progressive Rock Trilogy\Progessive Rock Trilogy - Disc 1 - The Greatest Progressive Songs - 2010\08 - Tomorrow - Strawberry Fields Forever - Tomorrow - Strawberry Fields Forever.wav

Peak level 91.2 %
Extraction speed 3.8 X
Track quality 99.9 %
Test CRC 80D76AD7
Copy CRC 80D76AD7
Track not present in AccurateRip database
Copy OK

Track 9

Filename E:\Music\FLAC\Various Artists\Progressive Rock Trilogy\Progessive Rock Trilogy - Disc 1 - The Greatest Progressive Songs - 2010\09 - Atomic Rooster - Tomorrow Night - Atomic Rooster - Tomorrow Night.wav

Peak level 90.9 %
Extraction speed 4.7 X
Track quality 100.0 %
Test CRC D25E78E3
Copy CRC D25E78E3
Track not present in AccurateRip database
Copy OK

Track 10

Filename E:\Music\FLAC\Various Artists\Progressive Rock Trilogy\Progessive Rock Trilogy - Disc 1 - The Greatest Progressive Songs - 2010\10 - Patrick Moraz - Los Endos - Patrick Moraz - Los Endos.wav

Peak level 94.4 %
Extraction speed 5.1 X
Track quality 100.0 %
Test CRC AE1F2033
Copy CRC AE1F2033
Track not present in AccurateRip database
Copy OK

Track 11

Filename E:\Music\FLAC\Various Artists\Progressive Rock Trilogy\Progessive Rock Trilogy - Disc 1 - The Greatest Progressive Songs - 2010\11 - Keith Emerson & Dweezil Zappa - Run Like Hell - Keith Emerson & Dweezil Zappa - Run Like Hell.wav

Peak level 96.6 %
Extraction speed 5.2 X
Track quality 100.0 %
Test CRC 76D7E8CA
Copy CRC 76D7E8CA
Track not present in AccurateRip database
Copy OK

Track 12

Filename E:\Music\FLAC\Various Artists\Progressive Rock Trilogy\Progessive Rock Trilogy - Disc 1 - The Greatest Progressive Songs - 2010\12 - Vanilla Fudge - You Keep Me Hangin' On - Vanilla Fudge - You Keep Me Hangin' On.wav

Peak level 100.0 %
Extraction speed 4.4 X
Track quality 99.9 %
Test CRC 35FEC1E1
Copy CRC 35FEC1E1
Track not present in AccurateRip database
Copy OK

Track 13

Filename E:\Music\FLAC\Various Artists\Progressive Rock Trilogy\Progessive Rock Trilogy - Disc 1 - The Greatest Progressive Songs - 2010\13 - Steve Howe & Rick Wakeman - The Great Gig in the Sky - Steve Howe & Rick Wakeman - The Great Gig in the Sky.wa

Peak level 100.0 %
Extraction speed 5.4 X
Track quality 100.0 %
Test CRC F8685135
Copy CRC F8685135
Track not present in AccurateRip database
Copy OK

Track 14

Filename E:\Music\FLAC\Various Artists\Progressive Rock Trilogy\Progessive Rock Trilogy - Disc 1 - The Greatest Progressive Songs - 2010\14 - Ian Anderson - Skating Away on the Thin Ice of the New Day - Ian Anderson - Skating Away on the Thin Ice of th

Peak level 97.7 %
Extraction speed 5.4 X
Track quality 100.0 %
Test CRC EB5DA582
Copy CRC EB5DA582
Track not present in AccurateRip database
Copy OK

Track 15

Filename E:\Music\FLAC\Various Artists\Progressive Rock Trilogy\Progessive Rock Trilogy - Disc 1 - The Greatest Progressive Songs - 2010\15 - Springwater - I Will Return - Springwater - I Will Return.wav

Peak level 97.7 %
Extraction speed 5.2 X
Track quality 100.0 %
Test CRC C1D9C969
Copy CRC C1D9C969
Track not present in AccurateRip database
Copy OK


None of the tracks are present in the AccurateRip database

No errors occurred

End of status report

==== Log checksum D628BE08F0476C0FD2EE76B96DC783493FCEB371CB0E49876DA69DCA0EC53D7C ====


Exact Audio Copy V1.0 beta 1 from 15. November 2010

EAC extraction logfile from 26. March 2011, 19:55

Various / Progessive Rock Trilogy - Disc 2 - The Greatest Progressive Songs

Used drive : TSSTcorpDVD+-RW TS-L633A Adapter: 2 ID: 1

Read mode : Secure
Utilize accurate stream : Yes
Defeat audio cache : Yes
Make use of C2 pointers : No

Read offset correction : 6
Overread into Lead-In and Lead-Out : No
Fill up missing offset samples with silence : Yes
Delete leading and trailing silent blocks : No
Null samples used in CRC calculations : Yes
Used interface : Native Win32 interface for Win NT & 2000
Gap handling : Appended to previous track

Used output format : User Defined Encoder
Selected bitrate : 1024 kBit/s
Quality : High
Add ID3 tag : No
Command line compressor : C:\Programfiler\Exact Audio Copy\Flac\flac.exe
Additional command line options : -6 -V -T "ARTIST=%a" -T "TITLE=%t" -T "ALBUM=%g" -T "DATE=%y" -T "TRACKNUMBER=%n" -T "GENRE=%m" -T "COMMENT=%e" %j–picture="%i"%j %s -o %d


TOC of the extracted CD

Track | Start | Length | Start sector | End sector
––––––––––––––––––––––––––––-
1 | 0:00.00 | 4:25.35 | 0 | 19909
2 | 4:25.35 | 4:27.19 | 19910 | 39953
3 | 8:52.54 | 4:03.61 | 39954 | 58239
4 | 12:56.40 | 3:16.35 | 58240 | 72974
5 | 16:13.00 | 2:59.57 | 72975 | 86456
6 | 19:12.57 | 3:25.69 | 86457 | 101900
7 | 22:38.51 | 8:32.31 | 101901 | 140331
8 | 31:11.07 | 5:54.30 | 140332 | 166911
9 | 37:05.37 | 8:15.08 | 166912 | 204044
10 | 45:20.45 | 3:18.67 | 204045 | 218961
11 | 48:39.37 | 4:06.37 | 218962 | 237448
12 | 52:45.74 | 5:45.30 | 237449 | 263353
13 | 58:31.29 | 5:51.11 | 263354 | 289689
14 | 64:22.40 | 7:43.64 | 289690 | 324478
15 | 72:06.29 | 6:37.12 | 324479 | 354265


Track 1

Filename E:\Music\FLAC\Various Artists\Progressive Rock Trilogy\Progessive Rock Trilogy - Disc 2 - The Greatest Progressive Songs - 2010\01 - Caravan - In The Land Of Grey And Pink.wav

Pre-gap length 0:00:02.00

Peak level 97.7 %
Extraction speed 1.1 X
Track quality 100.0 %
Test CRC 40FD61B6
Copy CRC 40FD61B6
Track not present in AccurateRip database
Copy OK

Track 2

Filename E:\Music\FLAC\Various Artists\Progressive Rock Trilogy\Progessive Rock Trilogy - Disc 2 - The Greatest Progressive Songs - 2010\02 - Soft Machine - Song Of Aeolus.wav

Peak level 89.1 %
Extraction speed 1.2 X
Track quality 100.0 %
Test CRC 8CAB7B36
Copy CRC 8CAB7B36
Track not present in AccurateRip database
Copy OK

Track 3

Filename E:\Music\FLAC\Various Artists\Progressive Rock Trilogy\Progessive Rock Trilogy - Disc 2 - The Greatest Progressive Songs - 2010\03 - Hatfield And The North - Going For A Song.wav

Peak level 94.4 %
Extraction speed 1.2 X
Track quality 100.0 %
Test CRC AE3D90D5
Copy CRC AE3D90D5
Track not present in AccurateRip database
Copy OK

Track 4

Filename E:\Music\FLAC\Various Artists\Progressive Rock Trilogy\Progessive Rock Trilogy - Disc 2 - The Greatest Progressive Songs - 2010\04 - Soft Machine - Bundles.wav

Peak level 96.6 %
Extraction speed 1.2 X
Track quality 100.0 %
Test CRC 8D389FA9
Copy CRC 8D389FA9
Track not present in AccurateRip database
Copy OK

Track 5

Filename E:\Music\FLAC\Various Artists\Progressive Rock Trilogy\Progessive Rock Trilogy - Disc 2 - The Greatest Progressive Songs - 2010\05 - Caravan - If I Could Do It All Over Again, I'd Do It All Over You.wav

Peak level 97.7 %
Extraction speed 1.3 X
Track quality 100.0 %
Test CRC F9680EAD
Copy CRC F9680EAD
Track not present in AccurateRip database
Copy OK

Track 6

Filename E:\Music\FLAC\Various Artists\Progressive Rock Trilogy\Progessive Rock Trilogy - Disc 2 - The Greatest Progressive Songs - 2010\06 - Gong - Outer Vision.wav

Peak level 96.6 %
Extraction speed 1.4 X
Track quality 100.0 %
Test CRC F78A6FF0
Copy CRC F78A6FF0
Track not present in AccurateRip database
Copy OK

Track 7

Filename E:\Music\FLAC\Various Artists\Progressive Rock Trilogy\Progessive Rock Trilogy - Disc 2 - The Greatest Progressive Songs - 2010\07 - Hawkwind - Brainstorm.wav

Peak level 94.4 %
Extraction speed 1.6 X
Track quality 100.0 %
Test CRC 470F7BFB
Copy CRC 470F7BFB
Track not present in AccurateRip database
Copy OK

Track 8

Filename E:\Music\FLAC\Various Artists\Progressive Rock Trilogy\Progessive Rock Trilogy - Disc 2 - The Greatest Progressive Songs - 2010\08 - Hawkwind - Space Is Deep.wav

Peak level 96.6 %
Extraction speed 1.7 X
Track quality 100.0 %
Test CRC 197C7AD3
Copy CRC 197C7AD3
Track not present in AccurateRip database
Copy OK

Track 9

Filename E:\Music\FLAC\Various Artists\Progressive Rock Trilogy\Progessive Rock Trilogy - Disc 2 - The Greatest Progressive Songs - 2010\09 - Can - All Gates Open.wav

Peak level 84.0 %
Extraction speed 1.7 X
Track quality 99.9 %
Test CRC CA045B4C
Copy CRC CA045B4C
Track not present in AccurateRip database
Copy OK

Track 10

Filename E:\Music\FLAC\Various Artists\Progressive Rock Trilogy\Progessive Rock Trilogy - Disc 2 - The Greatest Progressive Songs - 2010\10 - Tangerine Dream - Ultima Thule Part 1.wav

Peak level 83.2 %
Extraction speed 1.4 X
Track quality 99.9 %
Test CRC B3C0C8F1
Copy CRC B3C0C8F1
Track not present in AccurateRip database
Copy OK

Track 11

Filename E:\Music\FLAC\Various Artists\Progressive Rock Trilogy\Progessive Rock Trilogy - Disc 2 - The Greatest Progressive Songs - 2010\11 - Tangerine Dream - Ultima Thule Part 2.wav

Peak level 87.6 %
Extraction speed 1.8 X
Track quality 100.0 %
Test CRC 518C4F47
Copy CRC 518C4F47
Track not present in AccurateRip database
Copy OK

Track 12

Filename E:\Music\FLAC\Various Artists\Progressive Rock Trilogy\Progessive Rock Trilogy - Disc 2 - The Greatest Progressive Songs - 2010\12 - Amon Guru - Sumpfige Wasser.wav

Peak level 88.2 %
Extraction speed 1.9 X
Track quality 100.0 %
Test CRC 1FC8BD20
Copy CRC 1FC8BD20
Track not present in AccurateRip database
Copy OK

Track 13

Filename E:\Music\FLAC\Various Artists\Progressive Rock Trilogy\Progessive Rock Trilogy - Disc 2 - The Greatest Progressive Songs - 2010\13 - Brainticket - Egyptian Kings.wav

Peak level 83.6 %
Extraction speed 1.9 X
Track quality 100.0 %
Test CRC BD9330C9
Copy CRC BD9330C9
Track not present in AccurateRip database
Copy OK

Track 14

Filename E:\Music\FLAC\Various Artists\Progressive Rock Trilogy\Progessive Rock Trilogy - Disc 2 - The Greatest Progressive Songs - 2010\14 - Can - November.wav

Peak level 97.7 %
Extraction speed 2.1 X
Track quality 100.0 %
Test CRC 1A329814
Copy CRC 1A329814
Track not present in AccurateRip database
Copy OK

Track 15

Filename E:\Music\FLAC\Various Artists\Progressive Rock Trilogy\Progessive Rock Trilogy - Disc 2 - The Greatest Progressive Songs - 2010\15 - Tangerine Dream - Sunset In The Third System.wav

Peak level 100.0 %
Extraction speed 1.8 X
Track quality 99.9 %
Test CRC 40941927
Copy CRC 40941927
Track not present in AccurateRip database
Copy OK


None of the tracks are present in the AccurateRip database

No errors occurred

End of status report

==== Log checksum 19DFA9547772D0ED3C25BE3D901D45CCF6F8ECB1FEA7D37E8725D17AD92CC755 ====


Exact Audio Copy V1.0 beta 1 from 15. November 2010

EAC extraction logfile from 27. March 2011, 10:11

Various / Progessive Rock Trilogy - Disc 3 - The Greatest Progressive Songs

Used drive : TSSTcorpDVD+-RW TS-L633A Adapter: 2 ID: 1

Read mode : Secure
Utilize accurate stream : Yes
Defeat audio cache : Yes
Make use of C2 pointers : No

Read offset correction : 6
Overread into Lead-In and Lead-Out : No
Fill up missing offset samples with silence : Yes
Delete leading and trailing silent blocks : No
Null samples used in CRC calculations : Yes
Used interface : Native Win32 interface for Win NT & 2000
Gap handling : Appended to previous track

Used output format : User Defined Encoder
Selected bitrate : 1024 kBit/s
Quality : High
Add ID3 tag : No
Command line compressor : C:\Programfiler\Exact Audio Copy\Flac\flac.exe
Additional command line options : -6 -V -T "ARTIST=%a" -T "TITLE=%t" -T "ALBUM=%g" -T "DATE=%y" -T "TRACKNUMBER=%n" -T "GENRE=%m" -T "COMMENT=%e" %j–picture="%i"%j %s -o %d


TOC of the extracted CD

Track | Start | Length | Start sector | End sector
––––––––––––––––––––––––––––-
1 | 0:00.00 | 7:27.46 | 0 | 33570
2 | 7:27.46 | 4:39.40 | 33571 | 54535
3 | 12:07.11 | 4:12.12 | 54536 | 73447
4 | 16:19.23 | 2:14.52 | 73448 | 83549
5 | 18:34.00 | 4:03.63 | 83550 | 101837
6 | 22:37.63 | 3:32.08 | 101838 | 117745
7 | 26:09.71 | 4:19.52 | 117746 | 137222
8 | 30:29.48 | 4:58.30 | 137223 | 159602
9 | 35:28.03 | 4:17.55 | 159603 | 178932
10 | 39:45.58 | 7:09.60 | 178933 | 211167
11 | 46:55.43 | 6:22.70 | 211168 | 239887
12 | 53:18.38 | 5:40.28 | 239888 | 265415
13 | 58:58.66 | 6:16.64 | 265416 | 293679
14 | 65:15.55 | 6:16.34 | 293680 | 321913
15 | 71:32.14 | 1:47.44 | 321914 | 329982


Track 1

Filename E:\Music\FLAC\Various Artists\Progressive Rock Trilogy\Progessive Rock Trilogy - Disc 3 - The Greatest Progressive Songs - 2010\01 - Premiata Forneria Marconi - From Under.wav

Pre-gap length 0:00:02.00

Peak level 98.9 %
Extraction speed 2.8 X
Track quality 99.9 %
Test CRC 9DFB7D2B
Copy CRC 9DFB7D2B
Track not present in AccurateRip database
Copy OK

Track 2

Filename E:\Music\FLAC\Various Artists\Progressive Rock Trilogy\Progessive Rock Trilogy - Disc 3 - The Greatest Progressive Songs - 2010\02 - Banco Del Mutuo Soccorso - L'Albero Del Pane.wav

Peak level 94.4 %
Extraction speed 3.3 X
Track quality 100.0 %
Test CRC BA8EEC63
Copy CRC BA8EEC63
Track not present in AccurateRip database
Copy OK

Track 3

Filename E:\Music\FLAC\Various Artists\Progressive Rock Trilogy\Progessive Rock Trilogy - Disc 3 - The Greatest Progressive Songs - 2010\03 - Lindisfarne - Lady Eleanor.wav

Peak level 97.7 %
Extraction speed 3.5 X
Track quality 100.0 %
Test CRC 31D87D04
Copy CRC 31D87D04
Track not present in AccurateRip database
Copy OK

Track 4

Filename E:\Music\FLAC\Various Artists\Progressive Rock Trilogy\Progessive Rock Trilogy - Disc 3 - The Greatest Progressive Songs - 2010\04 - Fairport Convention - Orange Blossom Special.wav

Peak level 100.0 %
Extraction speed 3.2 X
Track quality 100.0 %
Test CRC 5B1D9C67
Copy CRC 5B1D9C67
Track not present in AccurateRip database
Copy OK

Track 5

Filename E:\Music\FLAC\Various Artists\Progressive Rock Trilogy\Progessive Rock Trilogy - Disc 3 - The Greatest Progressive Songs - 2010\05 - Peter Sinfield - A House Of Hopes And Dreams.wav

Peak level 93.8 %
Extraction speed 3.8 X
Track quality 100.0 %
Test CRC 3AEAA928
Copy CRC 3AEAA928
Track not present in AccurateRip database
Copy OK

Track 6

Filename E:\Music\FLAC\Various Artists\Progressive Rock Trilogy\Progessive Rock Trilogy - Disc 3 - The Greatest Progressive Songs - 2010\06 - Family - In My Own Time.wav

Peak level 96.0 %
Extraction speed 3.8 X
Track quality 100.0 %
Test CRC E113B695
Copy CRC E113B695
Track not present in AccurateRip database
Copy OK

Track 7

Filename E:\Music\FLAC\Various Artists\Progressive Rock Trilogy\Progessive Rock Trilogy - Disc 3 - The Greatest Progressive Songs - 2010\07 - Yes - Then.wav

Peak level 97.7 %
Extraction speed 4.1 X
Track quality 100.0 %
Test CRC 060A82B9
Copy CRC 060A82B9
Track not present in AccurateRip database
Copy OK

Track 8

Filename E:\Music\FLAC\Various Artists\Progressive Rock Trilogy\Progessive Rock Trilogy - Disc 3 - The Greatest Progressive Songs - 2010\08 - Affinity - Three Sisters.wav

Peak level 98.5 %
Extraction speed 4.4 X
Track quality 100.0 %
Test CRC F495C406
Copy CRC F495C406
Track not present in AccurateRip database
Copy OK

Track 9

Filename E:\Music\FLAC\Various Artists\Progressive Rock Trilogy\Progessive Rock Trilogy - Disc 3 - The Greatest Progressive Songs - 2010\09 - Carmen - Bullfight.wav

Peak level 98.8 %
Extraction speed 4.5 X
Track quality 100.0 %
Test CRC 6A0E54E2
Copy CRC 6A0E54E2
Track not present in AccurateRip database
Copy OK

Track 10

Filename E:\Music\FLAC\Various Artists\Progressive Rock Trilogy\Progessive Rock Trilogy - Disc 3 - The Greatest Progressive Songs - 2010\10 - Atomic Rooster - Death Walks Behind You.wav

Peak level 99.6 %
Extraction speed 5.0 X
Track quality 100.0 %
Test CRC C2B111C0
Copy CRC C2B111C0
Track not present in AccurateRip database
Copy OK

Track 11

Filename E:\Music\FLAC\Various Artists\Progressive Rock Trilogy\Progessive Rock Trilogy - Disc 3 - The Greatest Progressive Songs - 2010\11 - Third Ear Band - Cosmic Wheel.wav

Peak level 95.5 %
Extraction speed 5.2 X
Track quality 100.0 %
Test CRC B4C35E05
Copy CRC B4C35E05
Track not present in AccurateRip database
Copy OK

Track 12

Filename E:\Music\FLAC\Various Artists\Progressive Rock Trilogy\Progessive Rock Trilogy - Disc 3 - The Greatest Progressive Songs - 2010\12 - Brand X - Can-Utility And The Coastliners.wav

Peak level 88.1 %
Extraction speed 4.8 X
Track quality 99.9 %
Test CRC AA728105
Copy CRC AA728105
Track not present in AccurateRip database
Copy OK

Track 13

Filename E:\Music\FLAC\Various Artists\Progressive Rock Trilogy\Progessive Rock Trilogy - Disc 3 - The Greatest Progressive Songs - 2010\13 - Principal Edwards Magic Theatre - McAlpine Versus The Asmoto.wav

Peak level 97.4 %
Extraction speed 5.6 X
Track quality 100.0 %
Test CRC 2DC69917
Copy CRC 2DC69917
Track not present in AccurateRip database
Copy OK

Track 14

Filename E:\Music\FLAC\Various Artists\Progressive Rock Trilogy\Progessive Rock Trilogy - Disc 3 - The Greatest Progressive Songs - 2010\14 - Asia - Sole Survivor.wav

Peak level 75.7 %
Extraction speed 3.9 X
Track quality 100.0 %
Test CRC 507610BB
Copy CRC 507610BB
Track not present in AccurateRip database
Copy OK

Track 15

Filename E:\Music\FLAC\Various Artists\Progressive Rock Trilogy\Progessive Rock Trilogy - Disc 3 - The Greatest Progressive Songs - 2010\15 - John Wetton (King Crimson) & Peter Banks & Tony Kaye (Yes) - Eclipse.wav

Peak level 91.3 %
Extraction speed 3.7 X
Track quality 99.9 %
Test CRC C90E6C77
Copy CRC C90E6C77
Track not present in AccurateRip database
Copy OK


None of the tracks are present in the AccurateRip database

No errors occurred

End of status report

==== Log checksum 68180253DFE46D5B4C6A587F7E5A946E13847DF6DDB260606D8F6E23CD81209B ====


VA - Progressive Rock Trilogy (Remastered Special Edition) (2010)
VA - Progressive Rock Trilogy (Remastered Special Edition) (2010)
VA - Progressive Rock Trilogy (Remastered Special Edition) (2010)