Subcategories

São Paulo Symphony Orchestra, Marin Alsop - Prokofiev: Symphony No. 6, Op. 111 & Waltz Suite (2016)

Posted By: SERTiL
São Paulo Symphony Orchestra, Marin Alsop - Prokofiev: Symphony No. 6, Op. 111 & Waltz Suite (2016)

São Paulo Symphony Orchestra, Marin Alsop - Prokofiev: Symphony No. 6, Op. 111 & Waltz Suite
EAC Rip | FLAC (tracks)+cue, log, m3u, d.booklet | 68:16 min | 287 MB
Label: Naxos - 8.573029 | Tracks: 09 | Rls.date: 2016
Classical, Orchestral

Prokofiev started work on his Sixth Symphony in 1945 and, unlike the victorious mood of the Fifth (Naxos 8.573029) it reveals a darker response to war and its consequences. The work was condemned by the ‘Zhdanov decree’ but composer and critics regarded the symphony highly, the noble yet anguished threnody of its central Largo balanced by the painful violence of the outer movements. The work’s ending has been described as “one of the most shattering in the repertoire”. With themes both capricious and sensuous, the Waltz Suite recycles material from earlier scores to create a remarkably effective quasi-symphonic entity.

TRACKLIST

Symphony No. 6 in E-Flat Minor, Op. 111
1. I. Allegro moderato 13:23
2. II. Largo 14:14
3. III. Vivace 11:20

Waltz Suite, Op. 110
4. I. Since We Met (from War and Peace) 06:18
5. II. Cinderella in the Palace (from Cinderella) 05:39
6. III. Mephisto Waltz (from Lermontov) 03:27
7. IV. End of the Fairy - Tale (from Cinderella) 04:58
8. V. Waltz for the New Year's Ball (from War and Peace) 05:40
9. VI. Happiness (from Cinderella) 03:22

Exact Audio Copy V1.3 from 2. September 2016

EAC extraction logfile from 28. January 2017, 6:06

São Paulo Symphony Orchestra; Marin Alsop / Symphony No. 6

Used drive : ATAPI DVD A DH16AAL Adapter: 1 ID: 0

Read mode : Secure
Utilize accurate stream : Yes
Defeat audio cache : Yes
Make use of C2 pointers : No

Read offset correction : 6
Overread into Lead-In and Lead-Out : No
Fill up missing offset samples with silence : Yes
Delete leading and trailing silent blocks : No
Null samples used in CRC calculations : Yes
Used interface : Native Win32 interface for Win NT & 2000
Gap handling : Appended to previous track

Used output format : User Defined Encoder
Selected bitrate : 1024 kBit/s
Quality : High
Add ID3 tag : No
Command line compressor : C:\Program Files (x86)\Exact Audio Copy\Flac\flac.exe
Additional command line options : -8 -e -p -V -T "ARTIST=%artist%" -T "TITLE=%title%" -T "ALBUM=%albumtitle%" -T "DATE=%year%" -T "TRACKNUMBER=%tracknr%" -T "GENRE=%genre%" -T "PERFORMER=%albuminterpret%" -T "COMPOSER=%composer%" %haslyrics%–tag-from-file=LYRICS="%lyricsfile%"%haslyrics% -T "ALBUMARTIST=%albumartist%" -T "DISCNUMBER=%cdnumber%" -T "TOTALDISCS=%totalcds%" -T "TOTALTRACKS=%numtracks%" -T "COMMENT=%comment%" %source% -o %dest%


TOC of the extracted CD

Track | Start | Length | Start sector | End sector
––––––––––––––––––––––––––––-
1 | 0:00.00 | 13:27.36 | 0 | 60560
2 | 13:27.36 | 14:13.27 | 60561 | 124562
3 | 27:40.63 | 11:23.09 | 124563 | 175796
4 | 39:03.72 | 6:11.06 | 175797 | 203627
5 | 45:15.03 | 5:40.25 | 203628 | 229152
6 | 50:55.28 | 3:26.42 | 229153 | 244644
7 | 54:21.70 | 4:58.54 | 244645 | 267048
8 | 59:20.49 | 5:39.21 | 267049 | 292494
9 | 64:59.70 | 3:19.05 | 292495 | 307424


Track 1

Filename C:\EAC RIPS\Marin Alsop - Sergey Prokofiev - Symphony No. 6 - Waltz Suite (2016) [FLAC] {8.573518}\01 - Symphony No. 6, Op. 111 I. Allegro moderato.wav

Pre-gap length 0:00:02.00

Peak level 70.9 %
Extraction speed 2.5 X
Track quality 100.0 %
Test CRC 8D324E86
Copy CRC 8D324E86
Accurately ripped (confidence 1) [CA9FD1FD] (AR v2)
Copy OK

Track 2

Filename C:\EAC RIPS\Marin Alsop - Sergey Prokofiev - Symphony No. 6 - Waltz Suite (2016) [FLAC] {8.573518}\02 - Symphony No. 6, Op. 111 II. Largo.wav

Pre-gap length 0:00:06.41

Peak level 69.3 %
Extraction speed 3.2 X
Track quality 100.0 %
Test CRC 1735BF74
Copy CRC 1735BF74
Accurately ripped (confidence 1) [5087B52E] (AR v2)
Copy OK

Track 3

Filename C:\EAC RIPS\Marin Alsop - Sergey Prokofiev - Symphony No. 6 - Waltz Suite (2016) [FLAC] {8.573518}\03 - Symphony No. 6, Op. 111 III. Vivace.wav

Pre-gap length 0:00:06.25

Peak level 88.1 %
Extraction speed 3.6 X
Track quality 100.0 %
Test CRC B2B45082
Copy CRC B2B45082
Accurately ripped (confidence 1) [5A5C1D86] (AR v2)
Copy OK

Track 4

Filename C:\EAC RIPS\Marin Alsop - Sergey Prokofiev - Symphony No. 6 - Waltz Suite (2016) [FLAC] {8.573518}\04 - Waltz Suite, Op. 110 I. Since We Met - Allegro moderato.wav

Pre-gap length 0:00:09.10

Peak level 53.3 %
Extraction speed 3.7 X
Track quality 100.0 %
Test CRC 717D3D8C
Copy CRC 717D3D8C
Accurately ripped (confidence 1) [591B2408] (AR v2)
Copy OK

Track 5

Filename C:\EAC RIPS\Marin Alsop - Sergey Prokofiev - Symphony No. 6 - Waltz Suite (2016) [FLAC] {8.573518}\05 - Waltz Suite, Op. 110 II. In the Palace - Allegro.wav

Pre-gap length 0:00:01.90

Peak level 61.9 %
Extraction speed 3.9 X
Track quality 100.0 %
Test CRC C414805C
Copy CRC C414805C
Accurately ripped (confidence 1) [A9B2889C] (AR v2)
Copy OK

Track 6

Filename C:\EAC RIPS\Marin Alsop - Sergey Prokofiev - Symphony No. 6 - Waltz Suite (2016) [FLAC] {8.573518}\06 - Waltz Suite, Op. 110 III. Since We Met - Allegro precipitato.wav

Pre-gap length 0:00:03.66

Peak level 83.2 %
Extraction speed 3.7 X
Track quality 100.0 %
Test CRC 03B9E01C
Copy CRC 03B9E01C
Accurately ripped (confidence 1) [C9D17679] (AR v2)
Copy OK

Track 7

Filename C:\EAC RIPS\Marin Alsop - Sergey Prokofiev - Symphony No. 6 - Waltz Suite (2016) [FLAC] {8.573518}\07 - Waltz Suite, Op. 110 IV. End of the Fairy Tale - Adagio.wav

Pre-gap length 0:00:03.22

Peak level 64.2 %
Extraction speed 4.1 X
Track quality 100.0 %
Test CRC A2375DA0
Copy CRC A2375DA0
Accurately ripped (confidence 1) [6E5FFAC1] (AR v2)
Copy OK

Track 8

Filename C:\EAC RIPS\Marin Alsop - Sergey Prokofiev - Symphony No. 6 - Waltz Suite (2016) [FLAC] {8.573518}\08 - Waltz Suite, Op. 110 V. New Year's Eve Ball - Allegro, ma non troppo.wav

Pre-gap length 0:00:03.56

Peak level 58.5 %
Extraction speed 3.3 X
Track quality 99.9 %
Test CRC 07923913
Copy CRC 07923913
Accurately ripped (confidence 1) [E5D4E0B1] (AR v2)
Copy OK

Track 9

Filename C:\EAC RIPS\Marin Alsop - Sergey Prokofiev - Symphony No. 6 - Waltz Suite (2016) [FLAC] {8.573518}\09 - Waltz Suite, Op. 110 VI. Happiness - Allegro espressivo.wav

Pre-gap length 0:00:02.74

Peak level 86.9 %
Extraction speed 4.1 X
Track quality 100.0 %
Test CRC B28C29FA
Copy CRC B28C29FA
Accurately ripped (confidence 1) [4510E651] (AR v2)
Copy OK


All tracks accurately ripped

No errors occurred

End of status report

–– CUETools DB Plugin V2.1.6

[CTDB TOCID: ZQJvjisSYhSxfp2CCHdqu7uzIRM-] found
Submit result: ZQJvjisSYhSxfp2CCHdqu7uzIRM- has been confirmed
Track | CTDB Status
1 | (1/1) Accurately ripped
2 | (1/1) Accurately ripped
3 | (1/1) Accurately ripped
4 | (1/1) Accurately ripped
5 | (1/1) Accurately ripped
6 | (1/1) Accurately ripped
7 | (1/1) Accurately ripped
8 | (1/1) Accurately ripped
9 | (1/1) Accurately ripped


==== Log checksum 7E803AAC3D87F64F1C7A45A1B5940E9E1F8E593D17ADB3B14B7C28DC0D43F09E ====


São Paulo Symphony Orchestra, Marin Alsop - Prokofiev: Symphony No. 6, Op. 111 & Waltz Suite (2016)


Thanks to the Original customer.