Subcategories
Tags
Language
Tags

Prucel - Easy Pieces (1975) [Reissue 2021]

Posted By: gribovar
Prucel - Easy Pieces (1975) [Reissue 2021]

Prucel - Easy Pieces (1975) [Reissue 2021]
EAC Rip | FLAC (image+.cue+log) - 176 MB | MP3 CBR 320 kbps (LAME 3.93) - 65 MB | Covers - 149 MB
Genre: Progressive Rock, Pop Rock | RAR 3% Rec. | Label: Norske Albumklassikere (NACD012)

Released for the first time on CD! Prog rock band from Nordstrand, Norway. Formed in 1968. Performed at the legendary Kalvøya Festival in 1971 and at Ragnarock Festival in 1974. Released one album only, before disbanding in 1975.
Tracklist:
01. Speedy Judy
02. Tuesday?s Not The Day
03. Will
04. Good Salvation Goodbye
05. Prima Ballerina
06. Terrible Terry
07. To You (Instrumental)

Total time: 27:50

Exact Audio Copy V1.3 from 2. September 2016

Отчёт EAC об извлечении, выполненном 17. июня 2021, 18:31

Prucel / Easy Pieces

Дисковод: HL-DT-STDVDRAM GT70N Adapter: 1 ID: 0

Режим чтения : Достоверность
Использование точного потока : Да
Отключение кэша аудио : Да
Использование указателей C2 : Нет

Коррекция смещения при чтении : 103
Способность читать области Lead-in и Lead-out : Нет
Заполнение пропущенных сэмплов тишиной : Да
Удаление блоков с тишиной в начале и конце : Нет
При вычислениях CRC использовались нулевые сэмплы : Да
Интерфейс : Встроенный Win32-интерфейс для Win NT/2000

Выходной формат : Пользовательский кодировщик
Выбранный битрейт : 1024 kBit/s
Качество : Высокий
Добавление ID3-тега : Нет
Утилита сжатия : C:\Program Files (x86)\Exact Audio Copy\Flac\flac.exe
Дополнительные параметры : -V -8 -T "Date=%year%" -T "Genre=%genre%" %source%


TOC извлечённого CD

Трек | Старт | Длительность | Начальный сектор | Конечный сектор
––––––––––––––––––––––––––––––––––-
1 | 0:00.00 | 4:12.10 | 0 | 18909
2 | 4:12.10 | 3:15.44 | 18910 | 33578
3 | 7:27.54 | 4:06.60 | 33579 | 52088
4 | 11:34.39 | 2:25.10 | 52089 | 62973
5 | 13:59.49 | 5:11.61 | 62974 | 86359
6 | 19:11.35 | 3:57.72 | 86360 | 104206
7 | 23:09.32 | 4:40.70 | 104207 | 125276


Характеристики диапазона извлечения и сообщения об ошибках

Выбранный диапазон

Имя файла L:\CD\Prucel - Easy Pieces\Prucel - Easy Pieces.wav

Пиковый уровень 98.5 %
Скорость извлечения 4.1 X
Качество диапазона 100.0 %
CRC теста B429A192
CRC копии B429A192
Копирование… OK

Ошибок не произошло


AccurateRip: сводка

Трек 1 : извлечено точно (доверие 1) [07F361FA] (AR v2)
Трек 2 : извлечено точно (доверие 1) [B56493B2] (AR v2)
Трек 3 : извлечено точно (доверие 1) [AEFE9036] (AR v2)
Трек 4 : извлечено точно (доверие 1) [F234C439] (AR v2)
Трек 5 : извлечено точно (доверие 1) [2BA7DE4A] (AR v2)
Трек 6 : извлечено точно (доверие 1) [AA39EF49] (AR v2)
Трек 7 : извлечено точно (доверие 1) [2887DC78] (AR v2)

Все треки извлечены точно

Конец отчёта

–– CUETools DB Plugin V2.1.6

[CTDB TOCID: ElbdDMtghTYnbD8xJn980j2kjso-] found
Submit result: ElbdDMtghTYnbD8xJn980j2kjso- has been confirmed
Track | CTDB Status
1 | (3/3) Accurately ripped
2 | (3/3) Accurately ripped
3 | (3/3) Accurately ripped
4 | (3/3) Accurately ripped
5 | (3/3) Accurately ripped
6 | (3/3) Accurately ripped
7 | (3/3) Accurately ripped


==== Контрольная сумма отчёта A2A5C756CF765C9CEA722EF854DEE1C6C453FE8395190848E4A30D421253B3B6 ====

[CUETools log; Date: 18.06.2021 10:58:45; Version: 2.1.4]
[CTDB TOCID: ElbdDMtghTYnbD8xJn980j2kjso-] found.
Track | CTDB Status
1 | (4/4) Accurately ripped
2 | (4/4) Accurately ripped
3 | (4/4) Accurately ripped
4 | (4/4) Accurately ripped
5 | (4/4) Accurately ripped
6 | (4/4) Accurately ripped
7 | (4/4) Accurately ripped
[AccurateRip ID: 00076044-002c6d79-58068607] found.
Track [ CRC | V2 ] Status
01 [9ba6f9e7|07f361fa] (0+1/1) Accurately ripped
02 [1dc80519|b56493b2] (0+1/1) Accurately ripped
03 [330efa43|aefe9036] (0+1/1) Accurately ripped
04 [9be5a1ae|f234c439] (0+1/1) Accurately ripped
05 [315e9133|2ba7de4a] (0+1/1) Accurately ripped
06 [ec3a3090|aa39ef49] (0+1/1) Accurately ripped
07 [01bc9411|2887dc78] (0+1/1) Accurately ripped

Track Peak [ CRC32 ] [W/O NULL] [ LOG ]
– 98,5 [B429A192] [D94D67BB] CRC32
01 96,9 [3B1699FC] [530D0BA1]
02 98,4 [5D258D0D] [940F2A29]
03 98,5 [2A98F94C] [18169464]
04 83,4 [BF778545] [AEF343F2]
05 98,4 [D8F1413A] [D356CC40]
06 97,5 [4F4BDDA3] [E8ECE2CF]
07 98,1 [3D8FF19E] [A1912B32]

Thanks to Verbizki66