Subcategories

Public Foot The Roman - Public Foot The Roman (1973) [Reissue 2011]

Posted By: antonyart
Public Foot The Roman - Public Foot The Roman (1973) [Reissue 2011]

Public Foot The Roman - Public Foot The Roman (1973) [Reissue 2011]
EAC Rip | FLAC (IMG+CUE+LOG) | 252 MB | Complete HQ Scans 600 dpi JPG included | MP3 Lame 320 CBR | 88 MB
Genre: Progressive Rock | RAR 5% Rec. | Label: Flawed Gems (GEM 68) | Uploaded, Depositfiles

This is the CD debut of sole album from powerful but rather forgotten British progressive quintet. Original record was decorated with mysterious Hipgnosis cover and released in September 1973 on Sovereign label - home of Renaissance, Mouse and Flash. Most of the album was filled with varied, imaginative and cleverly-arranged songs definitely influenced by Wishbone Ash and early Yes, but it must be stressed that the band has its own sound as well, with their superb combination of electric twin-guitar leads, intensive & varied keyboards parts and fine harmony vocals against the solid rhythm section. Unfortunately, in 1975 the band changed its name to The Movies and began to play much less progressive music…
Public Foot The Roman - Public Foot The Roman (1973) [Reissue 2011]

Tracklist:

01. Land Owner 04:41
02. When You Lay It Down 05:42
03. King for a Day 03:09
04. Judas Returns 06:04
05. Don't Bite the Hand 05:04
06. One (On My Mind) 05:03
07. Declien and Fall 08:32

Total: 38:16

Exact Audio Copy V1.0 beta 3 from 29. August 2011

EAC extraction logfile from 30. November 2012, 23:00

Public Foot The Roman / Public Foot The Roman

Used drive : HL-DT-STDVDRAM GT34N Adapter: 0 ID: 2

Read mode : Secure
Utilize accurate stream : Yes
Defeat audio cache : Yes
Make use of C2 pointers : No

Read offset correction : 103
Overread into Lead-In and Lead-Out : No
Fill up missing offset samples with silence : Yes
Delete leading and trailing silent blocks : No
Null samples used in CRC calculations : Yes
Used interface : Native Win32 interface for Win NT & 2000

Used output format : User Defined Encoder
Selected bitrate : 896 kBit/s
Quality : High
Add ID3 tag : Yes
Command line compressor : C:\Program Files (x86)\Exact Audio Copy\FLAC\FLAC.EXE
Additional command line options : -6 -V -T "ARTIST=%artist%" -T "TITLE=%title%" -T "ALBUM=%albumtitle%" -T "DATE=%year%" -T "TRACKNUMBER=%tracknr%" -T "GENRE=%genre%" -T "COMMENT=%comment%" -T "BAND=%albuminterpret%" -T "ALBUMARTIST=%albuminterpret%" -T "COMPOSER=%composer%" %haslyrics%–tag-from-file=LYRICS="%lyricsfile%"%haslyrics% -T "DISCNUMBER=%cdnumber%" -T "TOTALDISCS=%totalcds%" -T "TOTALTRACKS=%numtracks%" %hascover%–picture="%coverfile%"%hascover% %source% -o %dest%


TOC of the extracted CD

Track | Start | Length | Start sector | End sector
––––––––––––––––––––––––––––-
1 | 0:00.00 | 4:41.08 | 0 | 21082
2 | 4:41.08 | 5:42.05 | 21083 | 46737
3 | 10:23.13 | 3:09.27 | 46738 | 60939
4 | 13:32.40 | 6:03.73 | 60940 | 88237
5 | 19:36.38 | 5:04.23 | 88238 | 111060
6 | 24:40.61 | 5:02.71 | 111061 | 133781
7 | 29:43.57 | 8:32.01 | 133782 | 172182


Range status and errors

Selected range

Filename D:\FLAC\PUBLIC FOOT THE ROMAN -73- Public Foot The Roman\Public Foot The Roman - Public Foot The Roman.wav

Peak level 98.8 %
Extraction speed 1.9 X
Range quality 99.9 %
Test CRC 6187F3A8
Copy CRC 6187F3A8
Copy OK

No errors occurred


AccurateRip summary

Track 1 not present in database
Track 2 not present in database
Track 3 not present in database
Track 4 not present in database
Track 5 not present in database
Track 6 not present in database
Track 7 not present in database

None of the tracks are present in the AccurateRip database

End of status report

==== Log checksum 46F3C3EA2B5316893EA3761573B565B423D87C6DE61CD40D8558E6942D91E249 ====

foobar2000 1.1.9 / Dynamic Range Meter 1.1.1
log date: 2013-01-21 08:23:11

––––––––––––––––––––––––––––––––––––––––
Analyzed: Public Foot The Roman / Public Foot The Roman
––––––––––––––––––––––––––––––––––––––––

DR Peak RMS Duration Track
––––––––––––––––––––––––––––––––––––––––
DR8 -0.10 dB -9.43 dB 4:41 01-Landowner
DR8 -0.10 dB -9.92 dB 5:42 02-When You Lay It Down
DR8 -0.10 dB -9.53 dB 3:09 03-King For A Day
DR9 -0.10 dB -11.00 dB 6:04 04-Judas Returns
DR8 -0.10 dB -9.70 dB 5:04 05-Don't Bite The Hand
DR10 -0.10 dB -12.67 dB 5:03 06-One (On My Mind)
DR8 -0.10 dB -10.23 dB 8:32 07-Decline And Fall
––––––––––––––––––––––––––––––––––––––––

Number of tracks: 7
Official DR value: DR8

Samplerate: 44100 Hz
Channels: 2
Bits per sample: 16
Bitrate: 884 kbps
Codec: FLAC
================================================================================

An obscure and long forgotten progressive rock band from the UK, PUBLIC FOOT THE ROMAN nevertheless were popular enough to released one self titled album in 1973 in both the UK and USA. (Sovereign Records in the UK, Capitol in the USA). In addition they were often seen playing at colleges and were featured on the more outward looking radio shows of the time.
The band did have some line up changes but the best known was Dag Small (keyboards and vocals), the enigmatically named Ward (bass guitar), Sean Byrne (vocals and guitar), Greg Knowles (guitar) and Jamie Lane (drums and vocals). The group eventually transormed itself into THE MOVIES who developed PUBLIC FOOT THE ROMAN's art rock tendenacies and were almost on the verge of a breakthrough when Punk Rock changed the musical climate and killed any chances of success.
An interesting Footnote (pardon the pun) to Progressive Rock's history.

from progarchives.com

Public Foot The Roman - Public Foot The Roman (1973) [Reissue 2011]


This CD is from my personal collection. My original rip & my scan work.
>> here is my blog with all my rips <<
Please, do not mirror these links at any web pages.
FLAC + HQ 600 dpi complete scans:

Uploaded

Depositfiles

MP3 + 300 dpi front/back cover scans:

Uploaded

Depositfiles


Password: Ant