Subcategories

Pulse - Pulse (2002)

Posted By: Andi_Deris
Pulse - Pulse (2002)

Pulse - Pulse (2002)
EAC Rip | FLAC: Image+Cue+Log | 432 Mb | MP3 CBR 320 kbps | 148 Mb | Scans | Time: 57:27
Genre: Melodic Hard Rock, AOR | Label: Frontiers/CD-Maximum | CDM 0102-791

CD PULSE - S/T! Released on the FRONTIERS RECORDS label back in 2002! Guitar-orientated British melodic hard rock in the tradition of Def Leppard and Whitesnake, with some keyboards thrown in for good measure. The qualities of this record are strong catchy tunes, excellent vocals and choruses and good playing from all the band.

Pulse - Pulse (2002)


Track Listing

01. Talk About Love (05:00)
02. Inspiration (05:34)
03. Don't Wanna Loose You (03:54)
04. Waiting (06:19)
05. Star (05:00)
06. Crazy (04:38)
07. Lady (03:18)
08. Heartbeat (04:43)
09. Just For A Moment (05:17)
10. Believe In Me (04:23)
11. After Midnight (04:59)
12. Without You (04:27)

Produced by Mark Stuart & Vince O'Regan

The Band

• Simon Abbotts - Vocals
• Vince O'Regan (Bob Catley, Eden, Alibi, Legion, Holy Rage) - Guitars, Backing Vocals
• Al Barrow (Magnum, Bob Carley, Hard Rain) - Bass
• Lynch Radinsky (Eden) - Drums
• Alan Dawkins - Keyboards, Backing Vocals
• Paul Hodson (Bob Catley, Hard Rain, Ten, Gary Hughes, Dante Fox, John Parr) - Additional Keyboards

Pulse - Pulse (2002)


Exact Audio Copy V0.99 prebeta 5 from 4. May 2009

Отчёт EAC об извлечении, выполненном 29. июня 2011, 21:34

Pulse / Pulse

Дисковод: SlimtypeDVD A DS8A5SH Adapter: 0 ID: 1

Режим чтения : Достоверность
Использование точного потока : Да
Отключение кэша аудио : Да
Использование указателей C2 : Нет

Коррекция смещения при чтении : 6
Способность читать области Lead-in и Lead-out : Нет
Заполнение пропущенных сэмплов тишиной : Да
Удаление блоков с тишиной в начале и конце : Нет
При вычислениях CRC использовались нулевые сэмплы : Да
Интерфейс : Встроенный Win32-интерфейс для Win NT/2000

Выходной формат : Пользовательский кодировщик
Выбранный битрейт : 320 kBit/s
Качество : Высокий
Добавление ID3-тэга : Нет
Утилита сжатия : C:\Program Files (x86)\Exact Audio Copy\Flac\flac.exe
Дополнительные параметры : -8 -V %s


TOC извлечённого CD

Трек | Старт | Длительность | Начальный сектор | Конечный сектор
––––––––––––––––––––––––––––––––––-
1 | 0:00.00 | 4:59.40 | 0 | 22464
2 | 4:59.40 | 5:33.17 | 22465 | 47456
3 | 10:32.57 | 3:53.18 | 47457 | 64949
4 | 14:26.00 | 6:18.37 | 64950 | 93336
5 | 20:44.37 | 4:59.28 | 93337 | 115789
6 | 25:43.65 | 4:37.27 | 115790 | 136591
7 | 30:21.17 | 3:17.66 | 136592 | 151432
8 | 33:39.08 | 4:42.34 | 151433 | 172616
9 | 38:21.42 | 5:16.43 | 172617 | 196359
10 | 43:38.10 | 4:22.27 | 196360 | 216036
11 | 48:00.37 | 4:58.52 | 216037 | 238438
12 | 52:59.14 | 4:26.08 | 238439 | 258396


Характеристики диапазона извлечения и сообщения об ошибках

Выбранный диапазон

Имя файла D:\My Music\Pulse - 2002 Pulse\Pulse - Pulse.wav

Пиковый уровень 100.0 %
Качество диапазона 100.0 %
CRC копии 64CD61EA
Копирование… OK

Ошибок не произошло


AccurateRip: сводка

Трек 1 нет в базе данных
Трек 2 нет в базе данных
Трек 3 нет в базе данных
Трек 4 нет в базе данных
Трек 5 нет в базе данных
Трек 6 нет в базе данных
Трек 7 нет в базе данных
Трек 8 нет в базе данных
Трек 9 нет в базе данных
Трек 10 нет в базе данных
Трек 11 нет в базе данных
Трек 12 нет в базе данных

Ни одного трека нет в базе AccurateRip

Конец отчёта


Many thanks to the original uploader: kolushew