Tags
Language
Tags

Q65 - Singles A's & B's [Recorded 1966-1988] (2002)

Posted By: gribovar
Q65 - Singles A's & B's [Recorded 1966-1988] (2002)

Q65 - Singles A's & B's [Recorded 1966-1988] (2002)
EAC Rip | FLAC (image+.cue+log) - 864 MB | MP3 CBR 320 kbps (LAME 3.93) - 341 MB | Covers - 34 MB
Genre: Psychedelic/Garage Rock, Blues Rock | RAR 3% Rec. | Label: Hunter Music (HM 13972)

Based on sheer musical ability, the Q 65 deserved to be at least as well known as the Pretty Things or the Yardbirds. Indeed, the Dutch quintet could have held their own with either of those groups or the Animals without breaking a sweat, based on the recorded evidence, and they also had room for some of the more countrified blues evident in the work of the Downliners Sect. Yet the Q 65 have remained one of Europe's best-kept star-caliber musical secrets for more than 30 years. The Q 65 were Frank Nuyens (guitar, vocals, sax, flute, harmonica), Willem Bieler (vocals, harmonica), Peter Vink (bass), Joop Roelofs (guitar), and Jay Baar (drums), first got together in 1965, in the Hague. The city was known as "the Liverpool of the Netherlands," with a music scene that had been thriving since the end of the '50s.
CD 1 Tracklist:
01. Youre The Victor
02. The Life I Live
03. I Despise You
04. From Above
05. Aint That Loving You Baby (EP Knoe Bloes)
06. Ramblin On My Mind (EP Knoe Bloes)
07. So High Ive Been So Down I Must Fall
08. Medusa (Circus)
09. Ann
10. Sundance
11. Dont Let Me Fall
12. Sexy Legs
13. Love Is Such A Good Thing
14. I Just Cant Wait
15. Fighting Is Easy
16. Hoonana (Kjoe)
17. Lady Of Love (Willem Bieler And Dambuster)
18. Lets Roll
19. Feel Her Still (Mono) (Bonus Track)
20. Ridin On A Slow Train (Circus Alternative Long Version) (Bonus Track)
21. From Above (Second Version) (Bonus Track)
22. Ann (Alternative Take) (Bonus Track)

Total time: 01:12:06

CD 2 Tracklist:
01. And Your Kind
02. Cry In The Night
03. I Was Young
04. No Place To Go (EP Kjoe Bloes)
05. 80 % O (EP Kjoe Bloes)
06. It Came To Me
07. Where Is The Key
08. Mother Mothas Great Sundance (Circus)
09. Sour Wine
10. World Of Birds
11. Crumblin
12. There Was A Day
13. Night
14. Were Gonna Make It
15. Country Girl
16. Troubles (Kjoe)
17. Are You Home
18. Feel Her Still (Stereo) (Bonus Track)
19. Fairy Tales Of Truth (Circus Alternative Version) (Bonus Track)
20. Happiness (Willem Bieler) (Bonus Track)
21. I Was Young (Without Backing Vocals) (Bonus Track)
22. From Above (Alternative Take) (Bonus Track)

Total time: 01:12:54

Exact Audio Copy V0.99 prebeta 5 from 4. May 2009

Отчёт EAC об извлечении, выполненном 13. марта 2011, 15:46

Q 65 / Singles A's & B's CD1

Дисковод: ASUS DRW-24B1ST Adapter: 4 ID: 0

Режим чтения : Достоверность
Использование точного потока : Да
Отключение кэша аудио : Да
Использование указателей C2 : Нет

Коррекция смещения при чтении : 6
Способность читать области Lead-in и Lead-out : Нет
Заполнение пропущенных сэмплов тишиной : Да
Удаление блоков с тишиной в начале и конце : Нет
При вычислениях CRC использовались нулевые сэмплы : Да
Интерфейс : Встроенный Win32-интерфейс для Win NT/2000

Выходной формат : Внутренние WAV-операции
Формат сэмплов : 44.100 Гц; 16 бит; стерео


TOC извлечённого CD

Трек | Старт | Длительность | Начальный сектор | Конечный сектор
––––––––––––––––––––––––––––––––––-
1 | 0:00.00 | 2:26.72 | 0 | 11021
2 | 2:26.72 | 3:20.48 | 11022 | 26069
3 | 5:47.45 | 2:25.40 | 26070 | 36984
4 | 8:13.10 | 2:50.22 | 36985 | 49756
5 | 11:03.32 | 2:18.32 | 49757 | 60138
6 | 13:21.64 | 4:48.53 | 60139 | 81791
7 | 18:10.42 | 3:10.10 | 81792 | 96051
8 | 21:20.52 | 3:30.73 | 96052 | 111874
9 | 24:51.50 | 2:50.52 | 111875 | 124676
10 | 27:42.27 | 4:34.15 | 124677 | 145241
11 | 32:16.42 | 2:48.53 | 145242 | 157894
12 | 35:05.20 | 1:55.47 | 157895 | 166566
13 | 37:00.67 | 3:12.28 | 166567 | 180994
14 | 40:13.20 | 3:36.22 | 180995 | 197216
15 | 43:49.42 | 3:08.23 | 197217 | 211339
16 | 46:57.65 | 3:21.62 | 211340 | 226476
17 | 50:19.52 | 3:50.60 | 226477 | 243786
18 | 54:10.37 | 4:02.18 | 243787 | 261954
19 | 58:12.55 | 2:47.42 | 261955 | 274521
20 | 61:00.22 | 5:23.05 | 274522 | 298751
21 | 66:23.27 | 2:55.50 | 298752 | 311926
22 | 69:19.02 | 2:47.15 | 311927 | 324466


Характеристики диапазона извлечения и сообщения об ошибках

Выбранный диапазон

Имя файла D:\01 - Торрент НЕ ТРОГАТЬ\02 - мои Раздачи\2011\03 - March\06 - Q65\CD 1\Q 65 - Singles A's & B's CD1.wav

Пиковый уровень 98.8 %
Качество диапазона 100.0 %
CRC копии 25634602
Копирование… OK

Ошибок не произошло


AccurateRip: сводка

Трек 1 точное извлечение (доверие 1) [89ECBCA5]
Трек 2 точное извлечение (доверие 1) [0D919F56]
Трек 3 точное извлечение (доверие 1) [563EFD20]
Трек 4 точное извлечение (доверие 1) [B45A0158]
Трек 5 точное извлечение (доверие 1) [89C0500B]
Трек 6 точное извлечение (доверие 1) [A9330C15]
Трек 7 точное извлечение (доверие 1) [7DF93711]
Трек 8 точное извлечение (доверие 1) [E7AD516C]
Трек 9 точное извлечение (доверие 1) [87440741]
Трек 10 точное извлечение (доверие 1) [14DAB164]
Трек 11 точное извлечение (доверие 1) [AC0CA8F6]
Трек 12 точное извлечение (доверие 1) [874566F2]
Трек 13 точное извлечение (доверие 1) [CD1A7347]
Трек 14 точное извлечение (доверие 1) [946F41BB]
Трек 15 точное извлечение (доверие 1) [005C42D8]
Трек 16 точное извлечение (доверие 1) [DA9CBD9E]
Трек 17 точное извлечение (доверие 1) [51822AAA]
Трек 18 точное извлечение (доверие 1) [7EC41F20]
Трек 19 точное извлечение (доверие 1) [8266FFB9]
Трек 20 точное извлечение (доверие 1) [60FF7E96]
Трек 21 точное извлечение (доверие 1) [66BBD741]
Трек 22 точное извлечение (доверие 1) [227D85A2]

Все треки извлечены точно

Конец отчёта

[CUETools log; Date: 20.09.2021 19:07:15; Version: 2.1.4]
[CTDB TOCID: zyICyVqoeqT7P.HF0f7C0IcKk2U-] found.
Track | CTDB Status
1 | (4/4) Accurately ripped
2 | (4/4) Accurately ripped
3 | (4/4) Accurately ripped
4 | (4/4) Accurately ripped
5 | (4/4) Accurately ripped
6 | (4/4) Accurately ripped
7 | (4/4) Accurately ripped
8 | (4/4) Accurately ripped
9 | (4/4) Accurately ripped
10 | (4/4) Accurately ripped
11 | (4/4) Accurately ripped
12 | (4/4) Accurately ripped
13 | (4/4) Accurately ripped
14 | (4/4) Accurately ripped
15 | (4/4) Accurately ripped
16 | (4/4) Accurately ripped
17 | (4/4) Accurately ripped
18 | (4/4) Accurately ripped
19 | (4/4) Accurately ripped
20 | (4/4) Accurately ripped
21 | (4/4) Accurately ripped
22 | (4/4) Accurately ripped
[AccurateRip ID: 0036ec98-037969dc-3810e616] found.
Track [ CRC | V2 ] Status
01 [89ecbca5|1c329f44] (2+2/4) Accurately ripped
02 [0d919f56|32d8bda4] (2+2/4) Accurately ripped
03 [563efd20|c9202c0a] (2+2/4) Accurately ripped
04 [b45a0158|b6a7bf83] (2+2/4) Accurately ripped
05 [89c0500b|cb53c0b6] (2+2/4) Accurately ripped
06 [a9330c15|f6ab3c03] (2+2/4) Accurately ripped
07 [7df93711|8cb2d340] (2+2/4) Accurately ripped
08 [e7ad516c|a1f17eae] (2+2/4) Accurately ripped
09 [87440741|b0b79788] (2+2/4) Accurately ripped
10 [14dab164|44300ad2] (2+2/4) Accurately ripped
11 [ac0ca8f6|3a9a88da] (2+2/4) Accurately ripped
12 [874566f2|6122a323] (2+2/4) Accurately ripped
13 [cd1a7347|8c3ef259] (2+2/4) Accurately ripped
14 [946f41bb|34c3d4c0] (2+2/4) Accurately ripped
15 [005c42d8|42c7b332] (2+2/4) Accurately ripped
16 [da9cbd9e|2ee108d1] (2+2/4) Accurately ripped
17 [51822aaa|100ea30e] (2+2/4) Accurately ripped
18 [7ec41f20|b48ab190] (2+2/4) Accurately ripped
19 [8266ffb9|5cf055aa] (2+2/4) Accurately ripped
20 [60ff7e96|5b7a777f] (2+2/4) Accurately ripped
21 [66bbd741|dd790c98] (2+2/4) Accurately ripped
22 [227d85a2|99ab8764] (2+2/4) Accurately ripped

Track Peak [ CRC32 ] [W/O NULL] [ LOG ]
– 98,8 [25634602] [0791FFE2] CRC32
01 83,6 [6AA8CBF3] [E4E7AAFF]
02 89,7 [53BEB6C6] [78FD1B8A]
03 76,1 [0FAD3D35] [D2D1B127]
04 71,6 [80D310E9] [D0A89234]
05 78,9 [6A091AD1] [48C256FE]
06 94,2 [3F44D3FF] [41C4B1D6]
07 81,2 [07EB27E8] [DB5B4ED0]
08 92,7 [4F9780F1] [17FBB71A]
09 72,3 [E41F9A79] [FD492834]
10 84,8 [5E654E8F] [7BD7BEED]
11 98,8 [6F617281] [9C8344BB]
12 84,7 [B9455CD9] [0417DFCD]
13 78,5 [53B77620] [2BAD101A]
14 88,1 [530C61B7] [3FBA8F87]
15 81,1 [A9ABD3B5] [72069C85]
16 88,1 [03A985D8] [3B6501CE]
17 88,2 [97BBD9E7] [4B648C7C]
18 69,9 [FC859FA1] [DF884350]
19 90,1 [9FE37CD7] [F151D9FE]
20 96,1 [F6CE124C] [1CF3C538]
21 93,3 [00FB9790] [9F3B2849]
22 90,0 [CE74BBA9] [95952248]

Exact Audio Copy V0.99 prebeta 5 from 4. May 2009

Отчёт EAC об извлечении, выполненном 13. марта 2011, 15:56

Q65 / Singles A's & B's CD2

Дисковод: ASUS DRW-24B1ST Adapter: 4 ID: 0

Режим чтения : Достоверность
Использование точного потока : Да
Отключение кэша аудио : Да
Использование указателей C2 : Нет

Коррекция смещения при чтении : 6
Способность читать области Lead-in и Lead-out : Нет
Заполнение пропущенных сэмплов тишиной : Да
Удаление блоков с тишиной в начале и конце : Нет
При вычислениях CRC использовались нулевые сэмплы : Да
Интерфейс : Встроенный Win32-интерфейс для Win NT/2000

Выходной формат : Внутренние WAV-операции
Формат сэмплов : 44.100 Гц; 16 бит; стерео


TOC извлечённого CD

Трек | Старт | Длительность | Начальный сектор | Конечный сектор
––––––––––––––––––––––––––––––––––-
1 | 0:00.00 | 3:10.72 | 0 | 14321
2 | 3:10.72 | 2:16.23 | 14322 | 24544
3 | 5:27.20 | 2:36.12 | 24545 | 36256
4 | 8:03.32 | 3:08.03 | 36257 | 50359
5 | 11:11.35 | 2:46.60 | 50360 | 62869
6 | 13:58.20 | 2:35.25 | 62870 | 74519
7 | 16:33.45 | 2:20.09 | 74520 | 85028
8 | 18:53.54 | 4:22.31 | 85029 | 104709
9 | 23:16.10 | 2:57.35 | 104710 | 118019
10 | 26:13.45 | 3:26.40 | 118020 | 133509
11 | 29:40.10 | 2:59.15 | 133510 | 146949
12 | 32:39.25 | 2:46.09 | 146950 | 159408
13 | 35:25.34 | 8:03.00 | 159409 | 195633
14 | 43:28.34 | 2:54.31 | 195634 | 208714
15 | 46:22.65 | 2:56.67 | 208715 | 221981
16 | 49:19.57 | 3:34.38 | 221982 | 238069
17 | 52:54.20 | 2:34.22 | 238070 | 249641
18 | 55:28.42 | 2:47.58 | 249642 | 262224
19 | 58:16.25 | 5:53.15 | 262225 | 288714
20 | 64:09.40 | 3:14.17 | 288715 | 303281
21 | 67:23.57 | 2:35.58 | 303282 | 314964
22 | 69:59.40 | 2:54.29 | 314965 | 328043


Характеристики диапазона извлечения и сообщения об ошибках

Выбранный диапазон

Имя файла D:\01 - Торрент НЕ ТРОГАТЬ\02 - мои Раздачи\2011\03 - March\06 - Q65\CD 2\Q65 - Singles A's & B's CD2.wav

Пиковый уровень 98.8 %
Качество диапазона 99.9 %
CRC копии 169876A2
Копирование… OK

Ошибок не произошло


AccurateRip: сводка

Трек 1 точность не определена (достоверность 1) [41030976], AccurateRip вернул [F20DCC14]
Трек 2 точность не определена (достоверность 1) [26428E1E], AccurateRip вернул [F215B674]
Трек 3 точность не определена (достоверность 1) [1C30DED1], AccurateRip вернул [53703BF3]
Трек 4 точность не определена (достоверность 1) [E54E4FB8], AccurateRip вернул [D72C2865]
Трек 5 точность не определена (достоверность 1) [8F75F736], AccurateRip вернул [195BED32]
Трек 6 точность не определена (достоверность 1) [4246548E], AccurateRip вернул [685DE2E8]
Трек 7 точность не определена (достоверность 1) [0FC795A1], AccurateRip вернул [388098D4]
Трек 8 точность не определена (достоверность 1) [A82E7D25], AccurateRip вернул [95251408]
Трек 9 точность не определена (достоверность 1) [078CD71B], AccurateRip вернул [9C0CC4FE]
Трек 10 точность не определена (достоверность 1) [9A946D75], AccurateRip вернул [4F5C9E32]
Трек 11 точность не определена (достоверность 1) [FBF8EA45], AccurateRip вернул [034FD3C4]
Трек 12 точность не определена (достоверность 1) [53B0242F], AccurateRip вернул [0EB40A94]
Трек 13 точность не определена (достоверность 1) [C1420A0B], AccurateRip вернул [629F9E6C]
Трек 14 точность не определена (достоверность 1) [B42F18D6], AccurateRip вернул [A4A412FF]
Трек 15 точность не определена (достоверность 1) [A13B16B0], AccurateRip вернул [75CF5E67]
Трек 16 точность не определена (достоверность 1) [35720D9A], AccurateRip вернул [7E4423F8]
Трек 17 точность не определена (достоверность 1) [D407D37D], AccurateRip вернул [644B68DD]
Трек 18 точность не определена (достоверность 1) [C5F45022], AccurateRip вернул [2508B975]
Трек 19 точность не определена (достоверность 1) [9D212964], AccurateRip вернул [7D86B285]
Трек 20 точность не определена (достоверность 1) [A21DFB8A], AccurateRip вернул [89DEE44C]
Трек 21 точность не определена (достоверность 1) [163DD5C7], AccurateRip вернул [42DBDDE9]
Трек 22 точность не определена (достоверность 1) [AE44AD5C], AccurateRip вернул [0954362A]

Ни один трек не прошёл проверки на точность
В вашей базе может быть иной вариант штамповки диска

Конец отчёта

[CUETools log; Date: 20.09.2021 19:08:11; Version: 2.1.4]
[CTDB TOCID: 0cGxpdLX4meu_0a0zpFipiNkwbQ-] found.
Track | CTDB Status
1 | (4/4) Accurately ripped
2 | (4/4) Accurately ripped
3 | (4/4) Accurately ripped
4 | (4/4) Accurately ripped
5 | (4/4) Accurately ripped
6 | (4/4) Accurately ripped
7 | (4/4) Accurately ripped
8 | (4/4) Accurately ripped
9 | (4/4) Accurately ripped
10 | (4/4) Accurately ripped
11 | (4/4) Accurately ripped
12 | (4/4) Accurately ripped
13 | (4/4) Accurately ripped
14 | (4/4) Accurately ripped
15 | (4/4) Accurately ripped
16 | (4/4) Accurately ripped
17 | (4/4) Accurately ripped
18 | (4/4) Accurately ripped
19 | (4/4) Accurately ripped
20 | (4/4) Accurately ripped
21 | (4/4) Accurately ripped
22 | (4/4) Accurately ripped
[AccurateRip ID: 00374390-03854a23-48111516] found.
Track [ CRC | V2 ] Status
01 [41030976|e343d2ee] (0+2/2) Accurately ripped
02 [26428e1e|8679e05a] (0+2/2) Accurately ripped
03 [1c30ded1|cc44c6b1] (0+2/2) Accurately ripped
04 [e54e4fb8|2f43234c] (0+2/2) Accurately ripped
05 [8f75f736|076d1a39] (0+2/2) Accurately ripped
06 [4246548e|285620fc] (0+2/2) Accurately ripped
07 [0fc795a1|4225f09c] (0+2/2) Accurately ripped
08 [a82e7d25|9f8275a9] (0+2/2) Accurately ripped
09 [078cd71b|7e17de62] (0+2/2) Accurately ripped
10 [9a946d75|edfe4474] (0+2/2) Accurately ripped
11 [fbf8ea45|d4b2b8b3] (0+2/2) Accurately ripped
12 [53b0242f|64d70797] (0+2/2) Accurately ripped
13 [c1420a0b|f2d78531] (0+2/2) Accurately ripped
14 [b42f18d6|c4bb387a] (0+2/2) Accurately ripped
15 [a13b16b0|31cd1252] (0+2/2) Accurately ripped
16 [35720d9a|453d80d7] (0+2/2) Accurately ripped
17 [d407d37d|1bf307d3] (0+2/2) Accurately ripped
18 [c5f45022|cdc6e169] (1+1/3) Accurately ripped
19 [9d212964|a4231fc8] (1+1/3) Accurately ripped
20 [a21dfb8a|3d970b88] (1+1/3) Accurately ripped
21 [163dd5c7|0ae0122f] (1+1/3) Accurately ripped
22 [ae44ad5c|de8adb49] (1+1/3) Accurately ripped
Offsetted by -593:
01 [f20dcc14] (0/2) No match
02 [f215b674] (0/2) No match
03 [53703bf3] (0/2) No match
04 [d72c2865] (0/2) No match
05 [195bed32] (0/2) No match
06 [685de2e8] (0/2) No match
07 [388098d4] (0/2) No match
08 [95251408] (0/2) No match
09 [9c0cc4fe] (0/2) No match
10 [4f5c9e32] (0/2) No match
11 [034fd3c4] (0/2) No match
12 [0eb40a94] (0/2) No match
13 [629f9e6c] (0/2) No match
14 [a4a412ff] (0/2) No match
15 [75cf5e67] (0/2) No match
16 [7e4423f8] (0/2) No match
17 [644b68dd] (0/2) No match
18 [2508b975] (1/3) Accurately ripped
19 [7d86b285] (1/3) Accurately ripped
20 [89dee44c] (1/3) Accurately ripped
21 [42dbdde9] (1/3) Accurately ripped
22 [0954362a] (1/3) Accurately ripped

Track Peak [ CRC32 ] [W/O NULL] [ LOG ]
– 98,8 [169876A2] [ECC2DC8E] CRC32
01 81,9 [A63F240F] [0D657199]
02 88,8 [32DDEF62] [123D6320]
03 66,4 [87B239FC] [F97678A6]
04 76,7 [40C2EA09] [68048FBE]
05 83,4 [03818882] [F5CCBDF3]
06 86,3 [58468B22] [0A42FC51]
07 67,5 [80B62910] [8760DA44]
08 89,1 [F686639E] [8FAB7F81]
09 56,5 [05A12091] [97946F6A]
10 84,2 [0A1FA0CA] [789F8DA4]
11 84,5 [0BD03DD8] [59923407]
12 98,2 [FEDAB853] [8A720C6B]
13 98,3 [1DBF8C71] [4E5E902B]
14 89,4 [D362BF48] [BAD6B047]
15 80,1 [1D8C8A52] [B43DBB0D]
16 85,7 [6B56465D] [7C0E2A44]
17 69,9 [6A1949B9] [03B71D31]
18 98,8 [516EB7F6] [370C77B9]
19 72,7 [0692F24F] [9988B3E6]
20 90,0 [E25D7210] [B06B4C26]
21 83,7 [63F83A26] [69EE8F00]
22 93,3 [A51DFC42] [F3892D67]

Thanks to miklespr