Tags
Language
Tags

Queen - Greatest Hits (1981) {2019, MQA-CD x UHQCD, Remastered, Japan}

Posted By: popsakov
Queen - Greatest Hits (1981) {2019, MQA-CD x UHQCD, Remastered, Japan}

Queen - Greatest Hits (1981) {2019, MQA-CD x UHQCD, Remastered, Japan}
EAC Rip | FLAC (Img) + Cue + Log ~ 464 Mb | MP3 CBR320 ~ 186 Mb
Full Scans | 01:03:17 | RAR 5% Recovery
Hard Rock / Arena Rock / Art Rock / Classic Rock
Island Records / Universal Music #UICY-40258

Greatest Hits is a compilation album by the British rock band Queen, released worldwide on 26 October 1981. The album consisted of Queen's biggest hits since their first chart appearance in 1974 with "Seven Seas of Rhye", up to their 1980 hit "Flash" (though in some countries "Under Pressure", the band's 1981 chart-topper with David Bowie, was included). There was no universal track listing or cover art for the album, and each territory's tracks were dependent on what singles had been released there and which were successful.

Greatest Hits was a commercial success worldwide. It received further boosts in sales following the death of Queen's lead singer Freddie Mercury in 1991, and the release of the biographical film Bohemian Rhapsody in 2018. In the UK the album spent four weeks at number one on the UK Albums Chart and sold consistently well throughout the 1980s, becoming the fourth-biggest selling album of the decade. As of February 2019 Greatest Hits has spent 861 weeks on the UK Albums Chart, has been certified twenty times platinum, and is the best-selling album of all time in the UK, with sales of over six million copies. It has been certified eight times platinum in the US, three times platinum in Canada, fifteen times platinum in Australia, and ten times platinum in New Zealand, and in total has sold more than 25 million copies worldwide, making it one of the best-selling albums of all time.

***************

Queen - Greatest Hits (1981) {2019, MQA-CD x UHQCD, Remastered, Japan}

Track List:

01. Bohemian Rhapsody [5:55]
02. Another One Bites The Dust [3:35]
03. Killer Queen [3:01]
04. Fat Bottomed Girls [3:23]
05. Bicycle Race [3:01]
06. You're My Best Friend [2:53]
07. Don't Stop Me Now [3:30]
08. Save Me [3:48]
09. Crazy Little Thing Called Love [2:45]
10. Somebody To Love [4:57]
11. Now I'm Here [4:15]
12. Good Old-Fashioned Lover Boy [2:53]
13. Play The Game [3:34]
14. Flash [2:49]
15. Seven Seas Of Rhye [2:48]
16. We Will Rock You [2:02]
17. We Are The Champions [3:03]
18. Teo Torriatte (Let's Us Cling Together) (Bonus Track) [5:05]

Exact Audio Copy V1.1 from 23. June 2015

EAC extraction logfile from 31. March 2019, 0:16

Queen / Greatest Hits (UICY-40258)

Used drive : TSSTcorpDVDWBD SH-B123L Adapter: 0 ID: 4

Read mode : Secure
Utilize accurate stream : Yes
Defeat audio cache : Yes
Make use of C2 pointers : No

Read offset correction : 6
Overread into Lead-In and Lead-Out : No
Fill up missing offset samples with silence : Yes
Delete leading and trailing silent blocks : No
Null samples used in CRC calculations : Yes
Used interface : Installed external ASPI interface

Used output format : User Defined Encoder
Selected bitrate : 768 kBit/s
Quality : High
Add ID3 tag : No
Command line compressor : C:\Program Files (x86)\Exact Audio Copy\FLAC\FLAC.EXE
Additional command line options : -6 -V -T "ARTIST=%artist%" -T "TITLE=%title%" -T "ALBUM=%albumtitle%" -T "DATE=%year%" -T "TRACKNUMBER=%tracknr%" -T "GENRE=%genre%" -T "COMMENT=%comment%" -T "BAND=%albuminterpret%" -T "ALBUMARTIST=%albuminterpret%" -T "COMPOSER=%composer%" %haslyrics%–tag-from-file=LYRICS="%lyricsfile%"%haslyrics% -T "DISCNUMBER=%cdnumber%" -T "TOTALDISCS=%totalcds%" -T "TOTALTRACKS=%numtracks%" %hascover%–picture="%coverfile%"%hascover% %source% -o %dest%


TOC of the extracted CD

Track | Start | Length | Start sector | End sector
––––––––––––––––––––––––––––-
1 | 0:00.00 | 5:55.11 | 0 | 26635
2 | 5:55.11 | 3:35.26 | 26636 | 42786
3 | 9:30.37 | 3:01.01 | 42787 | 56362
4 | 12:31.38 | 3:23.16 | 56363 | 71603
5 | 15:54.54 | 3:01.16 | 71604 | 85194
6 | 18:55.70 | 2:52.69 | 85195 | 98163
7 | 21:48.64 | 3:30.24 | 98164 | 113937
8 | 25:19.13 | 3:48.02 | 113938 | 131039
9 | 29:07.15 | 2:44.67 | 131040 | 143406
10 | 31:52.07 | 4:57.02 | 143407 | 165683
11 | 36:49.09 | 4:14.69 | 165684 | 184802
12 | 41:04.03 | 2:52.74 | 184803 | 197776
13 | 43:57.02 | 3:33.41 | 197777 | 213792
14 | 47:30.43 | 2:48.40 | 213793 | 226432
15 | 50:19.08 | 2:47.40 | 226433 | 238997
16 | 53:06.48 | 2:02.10 | 238998 | 248157
17 | 55:08.58 | 3:03.15 | 248158 | 261897
18 | 58:11.73 | 5:05.31 | 261898 | 284803


Range status and errors

Selected range

Filename E:\MUSIC\Queen - Greatest Hits (UICY-40258).wav

Peak level 100.0 %
Extraction speed 3.6 X
Range quality 100.0 %
Test CRC 9A2A1A09
Copy CRC 9A2A1A09
Copy OK

No errors occurred


AccurateRip summary

Track 1 not present in database
Track 2 not present in database
Track 3 not present in database
Track 4 not present in database
Track 5 not present in database
Track 6 not present in database
Track 7 not present in database
Track 8 not present in database
Track 9 not present in database
Track 10 not present in database
Track 11 not present in database
Track 12 not present in database
Track 13 not present in database
Track 14 not present in database
Track 15 not present in database
Track 16 not present in database
Track 17 not present in database
Track 18 not present in database

None of the tracks are present in the AccurateRip database

End of status report

==== Log checksum 792A31EC7EB3A9ED73ACB3476615976D617B5A5D8032B321057AE4448C616CE4 ====

Queen - Greatest Hits (1981) {2019, MQA-CD x UHQCD, Remastered, Japan}


All thanks go to RD

>>> Queen in my Blog <<<

DOWNLOAD: