Subcategories

Queen ‎- MTV History 2000: The Greatest Hits I-IV (1999)

Posted By: v3122
Queen ‎- MTV History 2000: The Greatest Hits I-IV (1999)

John Hackett - Another Life (2015)
EAC | Flac(Image) + Cue + Log & MP3 CBR 320Kbps
Esoteric Antenna, EANT21038 | ~ 297 or 115 Mb | Scans(png) -> 258 Mb
Progressive Rock

Queen is a British rock band formed in London in 1971.
The band has released a total of 18 number one albums, 18 number one singles and 10 number one DVDs, and have sold over 300 million albums worldwide, making them one of the world's best-selling music artists. They have been honoured with seven Ivor Novello awards and were inducted into the Rock and Roll Hall of Fame in 2001.

Lead singer Freddie Mercury died in November 1991 of AIDS-related complications. A year after his death, Queen reformed and did tribute concert for the lead singer to commemorate his life.

~ discogs
Queen ‎- MTV History 2000: The Greatest Hits I-IV (1999)


Queen ‎- MTV History 2000: The Greatest Hits I-IV (1999):

Queen ‎- MTV History 2000: The Greatest Hits I-IV (1999)

Tracklist CD1 - The Greatest Hits I:

01. Bohemian Rhapsody [5:57]
02. Killer Queen [3:02]
03. Another One Bites The Dust [3:36]
04. Fat Bottomed Girls [3:24]
05. Somebody To Love [4:59]
06. White Queen [4:35]
07. Bicycle Race [3:03]
08. You're My Best Friends [2:54]
09. Don't Stop Me Now [3:33]
10. All Dead All Dead [3:10]
11. Living On My Own [3:39]
12. Save Me [3:49]
13. No One But You [4:08]
14. Jesus [3:47]
15. Headlong [4:35]
16. Who Wants To Live Forever [4:56]
17. Baby I Don't Care [1:36]
18. Love Of My Life [3:36]
19. Thank God It's Christmas [4:19]
20. Barcelona [5:37]

Exact Audio Copy V1.3 from 2. September 2016

EAC extraction logfile from 25. February 2017, 9:38

QUEEN / MTV History 2000 (The Greatest Hits 1) (Russia, Halahup, HAL-002-1)

Used drive : ASUS DRW-24B3ST Adapter: 1 ID: 1

Read mode : Secure
Utilize accurate stream : Yes
Defeat audio cache : Yes
Make use of C2 pointers : No

Read offset correction : 6
Overread into Lead-In and Lead-Out : No
Fill up missing offset samples with silence : Yes
Delete leading and trailing silent blocks : No
Null samples used in CRC calculations : Yes
Used interface : Native Win32 interface for Win NT & 2000

Used output format : User Defined Encoder
Selected bitrate : 1024 kBit/s
Quality : High
Add ID3 tag : No
Command line compressor : C:\Program Files\EAC(v.1.3)\WV\wavpack.exe
Additional command line options : -h -hh -m %source%


TOC of the extracted CD

Track | Start | Length | Start sector | End sector
––––––––––––––––––––––––––––-
1 | 0:00.00 | 5:56.62 | 0 | 26761
2 | 5:56.62 | 3:01.63 | 26762 | 40399
3 | 8:58.50 | 3:36.23 | 40400 | 56622
4 | 12:34.73 | 3:23.59 | 56623 | 71906
5 | 15:58.57 | 4:59.37 | 71907 | 94368
6 | 20:58.19 | 4:34.62 | 94369 | 114980
7 | 25:33.06 | 3:03.26 | 114981 | 128731
8 | 28:36.32 | 2:53.67 | 128732 | 141773
9 | 31:30.24 | 3:32.54 | 141774 | 157727
10 | 35:03.03 | 3:09.59 | 157728 | 171961
11 | 38:12.62 | 3:38.60 | 171962 | 188371
12 | 41:51.47 | 3:48.64 | 188372 | 205535
13 | 45:40.36 | 4:08.15 | 205536 | 224150
14 | 49:48.51 | 3:47.21 | 224151 | 241196
15 | 53:35.72 | 4:34.59 | 241197 | 261805
16 | 58:10.56 | 4:56.25 | 261806 | 284030
17 | 63:07.06 | 1:35.50 | 284031 | 291205
18 | 64:42.56 | 3:36.23 | 291206 | 307428
19 | 68:19.04 | 4:19.31 | 307429 | 326884
20 | 72:38.35 | 5:37.36 | 326885 | 352195


Range status and errors

Selected range

Filename F:\QUEEN - The Greatest Hits I-IV (RU 4 x CD 1999 Halahup Music GmbH • HAL-002~3)\QUEEN - MTV History 2000 … (Russia, Halahup, HAL-002-1).wav

Peak level 100.0 %
Extraction speed 8.5 X
Range quality 100.0 %
Test CRC D95CA04A
Copy CRC D95CA04A
Copy OK

No errors occurred


AccurateRip summary

Track 1 cannot be verified as accurate (confidence 3) [51D89BF7], AccurateRip returned [4F96A83A] (AR v2)
Track 2 cannot be verified as accurate (confidence 3) [6AA859A5], AccurateRip returned [3F47FD35] (AR v2)
Track 3 cannot be verified as accurate (confidence 3) [3F2D1102], AccurateRip returned [1188FBFB] (AR v2)
Track 4 cannot be verified as accurate (confidence 3) [197EF0B5], AccurateRip returned [3E8243CF] (AR v2)
Track 5 cannot be verified as accurate (confidence 3) [4A915C65], AccurateRip returned [7DAC8CE4] (AR v2)
Track 6 cannot be verified as accurate (confidence 3) [AC700327], AccurateRip returned [9CA15274] (AR v2)
Track 7 cannot be verified as accurate (confidence 3) [9E9CF0BD], AccurateRip returned [EF4AEE01] (AR v2)
Track 8 cannot be verified as accurate (confidence 3) [677BF3E7], AccurateRip returned [6E081B50] (AR v2)
Track 9 cannot be verified as accurate (confidence 3) [A4AD2E32], AccurateRip returned [233B42BD] (AR v2)
Track 10 cannot be verified as accurate (confidence 3) [E6F878F3], AccurateRip returned [6B51707D] (AR v2)
Track 11 cannot be verified as accurate (confidence 3) [3EDCF768], AccurateRip returned [CA57E1D0] (AR v2)
Track 12 cannot be verified as accurate (confidence 3) [9F95E108], AccurateRip returned [1913375E] (AR v2)
Track 13 cannot be verified as accurate (confidence 3) [57826BB3], AccurateRip returned [480E7AC8] (AR v2)
Track 14 cannot be verified as accurate (confidence 3) [D9E45A4B], AccurateRip returned [3A6D1F24] (AR v2)
Track 15 cannot be verified as accurate (confidence 3) [F59B7E34], AccurateRip returned [0BF1E69F] (AR v2)
Track 16 cannot be verified as accurate (confidence 3) [1AA3A8C4], AccurateRip returned [329E6CCF] (AR v2)
Track 17 cannot be verified as accurate (confidence 3) [55E97185], AccurateRip returned [3C30FD28] (AR v2)
Track 18 cannot be verified as accurate (confidence 3) [E1548E92], AccurateRip returned [249681D6] (AR v2)
Track 19 cannot be verified as accurate (confidence 3) [331219AF], AccurateRip returned [EA4513A1] (AR v2)
Track 20 cannot be verified as accurate (confidence 3) [E4F873AD], AccurateRip returned [DD997F57] (AR v2)

No tracks could be verified as accurate
You may have a different pressing from the one(s) in the database

End of status report

==== Log checksum 65479CEA7660040303D2575002C1D8C25CD9A2A9525840551DDA586B21468781 ====

foobar2000 1.2.9 / Dynamic Range Meter 1.1.1
log date: 2017-02-26 16:28:25

––––––––––––––––––––––––––––––––––––––––
Analyzed: QUEEN / MTV History 2000 (The Greatest Hits 1) (Russia, Halahup, HAL-002-1)
––––––––––––––––––––––––––––––––––––––––

DR Peak RMS Duration Track
––––––––––––––––––––––––––––––––––––––––
DR11 -0.20 dB -16.24 dB 5:57 01-Bohemian Rhapsody
DR11 -0.20 dB -13.86 dB 3:02 02-Killer Queen
DR14 -0.20 dB -16.02 dB 3:36 03-Another One Bites The Dust
DR12 -0.20 dB -15.71 dB 3:24 04-Fat Bottomed Girls
DR10 -0.20 dB -13.42 dB 4:59 05-Somebody To Love
DR11 -3.31 dB -18.41 dB 4:35 06-White Queen
DR9 -0.20 dB -11.54 dB 3:03 07-Bicycle Race
DR11 -0.20 dB -13.23 dB 2:54 08-You're My Best Friends
DR9 -0.20 dB -11.52 dB 3:33 09-Don't Stop Me Now
DR11 -1.28 dB -18.77 dB 3:10 10-All Dead All Dead
DR10 -0.48 dB -11.28 dB 3:39 11-Living On My Own
DR10 -0.58 dB -14.61 dB 3:49 12-Save Me
DR7 -2.57 dB -12.21 dB 4:08 13-No One But You
DR12 -0.28 dB -14.49 dB 3:47 14-Jesus
DR14 0.00 dB -15.87 dB 4:35 15-Headlong
DR13 -0.53 dB -19.20 dB 4:56 16-Who Wants To Live Forever
DR10 -3.10 dB -15.83 dB 1:36 17-Baby I Don't Care
DR10 -1.82 dB -15.57 dB 3:36 18-Love Of My Life
DR8 -1.33 dB -11.81 dB 4:19 19-Thank God It's Christmas
DR9 -0.07 dB -13.07 dB 5:37 20-Barcelona
––––––––––––––––––––––––––––––––––––––––

Number of tracks: 20
Official DR value: DR11

Samplerate: 44100 Hz
Channels: 2
Bits per sample: 16
Bitrate: 832 kbps
Codec: FLAC

[CUETools log; Date: 26.02.2017 16:28:11; Version: 2.1.4]
[CTDB TOCID: NFaHZBPmCU7O4iDp6F1vbXX9VEU-] found.
Track | CTDB Status
1 | (6/8) Accurately ripped
2 | (6/8) Accurately ripped
3 | (8/8) Accurately ripped
4 | (8/8) Accurately ripped
5 | (8/8) Accurately ripped
6 | (8/8) Accurately ripped
7 | (8/8) Accurately ripped
8 | (8/8) Accurately ripped
9 | (8/8) Accurately ripped
10 | (8/8) Accurately ripped
11 | (8/8) Accurately ripped
12 | (8/8) Accurately ripped
13 | (2/8) Accurately ripped, or (4/8) differs in 121 samples @01:56:18-01:56:19,01:56:74-01:57:00,03:05:49-03:05:50,03:07:49-03:07:50
14 | (6/8) Accurately ripped
15 | (8/8) Accurately ripped
16 | (8/8) Accurately ripped
17 | (8/8) Accurately ripped
18 | (8/8) Accurately ripped
19 | (6/8) Accurately ripped
20 | (6/8) Accurately ripped
[AccurateRip ID: 0038466f-033250bc-24125714] found.
Track [ CRC | V2 ] Status
01 [680680c5|51d89bf7] (0+0/3) No match
02 [35a92d0c|6aa859a5] (0+0/3) No match
03 [c9a38b73|3f2d1102] (0+0/3) No match
04 [dba6e873|197ef0b5] (0+0/3) No match
05 [eb5a0311|4a915c65] (0+0/3) No match
06 [155d16f7|ac700327] (0+0/3) No match
07 [3e16cf31|9e9cf0bd] (0+0/3) No match
08 [5fc29990|677bf3e7] (0+0/3) No match
09 [7d43d96c|a4ad2e32] (0+0/3) No match
10 [2b8a560e|e6f878f3] (0+0/3) No match
11 [9306eb35|3edcf768] (0+0/3) No match
12 [91c48e51|9f95e108] (0+0/3) No match
13 [dd015ff3|57826bb3] (0+0/3) No match
14 [cdefdd5a|d9e45a4b] (0+0/3) No match
15 [4b9a5d37|f59b7e34] (0+0/3) No match
16 [6cee209a|1aa3a8c4] (0+0/3) No match
17 [941d1bec|55e97185] (0+0/3) No match
18 [f5bacbf9|e1548e92] (0+0/3) No match
19 [3308ebb9|331219af] (0+0/3) No match
20 [058ec0ee|e4f873ad] (0+0/3) No match
Offsetted by -2016:
01 [b541c9a5] (0/3) No match (V2 was not tested)
02 [29da6a2c] (0/3) No match (V2 was not tested)
03 [2971cf93] (0/3) No match (V2 was not tested)
04 [e9c476f3] (0/3) No match (V2 was not tested)
05 [092661f1] (0/3) No match (V2 was not tested)
06 [224de337] (0/3) No match (V2 was not tested)
07 [b3e482b1] (0/3) No match (V2 was not tested)
08 [9e7a36f0] (0/3) No match (V2 was not tested)
09 [da3de5ec] (0/3) No match (V2 was not tested)
10 [b869feee] (0/3) No match (V2 was not tested)
11 [e50ab1f5] (0/3) No match (V2 was not tested)
12 [ae1762d1] (0/3) No match (V2 was not tested)
13 [34b837f3] (0/3) No match (V2 was not tested)
14 [d74545ba] (0/3) No match (V2 was not tested)
15 [81b7b057] (0/3) No match (V2 was not tested)
16 [5edcf41a] (0/3) No match (V2 was not tested)
17 [82aaeacc] (0/3) No match (V2 was not tested)
18 [fd0a0939] (0/3) No match (V2 was not tested)
19 [3eade959] (0/3) No match (V2 was not tested)
20 [767ed16e] (0/3) No match (V2 was not tested)

Track Peak [ CRC32 ] [W/O NULL] [ LOG ]
– 100,0 [D95CA04A] [761DA660] CRC32
01 97,7 [95682AA9] [40CB2A3E]
02 97,7 [63A8060B] [54C44059]
03 97,7 [33563A91] [ECC66DE4]
04 97,7 [AE10648C] [16F782A8]
05 97,6 [FD2FBEDB] [A28B50D2]
06 68,3 [D78F53FD] [810EEE43]
07 97,7 [BB971F78] [9E64A915]
08 97,7 [D8CF5D88] [97B00F02]
09 97,7 [C86080FB] [7D8C9256]
10 86,3 [4B8E2B3C] [E73189F8]
11 94,6 [A2ECB7B6] [D85B34EB]
12 93,5 [77CF035E] [F17665D8]
13 74,4 [36EEEB33] [B41233C0]
14 96,8 [D0358AEF] [F54D66B6]
15 100,0 [7631118A] [17447F5A]
16 94,0 [230146C5] [DCEC5565]
17 69,9 [B06C090E] [63F10CE1]
18 81,1 [DC8F8B0B] [77E75F0B]
19 85,7 [080F013C] [3FB3BC2F]
20 99,1 [8865346D] [0137EEEC]

Queen ‎- MTV History 2000: The Greatest Hits I-IV (1999)

Tracklist CD2 - The Greatest Hits II:

01. Radio Ga Ga [5:46]
02. A Kind Of Magik [4:24]
03. We Are The Champions [3:03]
04. Under Pressure [3:59]
05. I Want It All [4:04]
06. It's A Hard Life [4:11]
07. Mustapha [3:03]
08. Heaven For Everyone [5:40]
09. Tutti Frutti [2:56]
10. Your Kind Of Lover [4:01]
11. Flash [2:50]
12. Love Kills [4:32]
13. '39 [3:34]
14. Spread Your Wings [4:34]
15. Seven Seas Of Rhye [2:52]
16. Hallo Mary Lou [1:42]
17. Let's Turn It On [3:48]
18. My Fairy King [4:10]
19. Newer More [1:20]
20. Life Is Real (song for Lennon) [3:28]

Exact Audio Copy V1.3 from 2. September 2016

EAC extraction logfile from 25. February 2017, 10:28

QUEEN / MTV History 2000 (The Greatest Hits 2) (Russia, Halahup, HAL-002-2)

Used drive : ASUS DRW-24B3ST Adapter: 1 ID: 1

Read mode : Secure
Utilize accurate stream : Yes
Defeat audio cache : Yes
Make use of C2 pointers : No

Read offset correction : 6
Overread into Lead-In and Lead-Out : No
Fill up missing offset samples with silence : Yes
Delete leading and trailing silent blocks : No
Null samples used in CRC calculations : Yes
Used interface : Native Win32 interface for Win NT & 2000

Used output format : User Defined Encoder
Selected bitrate : 1024 kBit/s
Quality : High
Add ID3 tag : No
Command line compressor : C:\Program Files\EAC(v.1.3)\WV\wavpack.exe
Additional command line options : -h -hh -m %source%


TOC of the extracted CD

Track | Start | Length | Start sector | End sector
––––––––––––––––––––––––––––-
1 | 0:00.00 | 5:45.47 | 0 | 25921
2 | 5:45.47 | 4:23.67 | 25922 | 45713
3 | 10:09.39 | 3:03.32 | 45714 | 59470
4 | 13:12.71 | 3:58.50 | 59471 | 77370
5 | 17:11.46 | 4:03.69 | 77371 | 95664
6 | 21:15.40 | 4:11.27 | 95665 | 114516
7 | 25:26.67 | 3:03.27 | 114517 | 128268
8 | 28:30.19 | 5:40.32 | 128269 | 153800
9 | 34:10.51 | 2:55.48 | 153801 | 166973
10 | 37:06.24 | 4:01.34 | 166974 | 185082
11 | 41:07.58 | 2:50.34 | 185083 | 197866
12 | 43:58.17 | 4:31.47 | 197867 | 218238
13 | 48:29.64 | 3:34.15 | 218239 | 234303
14 | 52:04.04 | 4:33.67 | 234304 | 254845
15 | 56:37.71 | 2:52.37 | 254846 | 267782
16 | 59:30.33 | 1:41.51 | 267783 | 275408
17 | 61:12.09 | 3:48.35 | 275409 | 292543
18 | 65:00.44 | 4:10.22 | 292544 | 311315
19 | 69:10.66 | 1:19.47 | 311316 | 317287
20 | 70:30.38 | 3:28.01 | 317288 | 332888


Range status and errors

Selected range

Filename F:\QUEEN - The Greatest Hits I-IV (RU 4 x CD 1999 Halahup Music GmbH • HAL-002~3)\QUEEN - MTV History 2000 … (Russia, Halahup, HAL-002-2).wav

Peak level 100.0 %
Extraction speed 8.2 X
Range quality 99.9 %
Test CRC 534BC0FC
Copy CRC 534BC0FC
Copy OK

No errors occurred


AccurateRip summary

Track 1 cannot be verified as accurate (confidence 2) [C96DC337], AccurateRip returned [43B35D6A] (AR v2)
Track 2 cannot be verified as accurate (confidence 2) [8721EC43], AccurateRip returned [C2DD47D3] (AR v2)
Track 3 cannot be verified as accurate (confidence 2) [1DD563D4], AccurateRip returned [257F675A] (AR v2)
Track 4 cannot be verified as accurate (confidence 2) [C5AA6758], AccurateRip returned [4330CEAE] (AR v2)
Track 5 cannot be verified as accurate (confidence 2) [28530674], AccurateRip returned [E48F9478] (AR v2)
Track 6 cannot be verified as accurate (confidence 2) [7A289E1E], AccurateRip returned [D555A3C4] (AR v2)
Track 7 cannot be verified as accurate (confidence 2) [48797491], AccurateRip returned [58CF648E] (AR v2)
Track 8 cannot be verified as accurate (confidence 2) [2792C409], AccurateRip returned [BEAF34DE] (AR v2)
Track 9 cannot be verified as accurate (confidence 2) [82EBD0CE], AccurateRip returned [433CBFFF] (AR v2)
Track 10 cannot be verified as accurate (confidence 2) [C747DEA3], AccurateRip returned [C93DAEDF] (AR v2)
Track 11 cannot be verified as accurate (confidence 2) [6AB5AFC1], AccurateRip returned [A4913B96] (AR v2)
Track 12 cannot be verified as accurate (confidence 2) [53E5449A], AccurateRip returned [126F8236] (AR v2)
Track 13 cannot be verified as accurate (confidence 2) [FD200B33], AccurateRip returned [F7D9FBBD] (AR v2)
Track 14 cannot be verified as accurate (confidence 2) [D138DB44], AccurateRip returned [19B332CD] (AR v2)
Track 15 cannot be verified as accurate (confidence 2) [33B345E5], AccurateRip returned [1EABC032] (AR v2)
Track 16 cannot be verified as accurate (confidence 2) [508E7C9B], AccurateRip returned [6F975888] (AR v2)
Track 17 cannot be verified as accurate (confidence 2) [D0159D7B], AccurateRip returned [0C60F2B3] (AR v2)
Track 18 cannot be verified as accurate (confidence 2) [AA72FC0D], AccurateRip returned [CB1A6823] (AR v2)
Track 19 cannot be verified as accurate (confidence 2) [F0959518], AccurateRip returned [51809A79] (AR v2)
Track 20 cannot be verified as accurate (confidence 1) [04DEFAAB], AccurateRip returned [E25AF83C] (AR v2)

No tracks could be verified as accurate
You may have a different pressing from the one(s) in the database

End of status report

==== Log checksum 39AE7A6A7CAB64ACD1D4671A23BB5EAEF4483758A807A4A2937A20F3DE3E8FB2 ====

foobar2000 1.2.9 / Dynamic Range Meter 1.1.1
log date: 2017-02-26 16:28:57

––––––––––––––––––––––––––––––––––––––––
Analyzed: QUEEN / MTV History 2000 (The Greatest Hits 2) (Russia, Halahup, HAL-002-2)
––––––––––––––––––––––––––––––––––––––––

DR Peak RMS Duration Track
––––––––––––––––––––––––––––––––––––––––
DR12 0.00 dB -16.43 dB 5:46 01-Radio Ga Ga
DR16 0.00 dB -17.99 dB 4:24 02-A Kind Of Magik
DR7 -0.20 dB -11.17 dB 3:03 03-We Are The Champions
DR11 -0.94 dB -16.46 dB 3:59 04-Under Pressure
DR12 0.00 dB -13.99 dB 4:04 05-I Want It All
DR11 -1.57 dB -15.37 dB 4:11 06-It's A Hard Life
DR12 -0.13 dB -17.46 dB 3:03 07-Mustapha
DR9 -2.12 dB -15.17 dB 5:40 08-Heaven For Everyone
DR9 -3.64 dB -13.89 dB 2:56 09-Tutti Frutti
DR10 -0.19 dB -13.21 dB 4:01 10-Your Kind Of Lover
DR11 -0.66 dB -15.37 dB 2:50 11-Flash
DR12 -0.01 dB -15.23 dB 4:32 12-Love Kills
DR11 0.00 dB -14.93 dB 3:34 13-'39
DR12 0.00 dB -15.00 dB 4:34 14-Spread Your Wings
DR11 -0.21 dB -14.01 dB 2:52 15-Seven Seas Of Rhye
DR10 -3.39 dB -15.92 dB 1:42 16-Hallo Mary Lou
DR10 -0.45 dB -11.22 dB 3:48 17-Let's Turn It On
DR11 -1.16 dB -16.05 dB 4:10 18-My Fairy King
DR11 -4.97 dB -18.97 dB 1:20 19-Newer More
DR12 0.00 dB -15.99 dB 3:28 20-Life Is Real (song for Lennon)
––––––––––––––––––––––––––––––––––––––––

Number of tracks: 20
Official DR value: DR11

Samplerate: 44100 Hz
Channels: 2
Bits per sample: 16
Bitrate: 846 kbps
Codec: FLAC

[CUETools log; Date: 26.02.2017 16:28:48; Version: 2.1.4]
[CTDB TOCID: Z.FHNWfyKNUA6bsZH6jFRPpOd5M-] found.
Track | CTDB Status
1 | (3/5) Accurately ripped
2 | (5/5) Accurately ripped
3 | (5/5) Accurately ripped
4 | (5/5) Accurately ripped
5 | (5/5) Accurately ripped
6 | (5/5) Accurately ripped
7 | (5/5) Accurately ripped
8 | (5/5) Accurately ripped
9 | (5/5) Accurately ripped
10 | (5/5) Accurately ripped
11 | (5/5) Accurately ripped
12 | (5/5) Accurately ripped
13 | (5/5) Accurately ripped
14 | (5/5) Accurately ripped
15 | (5/5) Accurately ripped
16 | (5/5) Accurately ripped
17 | (5/5) Accurately ripped
18 | (5/5) Accurately ripped
19 | (5/5) Accurately ripped
20 | (5/5) Accurately ripped
[AccurateRip ID: 00394d08-03398dd8-13115614] found.
Track [ CRC | V2 ] Status
01 [f7aa0a7b|c96dc337] (0+0/2) No match
02 [eec742c1|8721ec43] (0+0/2) No match
03 [1a89eab3|1dd563d4] (0+0/2) No match
04 [7578c21f|c5aa6758] (0+0/2) No match
05 [5ae37968|28530674] (0+0/2) No match
06 [7e4a04c6|7a289e1e] (0+0/2) No match
07 [94ab369d|48797491] (0+0/2) No match
08 [01b7939f|2792c409] (0+0/2) No match
09 [053891ef|82ebd0ce] (0+0/2) No match
10 [863d76c8|c747dea3] (0+0/2) No match
11 [736bfa88|6ab5afc1] (0+0/2) No match
12 [9e9f0658|53e5449a] (0+0/2) No match
13 [26dea670|fd200b33] (0+0/2) No match
14 [146b3763|d138db44] (0+0/2) No match
15 [9ca61e61|33b345e5] (0+0/2) No match
16 [0460d94d|508e7c9b] (0+0/2) No match
17 [7a40fc1a|d0159d7b] (0+0/2) No match
18 [cae03f65|aa72fc0d] (0+0/2) No match
19 [d4852099|f0959518] (0+0/2) No match
20 [cfc05ef8|04defaab] (0+0/4) No match
Offsetted by -2016:
01 [cf7c1a7b] (0/2) No match (V2 was not tested)
02 [5f9ad801] (0/2) No match (V2 was not tested)
03 [445c9873] (0/2) No match (V2 was not tested)
04 [710ac1df] (0/2) No match (V2 was not tested)
05 [89731548] (0/2) No match (V2 was not tested)
06 [385a4646] (0/2) No match (V2 was not tested)
07 [c83c3fdd] (0/2) No match (V2 was not tested)
08 [077c013f] (0/2) No match (V2 was not tested)
09 [fb26f00f] (0/2) No match (V2 was not tested)
10 [2ad7e948] (0/2) No match (V2 was not tested)
11 [f1d02848] (0/2) No match (V2 was not tested)
12 [8d1da038] (0/2) No match (V2 was not tested)
13 [f533de30] (0/2) No match (V2 was not tested)
14 [8f749c43] (0/2) No match (V2 was not tested)
15 [c758e561] (0/2) No match (V2 was not tested)
16 [1b0d3c2d] (0/2) No match (V2 was not tested)
17 [66f869fa] (0/2) No match (V2 was not tested)
18 [5297e605] (0/2) No match (V2 was not tested)
19 [672eab39] (0/2) No match (V2 was not tested)
20 [15397274] (1/4) Accurately ripped

Track Peak [ CRC32 ] [W/O NULL] [ LOG ]
– 100,0 [534BC0FC] [FA5DCD6D] CRC32
01 100,0 [CAE6D789] [E6F5494E]
02 100,0 [3D09390F] [C770842E]
03 97,7 [160F621A] [3DE3CCE6]
04 89,7 [B01E20DE] [47D404B8]
05 100,0 [8542B74E] [51C068AD]
06 83,5 [6089442C] [24AB03A5]
07 98,5 [03CDAAAA] [80338195]
08 78,3 [601D6DA8] [EF8ACB54]
09 65,8 [310E4CCC] [41252767]
10 97,8 [AA5A9566] [DFAC8692]
11 92,6 [0E7D566B] [A811432D]
12 99,9 [8201DAA0] [2F052401]
13 100,0 [FEAF82E5] [F12F19FB]
14 100,0 [7189BE7C] [242EE5AD]
15 97,6 [0C4DD4C3] [EEEA5C78]
16 67,6 [751C1F15] [F95CE15B]
17 94,9 [616BF06E] [48A5E412]
18 87,4 [FEE52C59] [E8628A84]
19 56,4 [EDDFE048] [DBBBA8EB]
20 100,0 [54098DC7] [6086FCDD]

Queen ‎- MTV History 2000: The Greatest Hits I-IV (1999)

Tracklist CD3 - The Greatest Hits III:

01. We Will Rock You [2:05]
02. Crazy Little Thing Called Love [2:45]
03. Innuendo [6:30]
04. Breakthru [4:11]
05. I Want To Break Free [4:21]
06. Play The Game [3:35]
07. I'm Going Slightly Mad [4:10]
08. Exercises In Free Love [4:00]
09. Scandal [4:42]
10. One Year Of Life [4:29]
11. One Vision [4:04]
12. Tear It Up [3:29]
13. Dear Friends [1:12]
14. Fun It [3:34]
15. The Fairy Teller's Master [2:48]
16. Soul Brother [3:36]
17. Time [3:52]
18. Lazing On Sunday Afternoon [1:10]
19. Jealousy [3:16]
20. Father To Son [6:13]

Exact Audio Copy V1.3 from 2. September 2016

EAC extraction logfile from 25. February 2017, 10:57

QUEEN / MTV History 2000 (The Greatest Hits 3) (Russia, Halahup, HAL-003-1)

Used drive : ASUS DRW-24B3ST Adapter: 1 ID: 1

Read mode : Secure
Utilize accurate stream : Yes
Defeat audio cache : Yes
Make use of C2 pointers : No

Read offset correction : 6
Overread into Lead-In and Lead-Out : No
Fill up missing offset samples with silence : Yes
Delete leading and trailing silent blocks : No
Null samples used in CRC calculations : Yes
Used interface : Native Win32 interface for Win NT & 2000

Used output format : User Defined Encoder
Selected bitrate : 1024 kBit/s
Quality : High
Add ID3 tag : No
Command line compressor : C:\Program Files\EAC(v.1.3)\WV\wavpack.exe
Additional command line options : -h -hh -m %source%


TOC of the extracted CD

Track | Start | Length | Start sector | End sector
––––––––––––––––––––––––––––-
1 | 0:00.00 | 2:04.60 | 0 | 9359
2 | 2:04.60 | 2:45.00 | 9360 | 21734
3 | 4:49.60 | 6:29.52 | 21735 | 50961
4 | 11:19.37 | 4:11.14 | 50962 | 69800
5 | 15:30.51 | 4:20.60 | 69801 | 89360
6 | 19:51.36 | 3:35.25 | 89361 | 105510
7 | 23:26.61 | 4:09.74 | 105511 | 124259
8 | 27:36.60 | 4:00.22 | 124260 | 142281
9 | 31:37.07 | 4:42.09 | 142282 | 163440
10 | 36:19.16 | 4:29.27 | 163441 | 183642
11 | 40:48.43 | 4:03.45 | 183643 | 201912
12 | 44:52.13 | 3:28.69 | 201913 | 217581
13 | 48:21.07 | 1:11.44 | 217582 | 222950
14 | 49:32.51 | 3:33.52 | 222951 | 238977
15 | 53:06.28 | 2:47.60 | 238978 | 251562
16 | 55:54.13 | 3:35.59 | 251563 | 267746
17 | 59:29.72 | 3:52.22 | 267747 | 285168
18 | 63:22.19 | 1:09.47 | 285169 | 290390
19 | 64:31.66 | 3:15.52 | 290391 | 305067
20 | 67:47.43 | 6:12.39 | 305068 | 333006


Range status and errors

Selected range

Filename F:\QUEEN - The Greatest Hits I-IV (RU 4 x CD 1999 Halahup Music GmbH • HAL-002~3)\QUEEN - MTV History 2000 … (Russia, Halahup, HAL-003-1).wav

Peak level 100.0 %
Extraction speed 8.3 X
Range quality 100.0 %
Test CRC 21741651
Copy CRC 21741651
Copy OK

No errors occurred


AccurateRip summary

Track 1 cannot be verified as accurate (confidence 1) [09928A72], AccurateRip returned [FD36B948] (AR v2)
Track 2 cannot be verified as accurate (confidence 1) [62A82E43], AccurateRip returned [9D637D0E] (AR v2)
Track 3 cannot be verified as accurate (confidence 1) [E8E5F617], AccurateRip returned [9C05005D] (AR v2)
Track 4 cannot be verified as accurate (confidence 1) [37FE3665], AccurateRip returned [EED8B378] (AR v2)
Track 5 cannot be verified as accurate (confidence 1) [B137DA80], AccurateRip returned [EF2B40EB] (AR v2)
Track 6 cannot be verified as accurate (confidence 1) [1894B608], AccurateRip returned [2818D49A] (AR v2)
Track 7 cannot be verified as accurate (confidence 1) [2A051FD8], AccurateRip returned [B39CBF2E] (AR v2)
Track 8 cannot be verified as accurate (confidence 1) [B9AD5A2F], AccurateRip returned [40BA1BB4] (AR v2)
Track 9 cannot be verified as accurate (confidence 1) [CA532070], AccurateRip returned [BFF3884B] (AR v2)
Track 10 cannot be verified as accurate (confidence 1) [8B74C539], AccurateRip returned [3F05E6FB] (AR v2)
Track 11 cannot be verified as accurate (confidence 1) [61D7A16D], AccurateRip returned [113A0ED1] (AR v2)
Track 12 cannot be verified as accurate (confidence 1) [1773B441], AccurateRip returned [88E7879B] (AR v2)
Track 13 cannot be verified as accurate (confidence 1) [4B3B06C8], AccurateRip returned [4DDD11EE] (AR v2)
Track 14 cannot be verified as accurate (confidence 1) [6C3C1A76], AccurateRip returned [D758CB97] (AR v2)
Track 15 cannot be verified as accurate (confidence 1) [F2116174], AccurateRip returned [0026A83B] (AR v2)
Track 16 cannot be verified as accurate (confidence 1) [D0BC426B], AccurateRip returned [05C59EFD] (AR v2)
Track 17 cannot be verified as accurate (confidence 1) [F1BA33B0], AccurateRip returned [77A8A31C] (AR v2)
Track 18 cannot be verified as accurate (confidence 1) [1E868CE4], AccurateRip returned [B8572B5A] (AR v2)
Track 19 cannot be verified as accurate (confidence 1) [0067DDCC], AccurateRip returned [CD35C8F6] (AR v2)
Track 20 cannot be verified as accurate (confidence 1) [A4093F7C], AccurateRip returned [05A71FB0] (AR v2)

No tracks could be verified as accurate
You may have a different pressing from the one(s) in the database

End of status report

==== Log checksum 3AC364C148C8A0EDD90A581C97067830E7CB5CB8ABF9805B5722672CE6AC769E ====

foobar2000 1.2.9 / Dynamic Range Meter 1.1.1
log date: 2017-02-26 16:29:25

––––––––––––––––––––––––––––––––––––––––
Analyzed: QUEEN / MTV History 2000 (The Greatest Hits 2) (Russia, Halahup, HAL-002-2)
––––––––––––––––––––––––––––––––––––––––

DR Peak RMS Duration Track
––––––––––––––––––––––––––––––––––––––––
DR12 0.00 dB -16.43 dB 5:46 01-Radio Ga Ga
DR16 0.00 dB -17.99 dB 4:24 02-A Kind Of Magik
DR7 -0.20 dB -11.17 dB 3:03 03-We Are The Champions
DR11 -0.94 dB -16.46 dB 3:59 04-Under Pressure
DR12 0.00 dB -13.99 dB 4:04 05-I Want It All
DR11 -1.57 dB -15.37 dB 4:11 06-It's A Hard Life
DR12 -0.13 dB -17.46 dB 3:03 07-Mustapha
DR9 -2.12 dB -15.17 dB 5:40 08-Heaven For Everyone
DR9 -3.64 dB -13.89 dB 2:56 09-Tutti Frutti
DR10 -0.19 dB -13.21 dB 4:01 10-Your Kind Of Lover
DR11 -0.66 dB -15.37 dB 2:50 11-Flash
DR12 -0.01 dB -15.23 dB 4:32 12-Love Kills
DR11 0.00 dB -14.93 dB 3:34 13-'39
DR12 0.00 dB -15.00 dB 4:34 14-Spread Your Wings
DR11 -0.21 dB -14.01 dB 2:52 15-Seven Seas Of Rhye
DR10 -3.39 dB -15.92 dB 1:42 16-Hallo Mary Lou
DR10 -0.45 dB -11.22 dB 3:48 17-Let's Turn It On
DR11 -1.16 dB -16.05 dB 4:10 18-My Fairy King
DR11 -4.97 dB -18.97 dB 1:20 19-Newer More
DR12 0.00 dB -15.99 dB 3:28 20-Life Is Real (song for Lennon)
––––––––––––––––––––––––––––––––––––––––

Number of tracks: 20
Official DR value: DR11

Samplerate: 44100 Hz
Channels: 2
Bits per sample: 16
Bitrate: 846 kbps
Codec: FLAC

[CUETools log; Date: 26.02.2017 16:29:22; Version: 2.1.4]
[CTDB TOCID: Z.FHNWfyKNUA6bsZH6jFRPpOd5M-] found.
Track | CTDB Status
1 | (3/5) Accurately ripped
2 | (5/5) Accurately ripped
3 | (5/5) Accurately ripped
4 | (5/5) Accurately ripped
5 | (5/5) Accurately ripped
6 | (5/5) Accurately ripped
7 | (5/5) Accurately ripped
8 | (5/5) Accurately ripped
9 | (5/5) Accurately ripped
10 | (5/5) Accurately ripped
11 | (5/5) Accurately ripped
12 | (5/5) Accurately ripped
13 | (5/5) Accurately ripped
14 | (5/5) Accurately ripped
15 | (5/5) Accurately ripped
16 | (5/5) Accurately ripped
17 | (5/5) Accurately ripped
18 | (5/5) Accurately ripped
19 | (5/5) Accurately ripped
20 | (5/5) Accurately ripped
[AccurateRip ID: 00394d08-03398dd8-13115614] found.
Track [ CRC | V2 ] Status
01 [f7aa0a7b|c96dc337] (0+0/2) No match
02 [eec742c1|8721ec43] (0+0/2) No match
03 [1a89eab3|1dd563d4] (0+0/2) No match
04 [7578c21f|c5aa6758] (0+0/2) No match
05 [5ae37968|28530674] (0+0/2) No match
06 [7e4a04c6|7a289e1e] (0+0/2) No match
07 [94ab369d|48797491] (0+0/2) No match
08 [01b7939f|2792c409] (0+0/2) No match
09 [053891ef|82ebd0ce] (0+0/2) No match
10 [863d76c8|c747dea3] (0+0/2) No match
11 [736bfa88|6ab5afc1] (0+0/2) No match
12 [9e9f0658|53e5449a] (0+0/2) No match
13 [26dea670|fd200b33] (0+0/2) No match
14 [146b3763|d138db44] (0+0/2) No match
15 [9ca61e61|33b345e5] (0+0/2) No match
16 [0460d94d|508e7c9b] (0+0/2) No match
17 [7a40fc1a|d0159d7b] (0+0/2) No match
18 [cae03f65|aa72fc0d] (0+0/2) No match
19 [d4852099|f0959518] (0+0/2) No match
20 [cfc05ef8|04defaab] (0+0/4) No match
Offsetted by -2016:
01 [cf7c1a7b] (0/2) No match (V2 was not tested)
02 [5f9ad801] (0/2) No match (V2 was not tested)
03 [445c9873] (0/2) No match (V2 was not tested)
04 [710ac1df] (0/2) No match (V2 was not tested)
05 [89731548] (0/2) No match (V2 was not tested)
06 [385a4646] (0/2) No match (V2 was not tested)
07 [c83c3fdd] (0/2) No match (V2 was not tested)
08 [077c013f] (0/2) No match (V2 was not tested)
09 [fb26f00f] (0/2) No match (V2 was not tested)
10 [2ad7e948] (0/2) No match (V2 was not tested)
11 [f1d02848] (0/2) No match (V2 was not tested)
12 [8d1da038] (0/2) No match (V2 was not tested)
13 [f533de30] (0/2) No match (V2 was not tested)
14 [8f749c43] (0/2) No match (V2 was not tested)
15 [c758e561] (0/2) No match (V2 was not tested)
16 [1b0d3c2d] (0/2) No match (V2 was not tested)
17 [66f869fa] (0/2) No match (V2 was not tested)
18 [5297e605] (0/2) No match (V2 was not tested)
19 [672eab39] (0/2) No match (V2 was not tested)
20 [15397274] (1/4) Accurately ripped

Track Peak [ CRC32 ] [W/O NULL] [ LOG ]
– 100,0 [534BC0FC] [FA5DCD6D] [21741651]
01 100,0 [CAE6D789] [E6F5494E]
02 100,0 [3D09390F] [C770842E]
03 97,7 [160F621A] [3DE3CCE6]
04 89,7 [B01E20DE] [47D404B8]
05 100,0 [8542B74E] [51C068AD]
06 83,5 [6089442C] [24AB03A5]
07 98,5 [03CDAAAA] [80338195]
08 78,3 [601D6DA8] [EF8ACB54]
09 65,8 [310E4CCC] [41252767]
10 97,8 [AA5A9566] [DFAC8692]
11 92,6 [0E7D566B] [A811432D]
12 99,9 [8201DAA0] [2F052401]
13 100,0 [FEAF82E5] [F12F19FB]
14 100,0 [7189BE7C] [242EE5AD]
15 97,6 [0C4DD4C3] [EEEA5C78]
16 67,6 [751C1F15] [F95CE15B]
17 94,9 [616BF06E] [48A5E412]
18 87,4 [FEE52C59] [E8628A84]
19 56,4 [EDDFE048] [DBBBA8EB]
20 100,0 [54098DC7] [6086FCDD]

Queen ‎- MTV History 2000: The Greatest Hits I-IV (1999)

Tracklist CD4 - The Greatest Hits IV:

01. The Show Must Go On [4:26]
02. Mr. Bad Gay [3:55]
03. The Invisible Man [3:58]
04. The Miracle [4:57]
05. Forever [3:22]
06. Friends Will Be Friends [4:08]
07. Don't Try So Hard [3:41]
08. Good Old-Fashioned Lover Boy [2:58]
09. Dont All Right [4:12]
10. In My Defence [3:55]
11. You Don't Fool Me [5:29]
12. The Night Comes Down [4:25]
13. Foolin' Around [3:38]
14. My Baby Does Me [3:24]
15. The Great Pretender [3:28]
16. Lily Of The Valley [1:45]
17. Is This The World We Created [2:20]
18. Rock In Rio Blues [4:34]
19. Made In Heaven [5:28]

Exact Audio Copy V1.3 from 2. September 2016

EAC extraction logfile from 25. February 2017, 12:37

QUEEN / MTV History 2000 (The Greatest Hits 4) (Russia, Halahup, HAL-003-2)

Used drive : ASUS DRW-24B3ST Adapter: 1 ID: 1

Read mode : Secure
Utilize accurate stream : Yes
Defeat audio cache : Yes
Make use of C2 pointers : No

Read offset correction : 6
Overread into Lead-In and Lead-Out : No
Fill up missing offset samples with silence : Yes
Delete leading and trailing silent blocks : No
Null samples used in CRC calculations : Yes
Used interface : Native Win32 interface for Win NT & 2000

Used output format : User Defined Encoder
Selected bitrate : 1024 kBit/s
Quality : High
Add ID3 tag : No
Command line compressor : C:\Program Files\EAC(v.1.3)\WV\wavpack.exe
Additional command line options : -h -hh -m %source%


TOC of the extracted CD

Track | Start | Length | Start sector | End sector
––––––––––––––––––––––––––––-
1 | 0:00.00 | 4:25.57 | 0 | 19931
2 | 4:25.57 | 3:55.03 | 19932 | 37559
3 | 8:20.60 | 3:58.00 | 37560 | 55409
4 | 12:18.60 | 4:56.72 | 55410 | 77681
5 | 17:15.57 | 3:21.39 | 77682 | 92795
6 | 20:37.21 | 4:08.01 | 92796 | 111396
7 | 24:45.22 | 3:41.02 | 111397 | 127973
8 | 28:26.24 | 2:57.64 | 127974 | 141312
9 | 31:24.13 | 4:11.57 | 141313 | 160194
10 | 35:35.70 | 3:54.42 | 160195 | 177786
11 | 39:30.37 | 5:28.74 | 177787 | 202460
12 | 44:59.36 | 4:25.27 | 202461 | 222362
13 | 49:24.63 | 3:38.07 | 222363 | 238719
14 | 53:02.70 | 3:23.42 | 238720 | 253986
15 | 56:26.37 | 3:27.39 | 253987 | 269550
16 | 59:54.01 | 1:45.09 | 269551 | 277434
17 | 61:39.10 | 2:19.52 | 277435 | 287911
18 | 63:58.62 | 4:33.59 | 287912 | 308445
19 | 68:32.46 | 5:27.44 | 308446 | 333014


Range status and errors

Selected range

Filename F:\QUEEN - The Greatest Hits I-IV (RU 4 x CD 1999 Halahup Music GmbH • HAL-002~3)\QUEEN - MTV History 2000 … (Russia, Halahup, HAL-003-2).wav

Peak level 100.0 %
Extraction speed 8.2 X
Range quality 99.9 %
Test CRC ACC635FF
Copy CRC ACC635FF
Copy OK

No errors occurred


AccurateRip summary

Track 1 cannot be verified as accurate (confidence 3) [2501C185], AccurateRip returned [5C64AA07] (AR v2)
Track 2 cannot be verified as accurate (confidence 3) [BD11D776], AccurateRip returned [0C156CD6] (AR v2)
Track 3 cannot be verified as accurate (confidence 3) [43C9A0C3], AccurateRip returned [C971FAB5] (AR v2)
Track 4 cannot be verified as accurate (confidence 3) [6182815B], AccurateRip returned [2616333E] (AR v2)
Track 5 cannot be verified as accurate (confidence 3) [D04FE252], AccurateRip returned [CBBAD96B] (AR v2)
Track 6 cannot be verified as accurate (confidence 2) [C6F3B357], AccurateRip returned [C52798F6] (AR v2)
Track 7 cannot be verified as accurate (confidence 3) [A989F27E], AccurateRip returned [F72FD5E3] (AR v2)
Track 8 cannot be verified as accurate (confidence 3) [69173DB7], AccurateRip returned [0A925A24] (AR v2)
Track 9 cannot be verified as accurate (confidence 3) [9C731B87], AccurateRip returned [59BB6EB7] (AR v2)
Track 10 cannot be verified as accurate (confidence 3) [14D2FDEB], AccurateRip returned [878AFC8C] (AR v2)
Track 11 cannot be verified as accurate (confidence 3) [679BDA07], AccurateRip returned [F5A9C131] (AR v2)
Track 12 cannot be verified as accurate (confidence 2) [E6632688], AccurateRip returned [4E355881] (AR v2)
Track 13 cannot be verified as accurate (confidence 1) [337D95D1], AccurateRip returned [837EF90F] (AR v2)
Track 14 cannot be verified as accurate (confidence 2) [9D0CFDB9], AccurateRip returned [4CF23FEA] (AR v2)
Track 15 cannot be verified as accurate (confidence 2) [68954149], AccurateRip returned [AD469BAC] (AR v2)
Track 16 cannot be verified as accurate (confidence 3) [2820975A], AccurateRip returned [BE8A9F71] (AR v2)
Track 17 cannot be verified as accurate (confidence 2) [C130270A], AccurateRip returned [765531DA] (AR v2)
Track 18 cannot be verified as accurate (confidence 2) [1B391052], AccurateRip returned [01E4186E] (AR v2)
Track 19 cannot be verified as accurate (confidence 1) [1232DAC0], AccurateRip returned [DA82462B] (AR v2)

No tracks could be verified as accurate
You may have a different pressing from the one(s) in the database

End of status report

==== Log checksum 2EA1702C5B66098BEFFC28C2759804BD7ED28924A8AD329BFC11D9ECB6F97C3D ====

foobar2000 1.2.9 / Dynamic Range Meter 1.1.1
log date: 2017-02-26 16:29:57

––––––––––––––––––––––––––––––––––––––––
Analyzed: QUEEN / MTV History 2000 (The Greatest Hits 4) (Russia, Halahup, HAL-003-2)
––––––––––––––––––––––––––––––––––––––––

DR Peak RMS Duration Track
––––––––––––––––––––––––––––––––––––––––
DR11 -0.31 dB -15.13 dB 4:26 01-The Show Must Go On
DR10 -0.48 dB -12.37 dB 3:55 02-Mr. Bad Gay
DR14 -0.05 dB -15.58 dB 3:58 03-The Invisible Man
DR12 -0.17 dB -14.19 dB 4:57 04-The Miracle
DR11 -2.69 dB -17.55 dB 3:22 05-Forever
DR11 -0.07 dB -15.45 dB 4:08 06-Friends Will Be Friends
DR12 -1.65 dB -17.97 dB 3:41 07-Don't Try So Hard
DR10 -0.54 dB -13.88 dB 2:58 08-Good Old-Fashioned Lover Boy
DR12 0.00 dB -17.62 dB 4:12 09-Dont All Right
DR10 -0.10 dB -13.61 dB 3:55 10-In My Defence
DR9 -0.01 dB -12.81 dB 5:29 11-You Don't Fool Me
DR13 0.00 dB -15.86 dB 4:25 12-The Night Comes Down
DR12 -0.48 dB -14.47 dB 3:38 13-Foolin' Around
DR14 -0.27 dB -16.18 dB 3:24 14-My Baby Does Me
DR13 -0.12 dB -17.66 dB 3:28 15-The Great Pretender
DR12 -1.38 dB -18.03 dB 1:45 16-Lily Of The Valley
DR14 -1.73 dB -22.19 dB 2:20 17-Is This The World We Created
DR9 -2.57 dB -15.31 dB 4:34 18-Rock In Rio Blues
DR8 -2.23 dB -12.16 dB 5:28 19-Made In Heaven
––––––––––––––––––––––––––––––––––––––––

Number of tracks: 19
Official DR value: DR11

Samplerate: 44100 Hz
Channels: 2
Bits per sample: 16
Bitrate: 838 kbps
Codec: FLAC
============================

[CUETools log; Date: 26.02.2017 16:29:38; Version: 2.1.4]
[CTDB TOCID: YKKFG93W07g3z6pV0QhOrpjf0CQ-] found.
Track | CTDB Status
1 | (8/9) Accurately ripped
2 | (9/9) Accurately ripped
3 | (9/9) Accurately ripped
4 | (9/9) Accurately ripped
5 | (9/9) Accurately ripped
6 | (9/9) Accurately ripped
7 | (4/9) Accurately ripped, or (2/9) differs in 37 samples @01:08:00-01:08:01,01:11:39, or (2/9) differs in 37 samples @01:08:00-01:08:01,01:11:39
8 | (9/9) Accurately ripped
9 | (9/9) Accurately ripped
10 | (9/9) Accurately ripped
11 | (9/9) Accurately ripped
12 | (9/9) Accurately ripped
13 | (6/9) Accurately ripped, or (2/9) differs in 176 samples @01:32:13,01:44:15,01:46:67-01:46:68,01:55:20,02:05:08,02:12:00-02:12:01,02:18:13
14 | (9/9) Accurately ripped
15 | (9/9) Accurately ripped
16 | (9/9) Accurately ripped
17 | (9/9) Accurately ripped
18 | (9/9) Accurately ripped
19 | (6/9) Accurately ripped, or (2/9) differs in 133 samples @04:56:30,05:02:04-05:02:05,05:07:12,05:08:64,05:13:08
[AccurateRip ID: 0033d160-02cf8ea7-16115813] found.
Track [ CRC | V2 ] Status
01 [70f47f5b|2501c185] (0+0/3) No match
02 [77264036|bd11d776] (0+0/3) No match
03 [100b2d75|43c9a0c3] (0+0/3) No match
04 [72823e9e|6182815b] (0+0/3) No match
05 [5fdbceab|d04fe252] (0+0/3) No match
06 [9db124f6|c6f3b357] (0+0/2) No match
07 [0f84aae6|a989f27e] (0+0/3) No match
08 [854d83e4|69173db7] (0+0/3) No match
09 [eb08cdd7|9c731b87] (0+0/3) No match
10 [730bf06c|14d2fdeb] (0+0/3) No match
11 [2d9d0e71|679bda07] (0+0/3) No match
12 [2685ae61|e6632688] (0+0/2) No match
13 [1b1d5f47|337d95d1] (0+0/4) No match
14 [abd897aa|9d0cfdb9] (0+0/2) No match
15 [7b62b66c|68954149] (0+0/2) No match
16 [9ea5b531|2820975a] (0+0/3) No match
17 [bedc419a|c130270a] (0+0/2) No match
18 [243e46ce|1b391052] (0+0/2) No match
19 [39c2a0d4|1232dac0] (0+0/4) No match
Offsetted by -2016:
01 [5c64aa07] (3/3) Accurately ripped
02 [0c156cd6] (3/3) Accurately ripped
03 [c971fab5] (3/3) Accurately ripped
04 [2616333e] (3/3) Accurately ripped
05 [cbbad96b] (3/3) Accurately ripped
06 [c52798f6] (2/2) Accurately ripped
07 [2c47b426] (0/3) No match (V2 was not tested)
08 [0a925a24] (3/3) Accurately ripped
09 [59bb6eb7] (3/3) Accurately ripped
10 [878afc8c] (3/3) Accurately ripped
11 [f5a9c131] (3/3) Accurately ripped
12 [4e355881] (2/2) Accurately ripped
13 [19f64807] (1/4) Accurately ripped
14 [4cf23fea] (2/2) Accurately ripped
15 [ad469bac] (2/2) Accurately ripped
16 [be8a9f71] (3/3) Accurately ripped
17 [765531da] (2/2) Accurately ripped
18 [01e4186e] (2/2) Accurately ripped
19 [19d26dfd] (1/4) Accurately ripped
Offsetted by -1332:
01 [5c334bf7] (0/3) No match
02 [c2b1fdb2] (0/3) No match
03 [bcd3abed] (0/3) No match
04 [5b71b71a] (0/3) No match
05 [d4d85133] (0/3) No match
06 [2e9f6876] (0/2) No match
07 [c28587de] (0/3) No match
08 [8fa423bc] (0/3) No match
09 [b42c8a6b] (0/3) No match
10 [d7722ab8] (0/3) No match
11 [5f80dff9] (0/3) No match
12 [1c2c07ed] (0/2) No match
13 [837ef90f] (1/4) Accurately ripped
14 [b1b74242] (0/2) No match
15 [eea26de4] (0/2) No match
16 [3cdcf489] (0/3) No match
17 [fca79732] (0/2) No match
18 [96b0682a] (0/2) No match
19 [da82462b] (1/4) Accurately ripped

Track Peak [ CRC32 ] [W/O NULL] [ LOG ]
– 100,0 [ACC635FF] [5D6C71DB] CRC32
01 96,4 [40E9C7EF] [C75A83E4]
02 94,6 [4E79D4C2] [E2BBFED9]
03 99,4 [6617D21B] [6CAF6D41]
04 98,0 [E330577B] [258F5E16]
05 73,3 [9FC35FC2] [8E3FC6EE]
06 99,2 [C64FB55B] [40AC5537]
07 82,6 [D52BB802] [8DC07FFE]
08 93,9 [B9D0357A] [84C42317]
09 100,0 [A8EF1360] [90BECA5D]
10 98,8 [6AAA794C] [D7D3A926]
11 99,9 [993293C1] [E2C46B5C]
12 100,0 [0A704FC0] [A49642E8]
13 94,6 [990F3E4C] [591EF5EC]
14 96,9 [06BCD4F5] [06DDBAC8]
15 98,6 [48115E2D] [61F03F74]
16 85,3 [EDA2925F] [D031A884]
17 81,9 [51864519] [B03CCB71]
18 74,4 [428C5CCF] [36E0D87F]
19 77,3 [957755B4] [E16D2415]

All thanks go to the original releaser

Queen in my Blog

Download Queen ‎- MTV History 2000: The Greatest Hits I-IV (1999):