Subcategories

Queen + Paul Rodgers - The Cosmos Rocks (2008) {2012, Reissue}

Posted By: popsakov
Queen + Paul Rodgers - The Cosmos Rocks (2008) {2012, Reissue}

Queen + Paul Rodgers - The Cosmos Rocks (2008) {2012, Reissue}
EAC Rip | FLAC (Img) + Cue + Log ~ 422 Mb | MP3 CBR320 ~ 154 Mb
Scans Included | RAR 5% Recovery
Hard Rock, Blues Rock, Glam | Universal Music #0602537014132

The Cosmos Rocks is the only studio album by Queen + Paul Rodgers, released on 15 September 2008. It contains 14 new tracks written by Brian May, Roger Taylor, and Paul Rodgers. This is the first studio album of new material from the two remaining members of Queen since 1995′s Made in Heaven. The album's release came 17 years after the death in 1991 of former Queen singer Freddie Mercury. "It had some great stuff on it," Taylor recalled. "I just think that Paul's more blues and soul – one of our favourite singers, ever, but, when it boils down to it, he wasn't the perfect frontman for us. I felt the album was badly promoted by EMI, who were falling to bits at the time. We were on tour in Europe, and I went into record stores and we weren't in them. And I remember being furious, thinking, 'Why did we make this fucking record?'"

The Cosmos Rocks received mixed reviews. According to critic review aggregator Metacritic, the album received an average review score of 42/100, Indicating "Mixed or average reviews". Alexis Petridis of The Guardian gave it two out of five stars, stating, "the lyrics were stupid, trite, a bit offensive and bound to have an undermining effect on whatever musical efforts they put behind it". Conversely, PopMatters gave it a 7/10 review, stating, "Paul Rodgers breathes new life into Queen, while still keeping the band's tremendous legacy intact as they soldier forth with new material into the 21st century". Mojo gave it three stars, stating, "Occasionally they stumble, as on the clunky 'Warboys.' But with Rodgers imperious, Queen's second coming is vindicated".
~ Wiki

***************

Queen + Paul Rodgers - The Cosmos Rocks (2008) {2012, Reissue}

Track List:

01. Cosmos Rockin' [4:11]
02. Time to Shine [4:23]
03. Still Burnin' [4:03]
04. Small [4:40]
05. Warboys [3:18]
06. We Believe [6:08]
07. Call Me [2:59]
08. Voodoo [4:28]
09. Some Things That Glitter [4:03]
10. C-lebrity [3:39]
11. Through the Night [4:54]
12. Say It's Not True [4:01]
13. Surf's Up… School's Out! [5:55]
14. Small Reprise [2:06]

Personnel:
Brian May - guitar, backing and lead vocals, bass, keyboards, piano
Roger Taylor - drums, backing and lead vocals, percussion, keyboards
Paul Rodgers - lead vocals, guitar, bass, keyboards, piano, harmonica
Taylor Hawkins - backing vocals on "C-lebrity"

Exact Audio Copy V1.0 beta 3 from 29. August 2011

Отчёт EAC об извлечении, выполненном 10. июня 2018, 7:44

Queen + Paul Rodgers / The Cosmos Rocks

Дисковод: ASUS DRW-20B1ST Adapter: 3 ID: 0

Режим чтения : Достоверность
Использование точного потока : Да
Отключение кэша аудио : Да
Использование указателей C2 : Нет

Коррекция смещения при чтении : 6
Способность читать области Lead-in и Lead-out : Нет
Заполнение пропущенных сэмплов тишиной : Да
Удаление блоков с тишиной в начале и конце : Нет
При вычислениях CRC использовались нулевые сэмплы : Да
Интерфейс : Встроенный Win32-интерфейс для Win NT/2000

Выходной формат : Пользовательский кодировщик
Выбранный битрейт : 1024 kBit/s
Качество : Высокий
Добавление ID3-тега : Нет
Утилита сжатия : C:\Program Files (x86)\Exact Audio Copy\FLAC\FLAC.EXE
Дополнительные параметры : -6 -V -T "ARTIST=%artist%" -T "TITLE=%title%" -T "ALBUM=%albumtitle%" -T "DATE=%year%" -T "TRACKNUMBER=%tracknr%" -T "GENRE=%genre%" -T "COMMENT=%comment%" -T "BAND=%albuminterpret%" -T "ALBUMARTIST=%albuminterpret%" -T "COMPOSER=%composer%" %haslyrics%–tag-from-file=LYRICS="%lyricsfile%"%haslyrics% -T "DISCNUMBER=%cdnumber%" -T "TOTALDISCS=%totalcds%" -T "TOTALTRACKS=%numtracks%" %hascover%–picture="%coverfile%"%hascover% %source% -o %dest%


TOC извлечённого CD

Трек | Старт | Длительность | Начальный сектор | Конечный сектор
––––––––––––––––––––––––––––––––––-
1 | 0:00.00 | 4:11.31 | 0 | 18855
2 | 4:11.31 | 4:23.05 | 18856 | 38585
3 | 8:34.36 | 4:03.29 | 38586 | 56839
4 | 12:37.65 | 4:39.48 | 56840 | 77812
5 | 17:17.38 | 3:18.14 | 77813 | 92676
6 | 20:35.52 | 6:07.54 | 92677 | 120255
7 | 26:43.31 | 2:58.53 | 120256 | 133658
8 | 29:42.09 | 4:27.45 | 133659 | 153728
9 | 34:09.54 | 4:02.61 | 153729 | 171939
10 | 38:12.40 | 3:38.57 | 171940 | 188346
11 | 41:51.22 | 4:53.62 | 188347 | 210383
12 | 46:45.09 | 4:01.11 | 210384 | 228469
13 | 50:46.20 | 5:55.01 | 228470 | 255095
14 | 56:41.21 | 2:05.49 | 255096 | 264519


Характеристики диапазона извлечения и сообщения об ошибках

Выбранный диапазон

Имя файла E:\Queen + Paul Rodgers - The Cosmos Rocks.wav

Пиковый уровень 100.0 %
Скорость извлечения 6.8 X
Качество диапазона 99.9 %
CRC копии 32F81E4F
Копирование… OK

Ошибок не произошло


AccurateRip: сводка

Трек 1 : извлечено точно (доверие 175) [CBF60141] (AR v2)
Трек 2 : извлечено точно (доверие 173) [0045D5FD] (AR v2)
Трек 3 : извлечено точно (доверие 173) [2C4B817D] (AR v2)
Трек 4 : извлечено точно (доверие 174) [4B8713B7] (AR v2)
Трек 5 : извлечено точно (доверие 174) [581FD19C] (AR v2)
Трек 6 : извлечено точно (доверие 175) [2DFB7C37] (AR v2)
Трек 7 : извлечено точно (доверие 175) [D4762AC8] (AR v2)
Трек 8 : извлечено точно (доверие 174) [495A9FD3] (AR v2)
Трек 9 : извлечено точно (доверие 172) [EF188298] (AR v2)
Трек 10 : извлечено точно (доверие 173) [A277191C] (AR v2)
Трек 11 : извлечено точно (доверие 173) [0111357B] (AR v2)
Трек 12 : извлечено точно (доверие 174) [FDF5B404] (AR v2)
Трек 13 : извлечено точно (доверие 174) [8DEA776A] (AR v2)
Трек 14 : извлечено точно (доверие 174) [333C9913] (AR v2)

Все треки извлечены точно

Конец отчёта

==== Контрольная сумма отчёта CF9C5A22DB58CCB155E619576ADB0DB3B2CCD6498E12B7D7B5EDBB0A4086F39F ====

[CUETools log; Date: 06.12.2018 14:04:36; Version: 2.1.6]
[CTDB TOCID: AcKue5ALtJn0pp6.TTpohGj7FdQ-] found.
Track | CTDB Status
1 | (400/408) Accurately ripped
2 | (401/408) Accurately ripped
3 | (402/408) Accurately ripped
4 | (401/408) Accurately ripped
5 | (401/408) Accurately ripped
6 | (399/408) Accurately ripped
7 | (399/408) Accurately ripped
8 | (402/408) Accurately ripped
9 | (400/408) Accurately ripped
10 | (398/408) Accurately ripped
11 | (400/408) Accurately ripped
12 | (399/408) Accurately ripped
13 | (396/408) Accurately ripped
14 | (401/408) Accurately ripped
[AccurateRip ID: 001eb025-01473c1e-b50dc60e] found.
Track [ CRC | V2 ] Status
01 [1bf273ae|cbf60141] (176+182/382) Accurately ripped
02 [8b620895|0045d5fd] (176+180/380) Accurately ripped
03 [de9543a3|2c4b817d] (176+180/382) Accurately ripped
04 [dd9f5bb8|4b8713b7] (175+181/380) Accurately ripped
05 [c7ba88d3|581fd19c] (176+181/381) Accurately ripped
06 [621d12f7|2dfb7c37] (175+182/381) Accurately ripped
07 [079adab3|d4762ac8] (175+182/383) Accurately ripped
08 [90f2ed24|495a9fd3] (170+181/378) Accurately ripped
09 [ffa9bde8|ef188298] (174+179/379) Accurately ripped
10 [120a5e20|a277191c] (174+180/380) Accurately ripped
11 [b6b1ae2f|0111357b] (169+180/378) Accurately ripped
12 [e136ba65|fdf5b404] (171+181/376) Accurately ripped
13 [0e365b99|8dea776a] (173+181/378) Accurately ripped
14 [22b85879|333c9913] (161+181/369) Accurately ripped
Offsetted by -1352:
01 [3957b446] (004/382) Accurately ripped
02 [1d97952d] (004/380) Accurately ripped
03 [5518cccb] (004/382) Accurately ripped
04 [7fa10ef9] (004/380) Accurately ripped
05 [d2d6f73c] (004/381) Accurately ripped
06 [2c158298] (004/381) Accurately ripped
07 [da89d733] (004/383) Accurately ripped
08 [44ecc7a6] (004/378) Accurately ripped
09 [270782ef] (004/379) Accurately ripped
10 [de41ef78] (004/380) Accurately ripped
11 [f286c46d] (004/378) Accurately ripped
12 [5c0e0de3] (004/376) Accurately ripped
13 [b6913c35] (004/378) Accurately ripped
14 [f46a6dbf] (004/369) Accurately ripped
Offsetted by -676:
01 [2bd94fef] (006/382) Accurately ripped
02 [074e7d3a] (006/380) Accurately ripped
03 [7320c619] (006/382) Accurately ripped
04 [44d40362] (006/380) Accurately ripped
05 [0f965372] (006/381) Accurately ripped
06 [e4226482] (006/381) Accurately ripped
07 [8279810e] (006/383) Accurately ripped
08 [0b9c59bb] (006/378) Accurately ripped
09 [e5f63d02] (006/379) Accurately ripped
10 [782626cc] (006/380) Accurately ripped
11 [3da3b15b] (006/378) Accurately ripped
12 [afe3d3a5] (006/376) Accurately ripped
13 [576ad252] (006/378) Accurately ripped
14 [28a89403] (006/369) Accurately ripped
Offsetted by -30:
01 [dad024c0] (005/382) Accurately ripped
02 [51c1e982] (005/380) Accurately ripped
03 [808706ca] (005/382) Accurately ripped
04 [5f676dfe] (005/380) Accurately ripped
05 [9bb0dd5d] (005/381) Accurately ripped
06 [81595b47] (005/381) Accurately ripped
07 [7bfffc10] (005/383) Accurately ripped
08 [198b15f1] (005/378) Accurately ripped
09 [6e3be004] (005/379) Accurately ripped
10 [b7e5bb1a] (005/380) Accurately ripped
11 [6c29f361] (005/378) Accurately ripped
12 [5753ea09] (005/376) Accurately ripped
13 [3e52aeb8] (005/378) Accurately ripped
14 [c4e803ee] (005/369) Accurately ripped
Offsetted by -6:
01 [d8ad8422] (002/382) Accurately ripped
02 [14d53141] (002/380) Accurately ripped
03 [32339df1] (002/382) Accurately ripped
04 [2527f6bb] (002/380) Accurately ripped
05 [483f780a] (002/381) Accurately ripped
06 [fa660527] (002/381) Accurately ripped
07 [5102155c] (002/383) Accurately ripped
08 [8cdadf5b] (002/378) Accurately ripped
09 [46dfc4ec] (002/379) Accurately ripped
10 [00030a52] (002/380) Accurately ripped
11 [59aeeb15] (002/378) Accurately ripped
12 [0237fef6] (002/376) Accurately ripped
13 [1651ee2e] (002/378) Accurately ripped
14 [2dd902ea] (002/369) Accurately ripped
Offsetted by -664:
01 [54502c7e] (000/382) No match (V2 was not tested)
02 [1b6b1c01] (000/380) No match (V2 was not tested)
03 [cdb81e77] (000/382) No match (V2 was not tested)
04 [fc1bd5ab] (000/380) No match (V2 was not tested)
05 [902c14b0] (000/381) No match (V2 was not tested)
06 [1b5cdc76] (000/381) No match (V2 was not tested)
07 [73b21f21] (000/383) No match (V2 was not tested)
08 [849b8393] (000/378) No match (V2 was not tested)
09 [e616a304] (000/379) No match (V2 was not tested)
10 [9c34ce68] (000/380) No match (V2 was not tested)
11 [0744acd0] (000/378) No match (V2 was not tested)
12 [8c29fb04] (000/376) No match (V2 was not tested)
13 [5a2392d6] (000/378) No match (V2 was not tested)
14 [d1fbfb24] (000/369) No match (V2 was not tested)
Offsetted by 6:
01 [808f2e0c] (000/382) No match
02 [f888ea86] (000/380) No match
03 [8af2e956] (000/382) No match
04 [9b2c75b4] (000/380) No match
05 [a5724f83] (000/381) No match (V2 was not tested)
06 [5783af57] (000/381) No match
07 [3c7ee121] (000/383) No match
08 [f89b1f22] (000/378) No match
09 [ba55b732] (000/379) No match
10 [2411b1ee] (000/380) No match
11 [ec85e1c4] (000/378) No match
12 [e9f1a872] (000/376) No match
13 [6216a8cb] (000/378) No match
14 [954cf1fa] (000/369) No match

Track Peak [ CRC32 ] [W/O NULL] [ LOG ]
– 100,0 [32F81E4F] [B13117D2] CRC32
01 98,4 [F071AF6E] [2B5B3E88]
02 98,4 [8A8D1539] [017E2734]
03 100,0 [C06C6932] [913A34EF]
04 98,4 [D4671330] [07F5A795]
05 100,0 [543EA89F] [F5FD45B4]
06 98,4 [4646C103] [F06AAC86]
07 98,4 [2B867DF0] [EE87266A]
08 98,4 [DD4FF15E] [3EE63273]
09 98,4 [0AC81EBD] [D5CA0F16]
10 98,4 [7D9EA28A] [4EF043EE]
11 98,4 [277FB89B] [89139B10]
12 100,0 [DF95EA26] [3190B426]
13 98,4 [06B6BE14] [9E6CBA0F]
14 98,4 [5D6718B0] [489BF6ED]

Queen + Paul Rodgers - The Cosmos Rocks (2008) {2012, Reissue}

All thanks go to the original ripper(s) …

>>> Queen & Paul Rodgers in my Blog <<<

Download from icerbox.com: