Subcategories

Queen - Singles Collection 1 (2008) [13CD Box Set] Re-up

Posted By: v3122
Queen - Singles Collection 1 (2008) [13CD Box Set] Re-up

Queen - Singles Collection 1 (2008)
EAC | Flac(Image) + Cue + Log & MP3 CBR 320Kbps
13CD | EMI, 50999 243358 2 9 | ~ 642 or 235 Mb | Scans(jpg) -> 130 Mb
Progressive Hard Rock / Classic Rock / Pop Rock

This 2008 singles collection from Queen comes housed in a flip-top box and contains 13 singles released between 1973 and 1979, including the hits “Killer Queen,” “Somebody to Love,” “Fat Bottomed Girls,” “We Are the Champions,” and “We Will Rock You," all of which feature faithfully reproduced cover artwork and vinyl-perfect audio.

by James Christopher Monger, AMG
Queen - Singles Collection 1 (2008) [13CD Box Set] Re-up


Queen - Singles Collection 1 (2008):

Tracklist CD1 - Keep Yourself Alive:
Sleeve design based on the original 7" released in Portugal, July 1973

01. Keep Yourself Alive - 3:49
02. Son And Daughter - 3:21

Exact Audio Copy V1.0 beta 4 from 7. December 2014

EAC extraction logfile from 7. January 2015, 21:25

Queen / Singles Collection 1 CD1 - Keep Yourself Alive (2008, 50999 243358 2 9)

Used drive : ATAPI iHAS124 B Adapter: 1 ID: 0

Read mode : Secure
Utilize accurate stream : Yes
Defeat audio cache : Yes
Make use of C2 pointers : No

Read offset correction : 6
Overread into Lead-In and Lead-Out : No
Fill up missing offset samples with silence : Yes
Delete leading and trailing silent blocks : No
Null samples used in CRC calculations : Yes
Used interface : Installed external ASPI interface

Used output format : User Defined Encoder
Selected bitrate : 128 kBit/s
Quality : High
Add ID3 tag : Yes
Command line compressor : C:\Program Files (x86)\Exact Audio Copy\Flac\flac.exe
Additional command line options : -V -8 -T "Date=%year%" -T "Genre=%genre%" %source%


TOC of the extracted CD

Track | Start | Length | Start sector | End sector
––––––––––––––––––––––––––––-
1 | 0:00.00 | 3:49.28 | 0 | 17202
2 | 3:49.28 | 3:20.45 | 17203 | 32247


Range status and errors

Selected range

Filename G:\CD\Queen - Singles Collection 1 CD1.wav

Peak level 99.1 %
Extraction speed 3.6 X
Range quality 99.9 %
Test CRC 3890FB36
Copy CRC 3890FB36
Copy OK

No errors occurred


AccurateRip summary

Track 1 accurately ripped (confidence 9) [56A6B4D8] (AR v2)
Track 2 accurately ripped (confidence 9) [23163C07] (AR v2)

All tracks accurately ripped

End of status report

–– CUETools DB Plugin V2.1.4

[CTDB TOCID: KQ8Yf20rvrIRHlg7htpcxCqlWI4-] found
Submit result: KQ8Yf20rvrIRHlg7htpcxCqlWI4- has been confirmed
Track | CTDB Status
1 | (5/5) Accurately ripped
2 | (5/5) Accurately ripped


==== Log checksum 7CE7947C42CC1B12003CE0F13DB6F0265910BC0F058F3F524EEF228C57F2F88E ====


Tracklist CD2 - Seven Seas Of Rhye:
Sleeve design based on the original 7" released in Portugal, February 1974

01. Seven Seas Of Rhye - 2:51
02. See What A Fool I've Been - 4:29

Exact Audio Copy V1.0 beta 4 from 7. December 2014

EAC extraction logfile from 7. January 2015, 21:30

Queen / Singles Collection 1 CD2 - Seven Seas Of Rhye (2008, 50999 243358 2 9)

Used drive : ATAPI iHAS124 B Adapter: 1 ID: 0

Read mode : Secure
Utilize accurate stream : Yes
Defeat audio cache : Yes
Make use of C2 pointers : No

Read offset correction : 6
Overread into Lead-In and Lead-Out : No
Fill up missing offset samples with silence : Yes
Delete leading and trailing silent blocks : No
Null samples used in CRC calculations : Yes
Used interface : Installed external ASPI interface

Used output format : User Defined Encoder
Selected bitrate : 128 kBit/s
Quality : High
Add ID3 tag : Yes
Command line compressor : C:\Program Files (x86)\Exact Audio Copy\Flac\flac.exe
Additional command line options : -V -8 -T "Date=%year%" -T "Genre=%genre%" %source%


TOC of the extracted CD

Track | Start | Length | Start sector | End sector
––––––––––––––––––––––––––––-
1 | 0:00.00 | 2:51.19 | 0 | 12843
2 | 2:51.19 | 4:29.19 | 12844 | 33037


Range status and errors

Selected range

Filename G:\CD\Queen - Singles Collection 1 CD2.wav

Peak level 99.1 %
Extraction speed 4.1 X
Range quality 100.0 %
Test CRC 9CFA6AF1
Copy CRC 9CFA6AF1
Copy OK

No errors occurred


AccurateRip summary

Track 1 accurately ripped (confidence 8) [68B613B3] (AR v2)
Track 2 accurately ripped (confidence 9) [E95C0DC3] (AR v2)

All tracks accurately ripped

End of status report

–– CUETools DB Plugin V2.1.4

[CTDB TOCID: IV2BSP_SF_U5lejuG.EwL4b__q4-] found
Submit result: IV2BSP_SF_U5lejuG.EwL4b__q4- has been confirmed
Track | CTDB Status
1 | (5/5) Accurately ripped
2 | (5/5) Accurately ripped


==== Log checksum 52F813BFFFC0CA6BD43A8C5A0F850D7D931DB6C028E7B5071363F4816907CB48 ====


Tracklist CD3 - Killer Queen:
Sleeve design based on the original 7" released in Belgium, October 1974

01. Killer Queen - 3:03
02. Flick Of The Wrist - 3:19

Exact Audio Copy V1.0 beta 4 from 7. December 2014

EAC extraction logfile from 7. January 2015, 21:40

Queen / Singles Collection 1 CD3 - Killer Queen (2008, 50999 243358 2 9)

Used drive : ATAPI iHAS124 B Adapter: 1 ID: 0

Read mode : Secure
Utilize accurate stream : Yes
Defeat audio cache : Yes
Make use of C2 pointers : No

Read offset correction : 6
Overread into Lead-In and Lead-Out : No
Fill up missing offset samples with silence : Yes
Delete leading and trailing silent blocks : No
Null samples used in CRC calculations : Yes
Used interface : Installed external ASPI interface

Used output format : User Defined Encoder
Selected bitrate : 128 kBit/s
Quality : High
Add ID3 tag : Yes
Command line compressor : C:\Program Files (x86)\Exact Audio Copy\Flac\flac.exe
Additional command line options : -V -8 -T "Date=%year%" -T "Genre=%genre%" %source%


TOC of the extracted CD

Track | Start | Length | Start sector | End sector
––––––––––––––––––––––––––––-
1 | 0:00.00 | 3:02.43 | 0 | 13692
2 | 3:02.43 | 3:18.51 | 13693 | 28593


Range status and errors

Selected range

Filename G:\CD\Queen - Singles Collection 1 CD3.wav

Peak level 99.1 %
Extraction speed 2.1 X
Range quality 100.0 %
Test CRC FB6CB669
Copy CRC FB6CB669
Copy OK

No errors occurred


AccurateRip summary

Track 1 accurately ripped (confidence 8) [6EBB27B8] (AR v2)
Track 2 accurately ripped (confidence 8) [BEF4A502] (AR v2)

All tracks accurately ripped

End of status report

–– CUETools DB Plugin V2.1.4

[CTDB TOCID: lEAdQdC6G5iC_J6C_mMIYib8O_k-] found
Submit result: lEAdQdC6G5iC_J6C_mMIYib8O_k- has been confirmed
Track | CTDB Status
1 | (6/6) Accurately ripped
2 | (6/6) Accurately ripped


==== Log checksum F6EA012B134BA4A7998DD3567173CD49761AFA84FB1EE3A4299F845CF9AD835D ====


Tracklist CD4 - Now I'm Here:
Sleeve design based on the original 7" released in Spain, January 1975

01. Now I'm Here - 4:16
02. Lily Of The Valley - 1:40

Exact Audio Copy V1.0 beta 4 from 7. December 2014

EAC extraction logfile from 7. January 2015, 21:50

Queen / Singles Collection 1 CD4 - Now I'm Here (2008, 50999 243358 2 9)

Used drive : ATAPI iHAS124 B Adapter: 1 ID: 0

Read mode : Secure
Utilize accurate stream : Yes
Defeat audio cache : Yes
Make use of C2 pointers : No

Read offset correction : 6
Overread into Lead-In and Lead-Out : No
Fill up missing offset samples with silence : Yes
Delete leading and trailing silent blocks : No
Null samples used in CRC calculations : Yes
Used interface : Installed external ASPI interface

Used output format : User Defined Encoder
Selected bitrate : 128 kBit/s
Quality : High
Add ID3 tag : Yes
Command line compressor : C:\Program Files (x86)\Exact Audio Copy\Flac\flac.exe
Additional command line options : -V -8 -T "Date=%year%" -T "Genre=%genre%" %source%


TOC of the extracted CD

Track | Start | Length | Start sector | End sector
––––––––––––––––––––––––––––-
1 | 0:00.00 | 4:15.57 | 0 | 19181
2 | 4:15.57 | 1:40.23 | 19182 | 26704


Range status and errors

Selected range

Filename G:\CD\Queen - Singles Collection 1 CD4.wav

Peak level 89.4 %
Extraction speed 3.8 X
Range quality 100.0 %
Test CRC 71E1C162
Copy CRC 71E1C162
Copy OK

No errors occurred


AccurateRip summary

Track 1 accurately ripped (confidence 8) [531819E6] (AR v2)
Track 2 accurately ripped (confidence 8) [474BBC48] (AR v2)

All tracks accurately ripped

End of status report

–– CUETools DB Plugin V2.1.4

[CTDB TOCID: Ne8_G1YvuZIBvqiVTYcscMkbi.w-] found
Submit result: Ne8_G1YvuZIBvqiVTYcscMkbi.w- has been confirmed
Track | CTDB Status
1 | (5/5) Accurately ripped
2 | (5/5) Accurately ripped


==== Log checksum B273B841DD743B7429D5864D6987ABCC0C6DDA2E8A737D5644D5CD8985CA8080 ====


Tracklist CD5 - Bohemian Rhapsody:
Sleeve design based on the special edition promotional 7" released in UK, July 1978

01. Bohemian Rhapsody - 5:56
02. I'm In Love With My Car - 3:13

Exact Audio Copy V1.0 beta 4 from 7. December 2014

EAC extraction logfile from 7. January 2015, 21:57

Queen / Singles Collection 1 CD5 - Bohemian Rhapsody (2008, 50999 243358 2 9)

Used drive : ATAPI iHAS124 B Adapter: 1 ID: 0

Read mode : Secure
Utilize accurate stream : Yes
Defeat audio cache : Yes
Make use of C2 pointers : No

Read offset correction : 6
Overread into Lead-In and Lead-Out : No
Fill up missing offset samples with silence : Yes
Delete leading and trailing silent blocks : No
Null samples used in CRC calculations : Yes
Used interface : Installed external ASPI interface

Used output format : User Defined Encoder
Selected bitrate : 128 kBit/s
Quality : High
Add ID3 tag : Yes
Command line compressor : C:\Program Files (x86)\Exact Audio Copy\Flac\flac.exe
Additional command line options : -V -8 -T "Date=%year%" -T "Genre=%genre%" %source%


TOC of the extracted CD

Track | Start | Length | Start sector | End sector
––––––––––––––––––––––––––––-
1 | 0:00.00 | 5:55.67 | 0 | 26691
2 | 5:55.67 | 3:12.46 | 26692 | 41137


Range status and errors

Selected range

Filename G:\CD\Queen - Singles Collection 1 CD5.wav

Peak level 88.7 %
Extraction speed 4.1 X
Range quality 100.0 %
Test CRC B4C3C1E2
Copy CRC B4C3C1E2
Copy OK

No errors occurred


AccurateRip summary

Track 1 accurately ripped (confidence 8) [049AE6C2] (AR v2)
Track 2 accurately ripped (confidence 8) [B1D2B998] (AR v2)

All tracks accurately ripped

End of status report

–– CUETools DB Plugin V2.1.4

[CTDB TOCID: A2KDqgpZ174tY2pq8Izx.Z1EkrI-] found
Submit result: A2KDqgpZ174tY2pq8Izx.Z1EkrI- has been confirmed
Track | CTDB Status
1 | (5/5) Accurately ripped
2 | (5/5) Accurately ripped


==== Log checksum C29B5D206E32AF654DC13ECD82723A0EB21C8C1C139EFFCAA6DA64E683453445 ====


Tracklist CD6 - You're My Best Friend:
Sleeve design based on the original 7" released in Germany, June 1976

01. You're My Best Friend - 2:52
02. '39 - 3:31

Exact Audio Copy V1.0 beta 4 from 7. December 2014

EAC extraction logfile from 7. January 2015, 22:08

Queen / Singles Collection 1 CD6 - You're My Best Friend (2008, 50999 243358 2 9)

Used drive : ATAPI iHAS124 B Adapter: 1 ID: 0

Read mode : Secure
Utilize accurate stream : Yes
Defeat audio cache : Yes
Make use of C2 pointers : No

Read offset correction : 6
Overread into Lead-In and Lead-Out : No
Fill up missing offset samples with silence : Yes
Delete leading and trailing silent blocks : No
Null samples used in CRC calculations : Yes
Used interface : Installed external ASPI interface

Used output format : User Defined Encoder
Selected bitrate : 128 kBit/s
Quality : High
Add ID3 tag : Yes
Command line compressor : C:\Program Files (x86)\Exact Audio Copy\Flac\flac.exe
Additional command line options : -V -8 -T "Date=%year%" -T "Genre=%genre%" %source%


TOC of the extracted CD

Track | Start | Length | Start sector | End sector
––––––––––––––––––––––––––––-
1 | 0:00.00 | 2:52.20 | 0 | 12919
2 | 2:52.20 | 3:30.64 | 12920 | 28733


Range status and errors

Selected range

Filename G:\CD\Queen - Singles Collection 1 CD6.wav

Peak level 93.7 %
Extraction speed 3.4 X
Range quality 99.9 %
Test CRC 9B7A8270
Copy CRC 9B7A8270
Copy OK

No errors occurred


AccurateRip summary

Track 1 accurately ripped (confidence 9) [C18E9649] (AR v2)
Track 2 accurately ripped (confidence 9) [0E463FAD] (AR v2)

All tracks accurately ripped

End of status report

–– CUETools DB Plugin V2.1.4

[CTDB TOCID: iiKy08McGwhuhoHvkVIktqbWQx4-] found
Submit result: iiKy08McGwhuhoHvkVIktqbWQx4- has been confirmed
Track | CTDB Status
1 | (5/5) Accurately ripped
2 | (5/5) Accurately ripped


==== Log checksum 64A2D0A70DAFA94E72205F596CE8A41C5DB96D5E313429EA44C138A18B019FC6 ====


Tracklist CD7 - Somebody To Love:
Sleeve design based on the original 7" released in UK, November 1976

01. Somebody To Love - 4:59
02. White Man - 5:01

Exact Audio Copy V1.0 beta 4 from 7. December 2014

EAC extraction logfile from 7. January 2015, 22:16

Queen / Singles Collection 1 CD7 - Somebody To Love (2008, 50999 243358 2 9)

Used drive : ATAPI iHAS124 B Adapter: 1 ID: 0

Read mode : Secure
Utilize accurate stream : Yes
Defeat audio cache : Yes
Make use of C2 pointers : No

Read offset correction : 6
Overread into Lead-In and Lead-Out : No
Fill up missing offset samples with silence : Yes
Delete leading and trailing silent blocks : No
Null samples used in CRC calculations : Yes
Used interface : Installed external ASPI interface

Used output format : User Defined Encoder
Selected bitrate : 128 kBit/s
Quality : High
Add ID3 tag : Yes
Command line compressor : C:\Program Files (x86)\Exact Audio Copy\Flac\flac.exe
Additional command line options : -V -8 -T "Date=%year%" -T "Genre=%genre%" %source%


TOC of the extracted CD

Track | Start | Length | Start sector | End sector
––––––––––––––––––––––––––––-
1 | 0:00.00 | 4:58.65 | 0 | 22414
2 | 4:58.65 | 5:00.63 | 22415 | 44977


Range status and errors

Selected range

Filename G:\CD\Queen - Singles Collection 1 CD7.wav

Peak level 88.0 %
Extraction speed 4.2 X
Range quality 100.0 %
Test CRC FA4994FB
Copy CRC FA4994FB
Copy OK

No errors occurred


AccurateRip summary

Track 1 accurately ripped (confidence 8) [35CC1634] (AR v2)
Track 2 accurately ripped (confidence 8) [0A3305A4] (AR v2)

All tracks accurately ripped

End of status report

–– CUETools DB Plugin V2.1.4

[CTDB TOCID: vU1iTcpeXq49t2WDmnqYMiy5bvg-] found
Submit result: vU1iTcpeXq49t2WDmnqYMiy5bvg- has been confirmed
Track | CTDB Status
1 | (5/5) Accurately ripped
2 | (5/5) Accurately ripped


==== Log checksum 5DA2CD108FD7C18A4905FC0BC7D68F68F07B827C25D78A471F5A52174E99DF6F ====


Tracklist CD8 - Tie Your Mother Down:
Sleeve design based on the original 7" released in Holland, March 1977

01. Tie Your Mother Down - 3:47
02. You And I - 3:26

Exact Audio Copy V1.0 beta 4 from 7. December 2014

EAC extraction logfile from 7. January 2015, 22:24

Queen / Singles Collection 1 CD8 - Tie Your Mother Down (2008, 50999 243358 2 9)

Used drive : ATAPI iHAS124 B Adapter: 1 ID: 0

Read mode : Secure
Utilize accurate stream : Yes
Defeat audio cache : Yes
Make use of C2 pointers : No

Read offset correction : 6
Overread into Lead-In and Lead-Out : No
Fill up missing offset samples with silence : Yes
Delete leading and trailing silent blocks : No
Null samples used in CRC calculations : Yes
Used interface : Installed external ASPI interface

Used output format : User Defined Encoder
Selected bitrate : 128 kBit/s
Quality : High
Add ID3 tag : Yes
Command line compressor : C:\Program Files (x86)\Exact Audio Copy\Flac\flac.exe
Additional command line options : -V -8 -T "Date=%year%" -T "Genre=%genre%" %source%


TOC of the extracted CD

Track | Start | Length | Start sector | End sector
––––––––––––––––––––––––––––-
1 | 0:00.00 | 3:47.34 | 0 | 17058
2 | 3:47.34 | 3:25.43 | 17059 | 32476


Range status and errors

Selected range

Filename G:\CD\Queen - Singles Collection 1 CD8.wav

Peak level 84.0 %
Extraction speed 4.0 X
Range quality 100.0 %
Test CRC AC4D63E3
Copy CRC AC4D63E3
Copy OK

No errors occurred


AccurateRip summary

Track 1 accurately ripped (confidence 8) [AAB58D3A] (AR v2)
Track 2 accurately ripped (confidence 8) [4988D209] (AR v2)

All tracks accurately ripped

End of status report

–– CUETools DB Plugin V2.1.4

[CTDB TOCID: B_jASZKoalC7VYYoiRqfE2EzSSI-] found
Submit result: B_jASZKoalC7VYYoiRqfE2EzSSI- has been confirmed
Track | CTDB Status
1 | (5/5) Accurately ripped
2 | (5/5) Accurately ripped


==== Log checksum E7DDFFFA48126207F33210D20ACDAB31A0D93E07FC5B71A588CECA840B07A61A ====


Tracklist CD9 - Queen's First EP:
Sleeve design based on the original 7" released in UK, May 1977

01. Good Old-Fashioned Loverboy - 2:58
02. Death on Two Legs (Delicated To…) - 3:44
03. Tenement Funster - 2:56
04. White Queen (As It Began) - 4:35

Exact Audio Copy V1.0 beta 4 from 7. December 2014

EAC extraction logfile from 7. January 2015, 22:33

Queen / Singles Collection 1 CD9 - Queen's First EP (2008, 50999 243358 2 9)

Used drive : ATAPI iHAS124 B Adapter: 1 ID: 0

Read mode : Secure
Utilize accurate stream : Yes
Defeat audio cache : Yes
Make use of C2 pointers : No

Read offset correction : 6
Overread into Lead-In and Lead-Out : No
Fill up missing offset samples with silence : Yes
Delete leading and trailing silent blocks : No
Null samples used in CRC calculations : Yes
Used interface : Installed external ASPI interface

Used output format : User Defined Encoder
Selected bitrate : 128 kBit/s
Quality : High
Add ID3 tag : Yes
Command line compressor : C:\Program Files (x86)\Exact Audio Copy\Flac\flac.exe
Additional command line options : -V -8 -T "Date=%year%" -T "Genre=%genre%" %source%


TOC of the extracted CD

Track | Start | Length | Start sector | End sector
––––––––––––––––––––––––––––-
1 | 0:00.00 | 2:58.01 | 0 | 13350
2 | 2:58.01 | 3:43.59 | 13351 | 30134
3 | 6:41.60 | 2:56.21 | 30135 | 43355
4 | 9:38.06 | 4:34.51 | 43356 | 63956


Range status and errors

Selected range

Filename G:\CD\Queen - Singles Collection 1 CD9.wav

Peak level 94.8 %
Extraction speed 4.4 X
Range quality 100.0 %
Test CRC F4E207F9
Copy CRC F4E207F9
Copy OK

No errors occurred


AccurateRip summary

Track 1 accurately ripped (confidence 10) [0FBA7E71] (AR v2)
Track 2 accurately ripped (confidence 10) [3DB91BD3] (AR v2)
Track 3 accurately ripped (confidence 10) [0337F769] (AR v2)
Track 4 accurately ripped (confidence 10) [01F33E54] (AR v2)

All tracks accurately ripped

End of status report

–– CUETools DB Plugin V2.1.4

[CTDB TOCID: 9ZfImVlU854VR4I0W9A6X2cO6r0-] found
Submit result: 9ZfImVlU854VR4I0W9A6X2cO6r0- has been confirmed
Track | CTDB Status
1 | (6/6) Accurately ripped
2 | (6/6) Accurately ripped
3 | (6/6) Accurately ripped
4 | (6/6) Accurately ripped


==== Log checksum 1882E725C9844258C209AEFAE6DB625BDDB1DFE41D8BA8C5614A468700578DB7 ====


Tracklist CD10 - We Are The Champions:
Sleeve design based on the original 7" released in Japan, November 1977

01. We Are The Champions - 3:04
02. We Will Rock You - 2:02

Exact Audio Copy V1.0 beta 4 from 7. December 2014

EAC extraction logfile from 7. January 2015, 22:41

Queen / Singles Collection 1 CD10 - We Are The Champions (2008, 50999 243358 2 9)

Used drive : ATAPI iHAS124 B Adapter: 1 ID: 0

Read mode : Secure
Utilize accurate stream : Yes
Defeat audio cache : Yes
Make use of C2 pointers : No

Read offset correction : 6
Overread into Lead-In and Lead-Out : No
Fill up missing offset samples with silence : Yes
Delete leading and trailing silent blocks : No
Null samples used in CRC calculations : Yes
Used interface : Installed external ASPI interface

Used output format : User Defined Encoder
Selected bitrate : 128 kBit/s
Quality : High
Add ID3 tag : Yes
Command line compressor : C:\Program Files (x86)\Exact Audio Copy\Flac\flac.exe
Additional command line options : -V -8 -T "Date=%year%" -T "Genre=%genre%" %source%


TOC of the extracted CD

Track | Start | Length | Start sector | End sector
––––––––––––––––––––––––––––-
1 | 0:00.00 | 3:04.20 | 0 | 13819
2 | 3:04.20 | 2:02.08 | 13820 | 22977


Range status and errors

Selected range

Filename G:\CD\Queen - Singles Collection 1 CD10.wav

Peak level 83.3 %
Extraction speed 2.0 X
Range quality 100.0 %
Test CRC 50A5153F
Copy CRC 50A5153F
Copy OK

No errors occurred


AccurateRip summary

Track 1 accurately ripped (confidence 8) [AD2203C2] (AR v2)
Track 2 accurately ripped (confidence 8) [2CEDE736] (AR v2)

All tracks accurately ripped

End of status report

–– CUETools DB Plugin V2.1.4

[CTDB TOCID: EQpg5Qjw_Dpe01oLywZ0zpheSfs-] found
Submit result: EQpg5Qjw_Dpe01oLywZ0zpheSfs- has been confirmed
Track | CTDB Status
1 | (5/5) Accurately ripped
2 | (5/5) Accurately ripped


==== Log checksum C308A44B809D5BC080481BB752BC8EFED348BB80FA4B5EB4C00CAC58E5468D34 ====


Tracklist CD11 - Spread your wings:
Sleeve design based on the original 7" released in France, February 1978

01. Spread Your Wings - 4:35
02. Sheer Heart Attack - 3:26

Exact Audio Copy V1.0 beta 4 from 7. December 2014

EAC extraction logfile from 7. January 2015, 22:46

Queen / Singles Collection 1 CD11 - Spread your wings (2008, 50999 243358 2 9)

Used drive : ATAPI iHAS124 B Adapter: 1 ID: 0

Read mode : Secure
Utilize accurate stream : Yes
Defeat audio cache : Yes
Make use of C2 pointers : No

Read offset correction : 6
Overread into Lead-In and Lead-Out : No
Fill up missing offset samples with silence : Yes
Delete leading and trailing silent blocks : No
Null samples used in CRC calculations : Yes
Used interface : Installed external ASPI interface

Used output format : User Defined Encoder
Selected bitrate : 128 kBit/s
Quality : High
Add ID3 tag : Yes
Command line compressor : C:\Program Files (x86)\Exact Audio Copy\Flac\flac.exe
Additional command line options : -V -8 -T "Date=%year%" -T "Genre=%genre%" %source%


TOC of the extracted CD

Track | Start | Length | Start sector | End sector
––––––––––––––––––––––––––––-
1 | 0:00.00 | 4:35.15 | 0 | 20639
2 | 4:35.15 | 3:25.59 | 20640 | 36073


Range status and errors

Selected range

Filename G:\CD\Queen - Singles Collection 1 CD11.wav

Peak level 87.4 %
Extraction speed 4.0 X
Range quality 100.0 %
Test CRC A5B299ED
Copy CRC A5B299ED
Copy OK

No errors occurred


AccurateRip summary

Track 1 accurately ripped (confidence 7) [0C9BB0A0] (AR v2)
Track 2 accurately ripped (confidence 7) [FBCDA37D] (AR v2)

All tracks accurately ripped

End of status report

–– CUETools DB Plugin V2.1.4

[CTDB TOCID: hoiOwocbTdkUp3YRm5NhL7K0ZZA-] found
Submit result: hoiOwocbTdkUp3YRm5NhL7K0ZZA- has been confirmed
Track | CTDB Status
1 | (5/5) Accurately ripped
2 | (5/5) Accurately ripped


==== Log checksum B79A9CF6F50E6992B2EBA3F066478A58D28A7FF3E7FC5C1AD3E52B4AF773DDFD ====


Tracklist CD12 - Bicycle Race:
Sleeve design based on the original 7" released in Hungary, October 1978

01. Bicycle Race - 3:03
02. Fat Bottomed Girls - 3:23

Exact Audio Copy V1.0 beta 4 from 7. December 2014

EAC extraction logfile from 7. January 2015, 23:11

Queen / Singles Collection 1 CD12 - Bicycle Race (2008, 50999 243358 2 9)

Used drive : ATAPI iHAS124 B Adapter: 1 ID: 0

Read mode : Secure
Utilize accurate stream : Yes
Defeat audio cache : Yes
Make use of C2 pointers : No

Read offset correction : 6
Overread into Lead-In and Lead-Out : No
Fill up missing offset samples with silence : Yes
Delete leading and trailing silent blocks : No
Null samples used in CRC calculations : Yes
Used interface : Installed external ASPI interface

Used output format : User Defined Encoder
Selected bitrate : 128 kBit/s
Quality : High
Add ID3 tag : Yes
Command line compressor : C:\Program Files (x86)\Exact Audio Copy\Flac\flac.exe
Additional command line options : -V -8 -T "Date=%year%" -T "Genre=%genre%" %source%


TOC of the extracted CD

Track | Start | Length | Start sector | End sector
––––––––––––––––––––––––––––-
1 | 0:00.00 | 3:02.62 | 0 | 13711
2 | 3:02.62 | 3:23.34 | 13712 | 28970


Range status and errors

Selected range

Filename G:\CD\Queen - Singles Collection 1 CD12.wav

Peak level 94.6 %
Extraction speed 2.1 X
Range quality 100.0 %
Test CRC 4814BC9F
Copy CRC 4814BC9F
Copy OK

No errors occurred


AccurateRip summary

Track 1 accurately ripped (confidence 7) [F5D6CA09] (AR v2)
Track 2 accurately ripped (confidence 7) [53E674F1] (AR v2)

All tracks accurately ripped

End of status report

–– CUETools DB Plugin V2.1.4

[CTDB TOCID: w8n2mibHxdcfi.lXwgaVFmEki_E-] found
Submit result: w8n2mibHxdcfi.lXwgaVFmEki_E- has been confirmed
Track | CTDB Status
1 | (5/5) Accurately ripped
2 | (5/5) Accurately ripped


==== Log checksum F0DDC63BDE414AF9AB5855D3B5D5E6A1965842871AC484CE42D066DBE6B64F23 ====


Tracklist CD13 - Don't Stop Me Now:
Sleeve design based on the original 7" released in UK, January 1979

01. Don't Stop Me Now - 3:32
02. In Only Seven Days - 2:31

Exact Audio Copy V1.0 beta 4 from 7. December 2014

EAC extraction logfile from 7. January 2015, 23:20

Queen / Singles Collection 1 CD13 - Don't Stop Me Now (2008, 50999 243358 2 9)

Used drive : ATAPI iHAS124 B Adapter: 1 ID: 0

Read mode : Secure
Utilize accurate stream : Yes
Defeat audio cache : Yes
Make use of C2 pointers : No

Read offset correction : 6
Overread into Lead-In and Lead-Out : No
Fill up missing offset samples with silence : Yes
Delete leading and trailing silent blocks : No
Null samples used in CRC calculations : Yes
Used interface : Installed external ASPI interface

Used output format : User Defined Encoder
Selected bitrate : 128 kBit/s
Quality : High
Add ID3 tag : Yes
Command line compressor : C:\Program Files (x86)\Exact Audio Copy\Flac\flac.exe
Additional command line options : -V -8 -T "Date=%year%" -T "Genre=%genre%" %source%


TOC of the extracted CD

Track | Start | Length | Start sector | End sector
––––––––––––––––––––––––––––-
1 | 0:00.00 | 3:31.46 | 0 | 15870
2 | 3:31.46 | 2:31.19 | 15871 | 27214


Range status and errors

Selected range

Filename G:\CD\Queen - Singles Collection 1 CD13.wav

Peak level 89.3 %
Extraction speed 3.3 X
Range quality 99.9 %
Test CRC 1861DCEA
Copy CRC 1861DCEA
Copy OK

No errors occurred


AccurateRip summary

Track 1 accurately ripped (confidence 8) [EBFB3B89] (AR v2)
Track 2 accurately ripped (confidence 8) [BC006944] (AR v2)

All tracks accurately ripped

End of status report

–– CUETools DB Plugin V2.1.4

[CTDB TOCID: GzQfpv5qeq3eF_lLPR2Ms7FeMrw-] found
Submit result: GzQfpv5qeq3eF_lLPR2Ms7FeMrw- has been confirmed
Track | CTDB Status
1 | (5/5) Accurately ripped
2 | (5/5) Accurately ripped


==== Log checksum BD92F6563A48429880531F329144936720E9FC5FE29FB7C1C6235647C7BAB575 ====


Queen - Singles Collection 1 (2008) [13CD Box Set] Re-up

All thanks go to gerrV

Queen in my Blog

Download Queen - Singles Collection 1 (2008):