Subcategories

Queen - Live Killers (1979)

Posted By: v3122
Queen - Live Killers (1979)

Queen - Live Killers (1979)
EAC | Flac(Image) + Cue + Log & MP3 CBR 320Kbps
1991 | 2CD | Hollywood, HR-61066-2 | ~ 616 or 213 Mb | Scans(jpg) -> 32 Mb
Progressive Hard Rock / Classic Rock / Pop Rock

By 1979, Queen was considered among rock's elite class, and rightfully so. With a string of hit albums, singles, and sold-out tours to their credit, the group was about to enter a new musical phase of its career with 1980's mega-hit The Game. And since bootleg copies of their concerts were fetching exorbitant prices among their fans, what better way to close phase one but with their first official live double album, Live Killers. For reasons unknown, the record was criticized harshly when it was first released, but listening to it today, it is an excellent document of Queen at the height of their '70s arena rock powers. Including selections from their debut, 1973's Queen, up until 1978's Jazz, the album is a solid mix of early hits and forgotten album tracks, all given new life in the concert setting while the zealous crowd often sings along. A different, more up-tempo version of "We Will Rock You" opens the album, starting things off in grand style. Other hard rock highlights soon follow, such as "Keep Yourself Alive," "Don't Stop Me Now," "Now I'm Here," "Bohemian Rhapsody," "Spread Your Wings," "Brighton Rock" (complete with an outstanding Brian May guitar solo), and a medley that contains such tracks as "Killer Queen" and "Bicycle Race," among others. The band also shows its softer side with such material as "Dreamer's Ball," "Love of My Life," and "'39," while ending things on a triumphant note with "We Will Rock You"/"We Are the Champions."

by Greg Prato, AMG
Queen - Live Killers (1979)


Queen - Live Killers (1979):

Queen - Live Killers (1979)

Tracklist CD1:

01. We Will Rock You - 3:17
02. Let Me Entertain You - 3:17
03. Death on Two Legs - 3:33
04. Killer Queen - 1:58
05. Bicycle Race - 1:29
06. I'm in Love With My Car - 2:01
07. Get Down, Make Love - 4:31
08. You're My Best Friend - 2:10
09. Now I'm Here - 8:43
10. Dreamer's Ball - 3:42
11. Love of My Life - 4:59
12. '39 - 3:27
13. Keep Yourself Alive - 4:00

Exact Audio Copy V1.0 beta 3 from 29. August 2011

EAC extraction logfile from 4. December 2014, 21:52

Queen / Live Killers CD1 (HR-61066-2)

Used drive : ATAPI iHAS124 B Adapter: 1 ID: 0

Read mode : Secure
Utilize accurate stream : Yes
Defeat audio cache : Yes
Make use of C2 pointers : No

Read offset correction : 6
Overread into Lead-In and Lead-Out : No
Fill up missing offset samples with silence : Yes
Delete leading and trailing silent blocks : No
Null samples used in CRC calculations : Yes
Used interface : Installed external ASPI interface

Used output format : User Defined Encoder
Selected bitrate : 128 kBit/s
Quality : High
Add ID3 tag : Yes
Command line compressor : C:\Program Files (x86)\Exact Audio Copy\Flac\flac.exe
Additional command line options : -V -8 -T "Date=%year%" -T "Genre=%genre%" %source%


TOC of the extracted CD

Track | Start | Length | Start sector | End sector
––––––––––––––––––––––––––––-
1 | 0:00.00 | 3:16.63 | 0 | 14762
2 | 3:16.63 | 3:16.62 | 14763 | 29524
3 | 6:33.50 | 3:33.18 | 29525 | 45517
4 | 10:06.68 | 1:58.28 | 45518 | 54395
5 | 12:05.21 | 1:29.29 | 54396 | 61099
6 | 13:34.50 | 2:01.37 | 61100 | 70211
7 | 15:36.12 | 4:31.20 | 70212 | 90556
8 | 20:07.32 | 2:10.32 | 90557 | 100338
9 | 22:17.64 | 8:42.50 | 100339 | 139538
10 | 31:00.39 | 3:42.07 | 139539 | 156195
11 | 34:42.46 | 4:59.22 | 156196 | 178642
12 | 39:41.68 | 3:26.47 | 178643 | 194139
13 | 43:08.40 | 4:00.36 | 194140 | 212175


Range status and errors

Selected range

Filename G:\CD\Queen - Live Killers CD1.wav

Peak level 100.0 %
Extraction speed 5.9 X
Range quality 99.9 %
Test CRC 81663007
Copy CRC 81663007
Copy OK

No errors occurred


AccurateRip summary

Track 1 accurately ripped (confidence 10) [33B39533] (AR v2)
Track 2 accurately ripped (confidence 10) [E4A40C48] (AR v2)
Track 3 accurately ripped (confidence 10) [F62F2AB5] (AR v2)
Track 4 accurately ripped (confidence 10) [F1BD906C] (AR v2)
Track 5 accurately ripped (confidence 10) [6EC301CA] (AR v2)
Track 6 accurately ripped (confidence 10) [3B86F9DB] (AR v2)
Track 7 accurately ripped (confidence 10) [1A083DC7] (AR v2)
Track 8 accurately ripped (confidence 10) [33F62B3A] (AR v2)
Track 9 accurately ripped (confidence 10) [60276F20] (AR v2)
Track 10 accurately ripped (confidence 10) [881A619C] (AR v2)
Track 11 accurately ripped (confidence 10) [4BE162BE] (AR v2)
Track 12 accurately ripped (confidence 10) [06A0DBAA] (AR v2)
Track 13 accurately ripped (confidence 10) [E6B616EF] (AR v2)

All tracks accurately ripped

End of status report

–– CUETools DB Plugin V2.1.3

[CTDB TOCID: 1u7NhD3mPFknCHmTgnwnSXai5oA-] found, Submit result: 1u7NhD3mPFknCHmTgnwnSXai5oA- has been confirmed
[2e772574] (4/4) Accurately ripped


==== Log checksum D28AFA4F2E2414F9986CC28B11D1FF7FC3D1C4D25F30A15E95EE5401B2449480 ====

foobar2000 1.2.9 / Dynamic Range Meter 1.1.1
log date: 2016-06-17 12:56:06

––––––––––––––––––––––––––––––––––––––––
Analyzed: Queen / Live Killers CD1 (1991, 2CD, Hollywood, USA, HR-61066-2)
––––––––––––––––––––––––––––––––––––––––

DR Peak RMS Duration Track
––––––––––––––––––––––––––––––––––––––––
DR12 0.00 dB -13.63 dB 3:17 01-We Will Rock You
DR11 -0.40 dB -13.34 dB 3:17 02-Let Me Entertain You
DR12 0.00 dB -14.85 dB 3:33 03-Death on Two Legs
DR13 -3.25 dB -19.13 dB 1:58 04-Killer Queen
DR12 -0.55 dB -15.88 dB 1:29 05-Bicycle Race
DR12 0.00 dB -13.88 dB 2:01 06-I'm in Love With My Car
DR12 -0.11 dB -15.83 dB 4:31 07-Get Down, Make Love
DR11 -0.86 dB -14.31 dB 2:10 08-You're My Best Friend
DR11 0.00 dB -13.84 dB 8:43 09-Now I'm Here
DR13 -1.58 dB -18.09 dB 3:42 10-Dreamer's Ball
DR11 0.00 dB -15.16 dB 4:59 11-Love of My Life
DR14 -0.43 dB -17.50 dB 3:27 12-'39
DR11 -1.20 dB -15.49 dB 4:00 13-Keep Yourself Alive
––––––––––––––––––––––––––––––––––––––––

Number of tracks: 13
Official DR value: DR12

Samplerate: 44100 Hz
Channels: 2
Bits per sample: 16
Bitrate: 940 kbps
Codec: FLAC

[CUETools log; Date: 31.12.2015 19:05:41; Version: 2.1.4]
[CTDB TOCID: 1u7NhD3mPFknCHmTgnwnSXai5oA-] found.
Track | CTDB Status
1 | (12/12) Accurately ripped
2 | (12/12) Accurately ripped
3 | (12/12) Accurately ripped
4 | (12/12) Accurately ripped
5 | (12/12) Accurately ripped
6 | (12/12) Accurately ripped
7 | (12/12) Accurately ripped
8 | (12/12) Accurately ripped
9 | (12/12) Accurately ripped
10 | (12/12) Accurately ripped
11 | (12/12) Accurately ripped
12 | (12/12) Accurately ripped
13 | (12/12) Accurately ripped
[AccurateRip ID: 00148e20-00d2b68b-c10b0d0d] found.
Track [ CRC | V2 ] Status
01 [327141f7|33b39533] (00+21/21) Accurately ripped
02 [ba143bc8|e4a40c48] (00+21/21) Accurately ripped
03 [95ec22b2|f62f2ab5] (00+21/21) Accurately ripped
04 [6f388d2e|f1bd906c] (00+21/21) Accurately ripped
05 [f4b59670|6ec301ca] (00+21/21) Accurately ripped
06 [afea26bd|3b86f9db] (00+21/21) Accurately ripped
07 [3666e481|1a083dc7] (00+21/21) Accurately ripped
08 [faf5126f|33f62b3a] (00+21/21) Accurately ripped
09 [2ecdd274|60276f20] (00+21/21) Accurately ripped
10 [4c7862c4|881a619c] (00+21/21) Accurately ripped
11 [e458003d|4be162be] (00+21/21) Accurately ripped
12 [f013fd46|06a0dbaa] (00+21/21) Accurately ripped
13 [30dc28a6|e6b616ef] (00+21/21) Accurately ripped

Track Peak [ CRC32 ] [W/O NULL] [ LOG ]
– 99,9 [81663007] [43F4A631] CRC32
01 99,9 [50E48787] [9B6FAAB4]
02 95,5 [0C43F060] [F9DE9749]
03 99,9 [8D18740A] [B41908EF]
04 68,7 [399FADE7] [02FA3FC5]
05 93,8 [2F91EF33] [DA4329BF]
06 99,9 [420CC776] [8505100B]
07 98,7 [52F844A8] [1778C496]
08 90,6 [EAC6BE54] [F92E91E5]
09 99,9 [1EAB1AF1] [AF10D075]
10 83,3 [E962561C] [AD8A5DFE]
11 99,9 [513D8C6F] [732D150F]
12 95,1 [50AE3A7E] [A06A559D]
13 87,1 [B8849F79] [0A91F91A]

Queen - Live Killers (1979)

Tracklist CD2:

01. Don't Stop Me Now - 4:28
02. Spread Your Wings - 5:16
03. Brighton Rock - 12:17
04. Bohemian Rhapsody - 6:01
05. Tie Your Mother Down - 3:42
06. Sheer Heart Attack - 3:36
07. We Will Rock You - 2:48
08. We Are The Champions - 3:28
09. God Save The Queen - 1:33

Exact Audio Copy V1.0 beta 3 from 29. August 2011

EAC extraction logfile from 4. December 2014, 22:08

Queen / Live Killers CD2 (HR-61066-2)

Used drive : ATAPI iHAS124 B Adapter: 1 ID: 0

Read mode : Secure
Utilize accurate stream : Yes
Defeat audio cache : Yes
Make use of C2 pointers : No

Read offset correction : 6
Overread into Lead-In and Lead-Out : No
Fill up missing offset samples with silence : Yes
Delete leading and trailing silent blocks : No
Null samples used in CRC calculations : Yes
Used interface : Installed external ASPI interface

Used output format : User Defined Encoder
Selected bitrate : 128 kBit/s
Quality : High
Add ID3 tag : Yes
Command line compressor : C:\Program Files (x86)\Exact Audio Copy\Flac\flac.exe
Additional command line options : -V -8 -T "Date=%year%" -T "Genre=%genre%" %source%


TOC of the extracted CD

Track | Start | Length | Start sector | End sector
––––––––––––––––––––––––––––-
1 | 0:00.33 | 4:28.12 | 33 | 20144
2 | 4:28.45 | 5:15.40 | 20145 | 43809
3 | 9:44.10 | 12:16.70 | 43810 | 99079
4 | 22:01.05 | 6:01.30 | 99080 | 126184
5 | 28:02.35 | 3:41.60 | 126185 | 142819
6 | 31:44.20 | 3:35.58 | 142820 | 159002
7 | 35:20.03 | 2:48.17 | 159003 | 171619
8 | 38:08.20 | 3:27.55 | 171620 | 187199
9 | 41:36.00 | 1:32.60 | 187200 | 194159


Range status and errors

Selected range

Filename G:\CD\Queen - Live Killers CD2.wav

Peak level 94.0 %
Extraction speed 5.9 X
Range quality 100.0 %
Test CRC F6AE9FE7
Copy CRC F6AE9FE7
Copy OK

No errors occurred


AccurateRip summary

Track 1 accurately ripped (confidence 10) [E9D585AB] (AR v2)
Track 2 accurately ripped (confidence 10) [78D1ABF7] (AR v2)
Track 3 accurately ripped (confidence 10) [C68BA9D3] (AR v2)
Track 4 accurately ripped (confidence 10) [29B6BEE2] (AR v2)
Track 5 accurately ripped (confidence 10) [623D0870] (AR v2)
Track 6 accurately ripped (confidence 10) [E1282613] (AR v2)
Track 7 accurately ripped (confidence 10) [4245320D] (AR v2)
Track 8 accurately ripped (confidence 10) [ECC65772] (AR v2)
Track 9 accurately ripped (confidence 10) [BB468FE3] (AR v2)

All tracks accurately ripped

End of status report

–– CUETools DB Plugin V2.1.3

[CTDB TOCID: 09OWf8wOheIMQLVPyRBzS92ZDcI-] found, Submit result: discs with pregaps not supported in this protocol version
[f618f624] (41/41) Differs in 0 samples @
You can use CUETools to repair this rip.


==== Log checksum 449C9139C8A97E9843737EAD20BD57BB0A19D818F1E574C37916FB91AF6AAA2A ====

foobar2000 1.2.9 / Dynamic Range Meter 1.1.1
log date: 2016-06-17 12:56:18

––––––––––––––––––––––––––––––––––––––––
Analyzed: Queen / Live Killers CD2 (1991, 2CD, Hollywood, USA, HR-61066-2)
––––––––––––––––––––––––––––––––––––––––

DR Peak RMS Duration Track
––––––––––––––––––––––––––––––––––––––––
DR11 -0.54 dB -13.94 dB 4:28 01-Don't Stop Me Now
DR12 -0.54 dB -15.77 dB 5:16 02-Spread Your Wings
DR12 -0.54 dB -16.11 dB 12:17 03-Brighton Rock
DR12 -0.54 dB -16.26 dB 6:01 04-Bohemian Rhapsody
DR10 -0.54 dB -12.64 dB 3:42 05-Tie Your Mother Down
DR11 -0.54 dB -13.24 dB 3:36 06-Sheer Heart Attack
DR11 -0.54 dB -13.13 dB 2:48 07-We Will Rock You
DR11 -0.54 dB -14.80 dB 3:28 08-We Are The Champions
DR8 -1.65 dB -13.65 dB 1:33 09-God Save The Queen
––––––––––––––––––––––––––––––––––––––––

Number of tracks: 9
Official DR value: DR11

Samplerate: 44100 Hz
Channels: 2
Bits per sample: 16
Bitrate: 910 kbps
Codec: FLAC

[CUETools log; Date: 31.12.2015 19:05:46; Version: 2.1.4]
Pregap length 00:00:33.
[CTDB TOCID: 09OWf8wOheIMQLVPyRBzS92ZDcI-] found.
Track | CTDB Status
1 | (30/30) Accurately ripped
2 | (30/30) Accurately ripped
3 | (29/30) Accurately ripped
4 | (30/30) Accurately ripped
5 | (30/30) Accurately ripped
6 | (30/30) Accurately ripped
7 | (30/30) Accurately ripped
8 | (30/30) Accurately ripped
9 | (30/30) Accurately ripped
[AccurateRip ID: 001174f8-007ca36b-750a1c09] found.
Track [ CRC | V2 ] Status
01 [c17dd121|e9d585ab] (00+19/90) Accurately ripped
02 [6310034f|78d1abf7] (00+19/90) Accurately ripped
03 [35cdf299|c68ba9d3] (00+19/89) Accurately ripped
04 [f1e7125a|29b6bee2] (00+19/90) Accurately ripped
05 [f2ee5f5c|623d0870] (00+19/91) Accurately ripped
06 [164a774a|e1282613] (00+19/91) Accurately ripped
07 [311b136b|4245320d] (00+19/90) Accurately ripped
08 [dabe1533|ecc65772] (00+19/91) Accurately ripped
09 [9d228f3e|bb468fe3] (00+19/89) Accurately ripped

Track Peak [ CRC32 ] [W/O NULL] [ LOG ]
– 94,0 [F6AE9FE7] [6CC61F91] CRC32
01 94,0 [94D275BD] [CD7B17EB]
02 94,0 [276416E3] [5F736AA6]
03 94,0 [CD167868] [28C0888B]
04 94,0 [D6FBFEB0] [6E56C812]
05 94,0 [2B11D931] [FF5CE105]
06 94,0 [A7299A34] [AC7FCAF7]
07 94,0 [32D4183B] [AE2D5CB5]
08 94,0 [C8D97978] [1478AC9C]
09 82,6 [9180C1E4] [398DD01D]

Queen - Live Killers (1979)

All thanks go to gerrV

Queen in my Blog

Download Queen - Live Killers (1979):