Subcategories

Queen - News Of The World (1977) [MFSL, 1993] (Repost)

Posted By: gribovar
Queen - News Of The World (1977) [MFSL, 1993] (Repost)

Queen - News Of The World (1977) [MFSL, 1993]
EAC Rip | WavPack (image+.cue+log) - 286 MB | MP3 CBR 320 kbps (LAME 3.93) - 118 MB | Covers included
Genre: Rock | RAR 3% Rec. | Label: Mobile Fidelity Sound Lab (UDCD 588)

If Day at the Races was a sleek, streamlined album, its 1977 successor, News of the World, was its polar opposite, an explosion of styles that didn't seem to hold to any particular center. It's front-loaded with two of Queen's biggest anthems - the stomping, stadium-filling chant "We Will Rock You" and its triumphant companion, "We Are the Champions" - which are quickly followed by the ferocious "Sheer Heart Attack," a frenzied rocker that hits harder than anything on the album that shares its name (a remarkable achievement in itself). Three songs, three quick shifts in mood, but that's hardly the end of it. As the News rolls on, you're treated to the arch, campy crooning of "My Melancholy Blues," a shticky blues shuffle in "Sleeping on the Sidewalk," and breezy Latin rhythms on "Who Needs You." Then there's the neo-disco of "Fight from the Inside," which is eclipsed by the mechanical funk of "Get Down, Make Love," a dirty grind that's stripped of sensuality. That cold streak on "Get Down, Make Love" runs through the album as a whole. Despite the explosion of sounds and rhythms, this album doesn't add up to party thanks to that slightly distancing chilly vibe that hangs over the album. Nevertheless, many of these songs work well on their own as entities, so there is plenty to savor here, especially from Brian May. Whether he's doing the strangely subdued eccentric English pop "All Dead, All Dead" or especially the majestic yet nimble rocker "It's Late," he turns in work that gives this album some lightness, which it needs. And that's the reason News of the World was a monster hit despite its coldness - when it works, it's massive, earth-shaking rock & roll, the sound of a band beginning to revel in its superstardom.
Tracklist:
01. We Will Rock You
02. We Are The Champions
03. Sheer Heart Attack
04. All Dead, All Dead
05. Spread Your Wings
06. Fight From The Inside
07. Get Down, Make Love
08. Sleeping On The Sidewalk
09. Who Needs You
10. It's Late
11. My Melancholy Blues

Total time: 39:29

EAC extraction logfile from 19. June 2007, 15:37 for CD
Queen / News Of The World (MFSL)

Used drive : PIONEER DVD-RW DVR-109 Adapter: 0 ID: 0
Read mode : Secure with NO C2, accurate stream, disable cache
Read offset correction : 48
Overread into Lead-In and Lead-Out : No

Used output format : Internal WAV Routines
44.100 Hz; 16 Bit; Stereo

Other options :
Fill up missing offset samples with silence : Yes
Delete leading and trailing silent blocks : No
Installed external ASPI interface


Range status and errors
Selected range
Filename D:\New Folder (2)\Share\2007\Queen - News Of The World (MFSL).wav

Peak level 100.0 %
Range quality 100.0 %
CRC 9B171F26
Copy OK

No errors occured

End of status report

[CUETools log; Date: 13.04.2012 11:00:00; Version: 2.0.9]
Pregap length 00:00:37.
[CTDB TOCID: UUbMdjJ0Hv9utV2jr4vtrHq39eE-] found.
[ CTDBID ] Status
[c976213c] (2/2) Has pregap length 00:00:00
[AccurateRip ID: 000ef053-0084b15e-8809410b] found.
Track [ CRC ] Status
01 [d41c9cd9] (30/40) Accurately ripped
02 [169cff22] (30/40) Accurately ripped
03 [8ca71992] (29/39) Accurately ripped
04 [2de5686c] (29/39) Accurately ripped
05 [5dada176] (29/39) Accurately ripped
06 [5b05caa1] (29/39) Accurately ripped
07 [6781ec32] (29/39) Accurately ripped
08 [4ee479b9] (29/39) Accurately ripped
09 [539bf4c1] (29/39) Accurately ripped
10 [12bb686a] (29/39) Accurately ripped
11 [74cb875f] (29/39) Accurately ripped
Offsetted by 30:
01 [8ac0815f] (03/40) Accurately ripped
02 [764c505c] (03/40) Accurately ripped
03 [c2be8876] (03/39) Accurately ripped
04 [a9040bd2] (03/39) Accurately ripped
05 [67c38dc8] (03/39) Accurately ripped
06 [d0cd8003] (03/39) Accurately ripped
07 [75dc7e65] (03/39) Accurately ripped
08 [b3f76e68] (03/39) Accurately ripped
09 [18840783] (03/39) Accurately ripped
10 [bda2f0b6] (03/39) Accurately ripped
11 [8f651f51] (03/39) Accurately ripped

Track Peak [ CRC32 ] [W/O NULL] [ LOG ]
– 100,0 [9B171F26] [BD473822] CRC32
01 79,5 [7280C5BF] [66290773]
02 94,3 [7CAED5AA] [35C5C10D]
03 100,0 [51CF3AF8] [10709E35]
04 82,3 [C965C1F9] [1A1B0AC1]
05 100,0 [301AFFD0] [FE002FD5]
06 89,1 [70A798FD] [85C26148]
07 99,9 [FC1CB817] [AECF154F]
08 85,8 [C1D1D1C2] [C9FD0275]
09 72,7 [E7E9177A] [83A107BA]
10 95,8 [CFAFF5D4] [C77C1F63]
11 69,5 [B11197B1] [F3403B4E]

Thanks to LAI671

More MFSL releases from my blog:
MFSL releases
LOSSLESS:

Filepost.com

Depositfiles.com
________________

MP3 320 kbps:

Filepost.com

Depositfiles.com