Subcategories

The Randall Harrison Trio featuring Geoffrey Brady & Mark Urness - s/t (2006)

Posted By: TestTickles
The Randall Harrison Trio featuring Geoffrey Brady & Mark Urness - s/t (2006)

The Randal Harrison Trio featuring Geoffrey Brady & Mark Urness - s/t (2006)
EAC Rip | FLAC with CUE and log | scans | 435 mb
MP3 CBR 320kbps | RAR | 166 mb
Genre: jazz

The Randal Harrison Trio featuring Geoffrey Brady & Mark Urness is the 2006 album by The Randal Harrison Trio featuring Geoffrey Brady & Mark Urness. The trio is Harrison, Geoffrey Brady and Mark Urness plus special guests Geoffrey Brady and Mary Urness. It is a String Thing, the string in reference to his violin and "chin cello".

The Randall Harrison Trio featuring Geoffrey Brady & Mark Urness - s/t (2006)

1. Frog Prince
2. Sail Star
3. Sleeping Beauties
4. Happy Latin 176
5. Nioka
6. Gettin' Dizzy
7. Another Year
8. Tangology
9. Passages
10. Needn'tsville
11. Strut This
12. Kiss Me
13. The Ogre
14. Sister Pat

Randal Harrison-violin, chin cello
Geoffrey Brady-drums, percussion
Mark Urness-bass

Engineered by Buzz Kemper
Mastered by Steve Gotcher

EAC extraction logfile from 3. June 2017, 22:00 for CD
The Randal Harrison Trio featuring Geoffrey Brady & Mark Urness / The Randal Harrison Trio featuring Geoffrey Brady & Mark Urness

Used drive : TSSTcorpDVD+-RW TS-H653B Adapter: 2 ID: 0
Read mode : Secure with NO C2, accurate stream, disable cache
Read offset correction : 6
Overread into Lead-In and Lead-Out : No

Used output format : Internal WAV Routines
44.100 Hz; 16 Bit; Stereo

Other options :
Fill up missing offset samples with silence : Yes
Delete leading and trailing silent blocks : No
Native Win32 interface for Win NT & 2000


Track 1
Filename C:\Documents and Settings\cuntfist\Desktop\FLAC's\34\The Randal Harrison Trio featuring Geoffrey Brady & Mark Urness - s-t (2006) [FLAC]\01 - Frog Prince.wav

Pre-gap length 0:00:02.00

Peak level 96.6 %
Track quality 100.0 %
Test CRC 59E51D2C
Copy CRC 59E51D2C
Copy OK

Track 2
Filename C:\Documents and Settings\cuntfist\Desktop\FLAC's\34\The Randal Harrison Trio featuring Geoffrey Brady & Mark Urness - s-t (2006) [FLAC]\02 - Sail Star.wav

Pre-gap length 0:00:01.12

Peak level 96.6 %
Track quality 100.0 %
Test CRC 6AAF61FD
Copy CRC 6AAF61FD
Copy OK

Track 3
Filename C:\Documents and Settings\cuntfist\Desktop\FLAC's\34\The Randal Harrison Trio featuring Geoffrey Brady & Mark Urness - s-t (2006) [FLAC]\03 - Sleeping Beauties.wav

Peak level 96.6 %
Track quality 100.0 %
Test CRC 5C2BE196
Copy CRC 5C2BE196
Copy OK

Track 4
Filename C:\Documents and Settings\cuntfist\Desktop\FLAC's\34\The Randal Harrison Trio featuring Geoffrey Brady & Mark Urness - s-t (2006) [FLAC]\04 - Happy Latin 176.wav

Peak level 96.6 %
Track quality 100.0 %
Test CRC ACEABFF9
Copy CRC ACEABFF9
Copy OK

Track 5
Filename C:\Documents and Settings\cuntfist\Desktop\FLAC's\34\The Randal Harrison Trio featuring Geoffrey Brady & Mark Urness - s-t (2006) [FLAC]\05 - Nioka.wav

Pre-gap length 0:00:00.93

Peak level 96.6 %
Track quality 100.0 %
Test CRC 303E5055
Copy CRC 303E5055
Copy OK

Track 6
Filename C:\Documents and Settings\cuntfist\Desktop\FLAC's\34\The Randal Harrison Trio featuring Geoffrey Brady & Mark Urness - s-t (2006) [FLAC]\06 - Gettin' Dizzy.wav

Pre-gap length 0:00:00.78

Peak level 96.6 %
Track quality 100.0 %
Test CRC D11DA3A2
Copy CRC D11DA3A2
Copy OK

Track 7
Filename C:\Documents and Settings\cuntfist\Desktop\FLAC's\34\The Randal Harrison Trio featuring Geoffrey Brady & Mark Urness - s-t (2006) [FLAC]\07 - Another Year.wav

Pre-gap length 0:00:03.56

Peak level 96.6 %
Track quality 100.0 %
Test CRC B34A4311
Copy CRC B34A4311
Copy OK

Track 8
Filename C:\Documents and Settings\cuntfist\Desktop\FLAC's\34\The Randal Harrison Trio featuring Geoffrey Brady & Mark Urness - s-t (2006) [FLAC]\08 - Tangology.wav

Pre-gap length 0:00:02.49

Peak level 96.6 %
Track quality 100.0 %
Test CRC D9A14FEC
Copy CRC D9A14FEC
Copy OK

Track 9
Filename C:\Documents and Settings\cuntfist\Desktop\FLAC's\34\The Randal Harrison Trio featuring Geoffrey Brady & Mark Urness - s-t (2006) [FLAC]\09 - Passages.wav

Pre-gap length 0:00:01.52

Peak level 96.6 %
Track quality 100.0 %
Test CRC 5A9BF2E2
Copy CRC 5A9BF2E2
Copy OK

Track 10
Filename C:\Documents and Settings\cuntfist\Desktop\FLAC's\34\The Randal Harrison Trio featuring Geoffrey Brady & Mark Urness - s-t (2006) [FLAC]\10 - Needn'tsville.wav

Pre-gap length 0:00:00.82

Peak level 96.6 %
Track quality 100.0 %
Test CRC 3201936D
Copy CRC 3201936D
Copy OK

Track 11
Filename C:\Documents and Settings\cuntfist\Desktop\FLAC's\34\The Randal Harrison Trio featuring Geoffrey Brady & Mark Urness - s-t (2006) [FLAC]\11 - Strut This.wav

Pre-gap length 0:00:01.62

Peak level 96.6 %
Track quality 100.0 %
Test CRC FFD10999
Copy CRC FFD10999
Copy OK

Track 12
Filename C:\Documents and Settings\cuntfist\Desktop\FLAC's\34\The Randal Harrison Trio featuring Geoffrey Brady & Mark Urness - s-t (2006) [FLAC]\12 - Kiss Me.wav

Pre-gap length 0:00:02.66

Peak level 96.6 %
Track quality 100.0 %
Test CRC 57C7326B
Copy CRC 57C7326B
Copy OK

Track 13
Filename C:\Documents and Settings\cuntfist\Desktop\FLAC's\34\The Randal Harrison Trio featuring Geoffrey Brady & Mark Urness - s-t (2006) [FLAC]\13 - The Ogre.wav

Peak level 96.6 %
Track quality 99.9 %
Test CRC A0AB99CA
Copy CRC A0AB99CA
Copy OK

Track 14
Filename C:\Documents and Settings\cuntfist\Desktop\FLAC's\34\The Randal Harrison Trio featuring Geoffrey Brady & Mark Urness - s-t (2006) [FLAC]\14 - Sister Pat.wav

Pre-gap length 0:00:00.34

Peak level 96.6 %
Track quality 100.0 %
Test CRC 80CE9DBE
Copy CRC 80CE9DBE
Copy OK

No errors occured


End of status report


The Randall Harrison Trio featuring Geoffrey Brady & Mark Urness - s/t (2006)