Subcategories

Rare - Killer Cuts (1995) {Nintendo}

Posted By: TestTickles
Rare - Killer Cuts (1995) {Nintendo}

Rare - Killer Cuts (1995) {Nintendo}
EAC Rip | FLAC with CUE and log | scans | 356 mb
MP3 CBR 320kbps | RAR | 118 mb
Genre: electronica, techno, industrial, gaming, video games

Killer Cuts is a 1995 sampler CD released by the Nintendo Company. While it lacks a proper artist credit, Discogs states that this was created by the Rare Production Company. Due to the popularity of this sampler, the CD was reissued a few years later with proper credits and they are listed below.

Rare - Killer Cuts (1995) {Nintendo}

ORIGINAL CREDITS
1. K. I. Feeling (3:45)
2. The Way U Move (3:58)
3. Controlling Transmission (3:56)
4. Oh Yeah (3:23)
5. It’s A Jungle (3:04)
6. Do It Now! (3:55)
7. Full-bore (3:16)
8. The Instinct (4:53)
9. Yo Check This Out! (1:36)
10. Freeze (2:11)
11. Trailblazer (1:50)
12. Tooth & Claw (3:09)
13. Ya Ha Haa (3:00)
14. Rumble (2:11)
15. The Extreme (2:33)
16–29. (silence)
30. Humiliation (0:40)

REISSUE CREDITS
1. Robin Beanland, Faye Newborough - K.I. Feeling
2. Robin Beanland, Chris Sutherland, Faye Newborough - The Way U Move
3. Graeme Norgate - Controlling Transmission
4. Graeme Norgate, Ken Lobb - Oh Yeah
5. Robin Beanland - It’s A Jungle
6. Graeme Norgate - Do It Now!
7. Graeme Norgate - Full Bore
8. Robin Beanland - The Instinct
9. Robin Beanland - Yo Check This Out!
10. Robin Beanland - Freeze
11. Robin Beanland - Trailblazer
12. Robin Beanland - Tooth & Claw
13. Robin Beanland - Ya Ha Haa
14. Robin Beanland - Rumble
15. Robin Beanland - The Extreme
16-29. (silence)
30. Robin Beanland - Humiliation

Exact Audio Copy V1.1 from 23. June 2015

EAC extraction logfile from 14. April 2017, 13:13

Rare / Killer Cuts

Used drive : TEAC DVD-ROM DV-28SW Adapter: 1 ID: 0

Read mode : Secure
Utilize accurate stream : Yes
Defeat audio cache : Yes
Make use of C2 pointers : No

Read offset correction : 6
Overread into Lead-In and Lead-Out : No
Fill up missing offset samples with silence : Yes
Delete leading and trailing silent blocks : No
Null samples used in CRC calculations : Yes
Used interface : Native Win32 interface for Win NT & 2000
Gap handling : Appended to previous track

Used output format : Internal WAV Routines
Sample format : 44.100 Hz; 16 Bit; Stereo


TOC of the extracted CD

Track | Start | Length | Start sector | End sector
––––––––––––––––––––––––––––-
1 | 0:00.00 | 3:45.42 | 0 | 16916
2 | 3:45.42 | 3:58.50 | 16917 | 34816
3 | 7:44.17 | 3:56.30 | 34817 | 52546
4 | 11:40.47 | 3:23.10 | 52547 | 67781
5 | 15:03.57 | 3:04.48 | 67782 | 81629
6 | 18:08.30 | 3:55.45 | 81630 | 99299
7 | 22:04.00 | 3:16.00 | 99300 | 113999
8 | 25:20.00 | 4:53.52 | 114000 | 136026
9 | 30:13.52 | 1:36.23 | 136027 | 143249
10 | 31:50.00 | 2:11.12 | 143250 | 153086
11 | 34:01.12 | 1:50.63 | 153087 | 161399
12 | 35:52.00 | 3:09.22 | 161400 | 175596
13 | 39:01.22 | 3:00.73 | 175597 | 189169
14 | 42:02.20 | 2:11.30 | 189170 | 199024
15 | 44:13.50 | 2:33.25 | 199025 | 210524
16 | 46:47.00 | 0:04.00 | 210525 | 210824
17 | 46:51.00 | 0:04.00 | 210825 | 211124
18 | 46:55.00 | 0:04.00 | 211125 | 211424
19 | 46:59.00 | 0:04.00 | 211425 | 211724
20 | 47:03.00 | 0:04.00 | 211725 | 212024
21 | 47:07.00 | 0:04.00 | 212025 | 212324
22 | 47:11.00 | 0:04.00 | 212325 | 212624
23 | 47:15.00 | 0:04.00 | 212625 | 212924
24 | 47:19.00 | 0:04.00 | 212925 | 213224
25 | 47:23.00 | 0:04.00 | 213225 | 213524
26 | 47:27.00 | 0:04.00 | 213525 | 213824
27 | 47:31.00 | 0:04.00 | 213825 | 214124
28 | 47:35.00 | 0:04.00 | 214125 | 214424
29 | 47:39.00 | 0:05.52 | 214425 | 214851
30 | 47:44.52 | 0:40.11 | 214852 | 217862


Track 1

Filename C:\My Documents\My FLAC\Rare - Killer Cuts (1995) [FLAC] {Nintendo}\01 - K. I. Feeling.wav

Pre-gap length 0:00:02.00

Peak level 92.7 %
Extraction speed 2.6 X
Track quality 100.0 %
Test CRC B8696622
Copy CRC B8696622
Accurately ripped (confidence 57) [4B345457] (AR v2)
Copy OK

Track 2

Filename C:\My Documents\My FLAC\Rare - Killer Cuts (1995) [FLAC] {Nintendo}\02 - The Way U Move.wav

Peak level 96.5 %
Extraction speed 2.8 X
Track quality 100.0 %
Test CRC D635BA47
Copy CRC D635BA47
Accurately ripped (confidence 54) [D99609FE] (AR v2)
Copy OK

Track 3

Filename C:\My Documents\My FLAC\Rare - Killer Cuts (1995) [FLAC] {Nintendo}\03 - Controlling Transmission.wav

Peak level 93.7 %
Extraction speed 2.9 X
Track quality 99.9 %
Test CRC AED99BC5
Copy CRC AED99BC5
Accurately ripped (confidence 55) [7372BFA4] (AR v2)
Copy OK

Track 4

Filename C:\My Documents\My FLAC\Rare - Killer Cuts (1995) [FLAC] {Nintendo}\04 - Oh Yeah.wav

Peak level 91.1 %
Extraction speed 3.5 X
Track quality 100.0 %
Test CRC 4F06E713
Copy CRC 4F06E713
Accurately ripped (confidence 55) [10AF6DD5] (AR v2)
Copy OK

Track 5

Filename C:\My Documents\My FLAC\Rare - Killer Cuts (1995) [FLAC] {Nintendo}\05 - It's A Jungle.wav

Peak level 98.4 %
Extraction speed 3.7 X
Track quality 100.0 %
Test CRC 959FEF03
Copy CRC 959FEF03
Accurately ripped (confidence 57) [F9BD8EA2] (AR v2)
Copy OK

Track 6

Filename C:\My Documents\My FLAC\Rare - Killer Cuts (1995) [FLAC] {Nintendo}\06 - Do It Now!.wav

Peak level 88.2 %
Extraction speed 4.0 X
Track quality 100.0 %
Test CRC F71345DB
Copy CRC F71345DB
Accurately ripped (confidence 53) [09F32228] (AR v2)
Copy OK

Track 7

Filename C:\My Documents\My FLAC\Rare - Killer Cuts (1995) [FLAC] {Nintendo}\07 - Full-Bore.wav

Peak level 96.4 %
Extraction speed 4.0 X
Track quality 100.0 %
Test CRC EA1808B6
Copy CRC EA1808B6
Accurately ripped (confidence 53) [80C0CE7A] (AR v2)
Copy OK

Track 8

Filename C:\My Documents\My FLAC\Rare - Killer Cuts (1995) [FLAC] {Nintendo}\08 - The Instinct.wav

Peak level 99.1 %
Extraction speed 4.5 X
Track quality 100.0 %
Test CRC B58FF6E8
Copy CRC B58FF6E8
Accurately ripped (confidence 56) [EB8ADD7A] (AR v2)
Copy OK

Track 9

Filename C:\My Documents\My FLAC\Rare - Killer Cuts (1995) [FLAC] {Nintendo}\09 - Yo Check This Out!.wav

Peak level 83.5 %
Extraction speed 3.7 X
Track quality 100.0 %
Test CRC 1552CACA
Copy CRC 1552CACA
Accurately ripped (confidence 54) [245361DB] (AR v2)
Copy OK

Track 10

Filename C:\My Documents\My FLAC\Rare - Killer Cuts (1995) [FLAC] {Nintendo}\10 - Freeze.wav

Peak level 85.4 %
Extraction speed 3.2 X
Track quality 99.9 %
Test CRC E7EDB860
Copy CRC E7EDB860
Accurately ripped (confidence 52) [522BDD4F] (AR v2)
Copy OK

Track 11

Filename C:\My Documents\My FLAC\Rare - Killer Cuts (1995) [FLAC] {Nintendo}\11 - Trailblazer.wav

Peak level 88.2 %
Extraction speed 4.0 X
Track quality 100.0 %
Test CRC 0B676720
Copy CRC 0B676720
Accurately ripped (confidence 54) [4409D8AB] (AR v2)
Copy OK

Track 12

Filename C:\My Documents\My FLAC\Rare - Killer Cuts (1995) [FLAC] {Nintendo}\12 - Tooth & Claw.wav

Peak level 81.8 %
Extraction speed 4.7 X
Track quality 100.0 %
Test CRC D058C131
Copy CRC D058C131
Accurately ripped (confidence 53) [E297A37E] (AR v2)
Copy OK

Track 13

Filename C:\My Documents\My FLAC\Rare - Killer Cuts (1995) [FLAC] {Nintendo}\13 - Ya Ha Haa.wav

Peak level 97.1 %
Extraction speed 4.7 X
Track quality 100.0 %
Test CRC E5BB69AA
Copy CRC E5BB69AA
Accurately ripped (confidence 54) [293C40E7] (AR v2)
Copy OK

Track 14

Filename C:\My Documents\My FLAC\Rare - Killer Cuts (1995) [FLAC] {Nintendo}\14 - Rumble.wav

Peak level 90.7 %
Extraction speed 4.5 X
Track quality 100.0 %
Test CRC D979DD2F
Copy CRC D979DD2F
Accurately ripped (confidence 55) [C6A836D5] (AR v2)
Copy OK

Track 15

Filename C:\My Documents\My FLAC\Rare - Killer Cuts (1995) [FLAC] {Nintendo}\15 - The Extreme.wav

Peak level 98.0 %
Extraction speed 3.8 X
Track quality 99.9 %
Test CRC 60466105
Copy CRC 60466105
Accurately ripped (confidence 52) [BED8BF7E] (AR v2)
Copy OK

Track 16

Filename C:\My Documents\My FLAC\Rare - Killer Cuts (1995) [FLAC] {Nintendo}\16 - (silence).wav

Peak level 0.0 %
Extraction speed 0.2 X
Track quality 97.2 %
Test CRC 02864C0E
Copy CRC 02864C0E
Track not present in AccurateRip database
Copy OK

Track 17

Filename C:\My Documents\My FLAC\Rare - Killer Cuts (1995) [FLAC] {Nintendo}\17 - (silence).wav

Peak level 0.0 %
Extraction speed 0.2 X
Track quality 97.2 %
Test CRC 02864C0E
Copy CRC 02864C0E
Track not present in AccurateRip database
Copy OK

Track 18

Filename C:\My Documents\My FLAC\Rare - Killer Cuts (1995) [FLAC] {Nintendo}\18 - (silence).wav

Peak level 0.0 %
Extraction speed 0.2 X
Track quality 97.2 %
Test CRC 02864C0E
Copy CRC 02864C0E
Track not present in AccurateRip database
Copy OK

Track 19

Filename C:\My Documents\My FLAC\Rare - Killer Cuts (1995) [FLAC] {Nintendo}\19 - (silence).wav

Peak level 0.0 %
Extraction speed 0.2 X
Track quality 97.2 %
Test CRC 02864C0E
Copy CRC 02864C0E
Track not present in AccurateRip database
Copy OK

Track 20

Filename C:\My Documents\My FLAC\Rare - Killer Cuts (1995) [FLAC] {Nintendo}\20 - (silence).wav

Peak level 0.0 %
Extraction speed 0.2 X
Track quality 97.2 %
Test CRC 02864C0E
Copy CRC 02864C0E
Track not present in AccurateRip database
Copy OK

Track 21

Filename C:\My Documents\My FLAC\Rare - Killer Cuts (1995) [FLAC] {Nintendo}\21 - (silence).wav

Peak level 0.0 %
Extraction speed 0.2 X
Track quality 97.2 %
Test CRC 02864C0E
Copy CRC 02864C0E
Track not present in AccurateRip database
Copy OK

Track 22

Filename C:\My Documents\My FLAC\Rare - Killer Cuts (1995) [FLAC] {Nintendo}\22 - (silence).wav

Peak level 0.0 %
Extraction speed 0.2 X
Track quality 97.2 %
Test CRC 02864C0E
Copy CRC 02864C0E
Track not present in AccurateRip database
Copy OK

Track 23

Filename C:\My Documents\My FLAC\Rare - Killer Cuts (1995) [FLAC] {Nintendo}\23 - (silence).wav

Peak level 0.0 %
Extraction speed 0.2 X
Track quality 97.2 %
Test CRC 02864C0E
Copy CRC 02864C0E
Track not present in AccurateRip database
Copy OK

Track 24

Filename C:\My Documents\My FLAC\Rare - Killer Cuts (1995) [FLAC] {Nintendo}\24 - (silence).wav

Peak level 0.0 %
Extraction speed 0.2 X
Track quality 97.2 %
Test CRC 02864C0E
Copy CRC 02864C0E
Track not present in AccurateRip database
Copy OK

Track 25

Filename C:\My Documents\My FLAC\Rare - Killer Cuts (1995) [FLAC] {Nintendo}\25 - (silence).wav

Peak level 0.0 %
Extraction speed 0.0 X
Track quality 97.2 %
Test CRC 02864C0E
Copy CRC 02864C0E
Track not present in AccurateRip database
Copy OK

Track 26

Filename C:\My Documents\My FLAC\Rare - Killer Cuts (1995) [FLAC] {Nintendo}\26 - (silence).wav

Peak level 0.0 %
Extraction speed 0.2 X
Track quality 97.2 %
Test CRC 02864C0E
Copy CRC 02864C0E
Track not present in AccurateRip database
Copy OK

Track 27

Filename C:\My Documents\My FLAC\Rare - Killer Cuts (1995) [FLAC] {Nintendo}\27 - (silence).wav

Peak level 0.0 %
Extraction speed 0.2 X
Track quality 97.2 %
Test CRC 02864C0E
Copy CRC 02864C0E
Track not present in AccurateRip database
Copy OK

Track 28

Filename C:\My Documents\My FLAC\Rare - Killer Cuts (1995) [FLAC] {Nintendo}\28 - (silence).wav

Peak level 0.0 %
Extraction speed 0.2 X
Track quality 97.2 %
Test CRC 02864C0E
Copy CRC 02864C0E
Track not present in AccurateRip database
Copy OK

Track 29

Filename C:\My Documents\My FLAC\Rare - Killer Cuts (1995) [FLAC] {Nintendo}\29 - (silence).wav

Peak level 0.0 %
Extraction speed 0.8 X
Track quality 100.0 %
Test CRC 3D4041B6
Copy CRC 3D4041B6
Track not present in AccurateRip database
Copy OK

Track 30

Filename C:\My Documents\My FLAC\Rare - Killer Cuts (1995) [FLAC] {Nintendo}\30 - Groovy Humiliation.wav

Peak level 95.1 %
Extraction speed 2.9 X
Track quality 100.0 %
Test CRC 5BEE751B
Copy CRC 5BEE751B
Accurately ripped (confidence 54) [88AD76AF] (AR v2)
Copy OK


16 track(s) accurately ripped
14 track(s) not present in the AccurateRip database

Some tracks could not be verified as accurate

No errors occurred

End of status report

–– CUETools DB Plugin V2.1.6

[CTDB TOCID: NWpof8Ak0HF6EEZhRvg7Rf6PnyI-] found
Submit result: NWpof8Ak0HF6EEZhRvg7Rf6PnyI- has been confirmed
Track | CTDB Status
1 | (87/89) Accurately ripped
2 | (86/89) Accurately ripped
3 | (83/89) Accurately ripped
4 | (85/89) Accurately ripped
5 | (87/89) Accurately ripped
6 | (88/89) Accurately ripped
7 | (88/89) Accurately ripped
8 | (88/89) Accurately ripped
9 | (86/89) Accurately ripped
10 | (83/89) Accurately ripped
11 | (84/89) Accurately ripped
12 | (87/89) Accurately ripped
13 | (85/89) Accurately ripped
14 | (87/89) Accurately ripped
15 | (87/89) Accurately ripped
16 | (89/89) Accurately ripped
17 | (89/89) Accurately ripped
18 | (89/89) Accurately ripped
19 | (89/89) Accurately ripped
20 | (89/89) Accurately ripped
21 | (89/89) Accurately ripped
22 | (89/89) Accurately ripped
23 | (89/89) Accurately ripped
24 | (89/89) Accurately ripped
25 | (89/89) Accurately ripped
26 | (89/89) Accurately ripped
27 | (89/89) Accurately ripped
28 | (89/89) Accurately ripped
29 | (89/89) Accurately ripped
30 | (88/89) Accurately ripped


==== Log checksum E4273146022266A0BB7C43916C41F43A1BC8179C3AD680C43A69B53B319A89FA ====


Rare - Killer Cuts (1995) {Nintendo}