Subcategories

Ray Charles - At Newport (1958) {1998 Atlantic Germany} **[RE-UP]**

Posted By: TestTickles
Ray Charles - At Newport (1958) {1998 Atlantic Germany} **[RE-UP]**

Ray Charles - At Newport (1958) {1998 Atlantic Germany}
EAC Rip | FLAC with CUE and log | scans | 284 mb
MP3 CBR 320kbps | RAR | 118 mb
Genre: R&B, soul, blues, jazz

At Newport is the 1958 live album by the late Ray Charles. Released on Atlantic, while the sticker on the cellophane said "Made In France", the digipak says "Made In Germany". This was made for the Atlantic Original Sound series for the European market and released on 21 October, 1998.

Ray Charles - At Newport (1958) {1998 Atlantic Germany} **[RE-UP]**

1. The Right Time
2. In A Little Spanish Town
3. I Got A Woman
4. Blues Waltz
5. Hot Rod
6. Talkin' 'Bout You
7. Sherry
8. A Fool For You

–-
Ray Charles-vocals, piano & alto sax
Bennio Crawford-baritone sax
David Newman-tenor sax
Lee Harper & Marcus Belgrave-trumpets
Edgar Willis-bass
Richie Goldberg-drums

On "Hot Rod", Ray Charles plays alto sax only

On "The Right Time" and "Talkin' 'Bout You", Ray Charles is joined on the vocals by The Raylettes. The solo girl vocal on "The Right Time" is by Marjorie Hendricks.

This album was recorded in its entirety at The Newport Jazz Festival in Newport, Rhode Island on July 5, 1958 by special arrangement withe Directors of The Newport Jazz Festival.

Recording engineers: Harold Chapman & Tom Dowd
Supervision: Nesuhi Ertegun

CD mastered by Jean Ristori at Mix Mastering Studio, St-Légier, Swizerland

EAC extraction logfile from 21. August 2006, 12:00 for CD
Ray Charles / At Newport (Atlantic Original Sound pressing)

Used drive : LITE-ON DVDRW SOHW-1633S Adapter: 0 ID: 0
Read mode : Secure with NO C2, accurate stream, disable cache
Read offset correction : 12
Overread into Lead-In and Lead-Out : No

Used output format : Internal WAV Routines
44.100 Hz; 16 Bit; Stereo

Other options :
Fill up missing offset samples with silence : Yes
Delete leading and trailing silent blocks : No
Installed external ASPI interface


Track 1
Filename D:\FLAC\Ray Charles - At Newport (1958) [FLAC] {1998 Atlantic Germany}\01 - The Right Time.wav

Pre-gap length 0:00:02.00

Peak level 99.5 %
Track quality 100.0 %
Test CRC 4CE606D3
Copy CRC 4CE606D3
Copy OK

Track 2
Filename D:\FLAC\Ray Charles - At Newport (1958) [FLAC] {1998 Atlantic Germany}\02 - In A Little Spanish Town.wav

Pre-gap length 0:00:00.05

Peak level 99.7 %
Track quality 99.9 %
Test CRC E60B1D2A
Copy CRC E60B1D2A
Copy OK

Track 3
Filename D:\FLAC\Ray Charles - At Newport (1958) [FLAC] {1998 Atlantic Germany}\03 - I Got A Woman.wav

Pre-gap length 0:00:00.12

Peak level 99.6 %
Track quality 100.0 %
Test CRC A5478C90
Copy CRC A5478C90
Copy OK

Track 4
Filename D:\FLAC\Ray Charles - At Newport (1958) [FLAC] {1998 Atlantic Germany}\04 - Blues Waltz.wav

Pre-gap length 0:00:00.12

Peak level 99.8 %
Track quality 100.0 %
Test CRC CFAE35BF
Copy CRC CFAE35BF
Copy OK

Track 5
Filename D:\FLAC\Ray Charles - At Newport (1958) [FLAC] {1998 Atlantic Germany}\05 - Hot Rod.wav

Pre-gap length 0:00:00.44

Peak level 100.0 %
Track quality 99.9 %
Test CRC 6041E065
Copy CRC 6041E065
Copy OK

Track 6
Filename D:\FLAC\Ray Charles - At Newport (1958) [FLAC] {1998 Atlantic Germany}\06 - Talkin' 'Bout You.wav

Pre-gap length 0:00:01.17

Peak level 99.8 %
Track quality 100.0 %
Test CRC 6992E3BA
Copy CRC 6992E3BA
Copy OK

Track 7
Filename D:\FLAC\Ray Charles - At Newport (1958) [FLAC] {1998 Atlantic Germany}\07 - Sherry.wav

Pre-gap length 0:00:00.16

Peak level 99.7 %
Track quality 100.0 %
Test CRC 27A8CE46
Copy CRC 27A8CE46
Copy OK

Track 8
Filename D:\FLAC\Ray Charles - At Newport (1958) [FLAC] {1998 Atlantic Germany}\08 - A Fool For You.wav

Pre-gap length 0:00:00.13

Peak level 99.4 %
Track quality 100.0 %
Test CRC C8D2E6E2
Copy CRC C8D2E6E2
Copy OK

No errors occured


End of status report


Ray Charles - At Newport (1958) {1998 Atlantic Germany} **[RE-UP]**


Check out other titles in my Avaxhome blog