Tags
Language
Tags
January 2023
Su Mo Tu We Th Fr Sa
1 2 3 4 5 6 7
8 9 10 11 12 13 14
15 16 17 18 19 20 21
22 23 24 25 26 27 28
29 30 31 1 2 3 4

R.E.M. - Document (1987) Re-Up

Posted By: popsakov
R.E.M. - Document (1987) Re-Up

R.E.M. - Document (1987)
EAC Rip | FLAC (Img) + Cue + Log ~ 276 Mb | MP3 CBR320 ~ 96 Mb
Full Scans ~ 109 Mb | 00:39:51 | RAR 5% Recovery
Alternative Rock | I.R.S. Records #IRSD-42059

Document is the fifth studio album by the American alternative rock band R.E.M. It was released in 1987 a few months after their rarities collection Dead Letter Office appeared and is the last album of new material by the band released on the I.R.S. Records label. It is the first album on which the band worked with producer Scott Litt.

R.E.M. began to move toward mainstream record production on Lifes Rich Pageant, but they didn't have a commercial breakthrough until the following year's Document. Ironically, Document is a stranger, more varied album than its predecessor, but co-producer Scott Litt – who would go on to produce every R.E.M. album in the following decade – is a better conduit for the band than Don Gehman, giving the group a clean sound without sacrificing their enigmatic tendencies. "Finest Worksong," the stream-of-conscious rant "It's the End of the World as We Know It (And I Feel Fine)," and the surprise Top Ten single "The One I Love" all crackle with muscular rhythms and guitar riffs, but the real surprise is how political the mid-tempo jangle pop of "Welcome to the Occupation," "Disturbance at the Heron House," and "King of Birds" is. Where Lifes Rich Pageant sounded a bit like a party record, Document is a fiery statement, and its memorable melodies and riffs are made all the more indelible by its righteous anger. In other words, it's not only a commercial breakthrough, but a creative breakthrough as well, offering evidence of R.E.M.'s growing depth and maturity, and helping usher in the P.C. era in the process.

~ Stephen Thomas Erlewine, All Music

***************

R.E.M. - Document (1987) Re-Up

R.E.M. - Document (1987) Re-Up

Track List:

01. Finest Worksong [03:51]
02. Welcome To The Occupation [02:49]
03. Exhuming McCarthy [03:22]
04. Disturbance At The Heron House [03:35]
05. Strange [02:34]
06. It's The End Of The World As We Know It (And I Feel Fine) [04:07]
07. The One I Love [03:18]
08. Fireplace [03:25]
09. Lightnin' Hopkins [03:22]
10. King Of Birds [04:11]
11. Oddfellows Local 151 [05:22]

Exact Audio Copy V1.0 beta 6 from 9. April 2015

EAC extraction logfile from 27. December 2015, 11:27

R.E.M. / Document

Used drive : HL-DT-STDVDRAM GH22NS40 Adapter: 1 ID: 0

Read mode : Secure
Utilize accurate stream : Yes
Defeat audio cache : Yes
Make use of C2 pointers : No

Read offset correction : 667
Overread into Lead-In and Lead-Out : No
Fill up missing offset samples with silence : Yes
Delete leading and trailing silent blocks : No
Null samples used in CRC calculations : Yes
Used interface : Native Win32 interface for Win NT & 2000

Used output format : User Defined Encoder
Selected bitrate : 1024 kBit/s
Quality : High
Add ID3 tag : Yes
Command line compressor : C:\Program Files\Exact Audio Copy\Flac\flac.exe
Additional command line options : -V -8 -T "Date=%year%" -T "Genre=%genre%" %source%


TOC of the extracted CD

Track | Start | Length | Start sector | End sector
––––––––––––––––––––––––––––-
1 | 0:00.00 | 3:50.10 | 0 | 17259
2 | 3:50.10 | 2:48.60 | 17260 | 29919
3 | 6:38.70 | 3:21.43 | 29920 | 45037
4 | 10:00.38 | 3:34.10 | 45038 | 61097
5 | 13:34.48 | 2:33.20 | 61098 | 72592
6 | 16:07.68 | 4:07.00 | 72593 | 91117
7 | 20:14.68 | 3:17.70 | 91118 | 105962
8 | 23:32.63 | 3:24.35 | 105963 | 121297
9 | 26:57.23 | 3:21.22 | 121298 | 136394
10 | 30:18.45 | 4:10.28 | 136395 | 155172
11 | 34:28.73 | 5:21.12 | 155173 | 179259


Range status and errors

Selected range

Filename I:\Rips\R.E.M. - Document.wav

Peak level 100.0 %
Extraction speed 1.8 X
Range quality 100.0 %
Test CRC FFBCDFEE
Copy CRC FFBCDFEE
Copy OK

No errors occurred


AccurateRip summary

Track 1 accurately ripped (confidence 3) [4F9B7171] (AR v2)
Track 2 accurately ripped (confidence 3) [1EF7852C] (AR v2)
Track 3 accurately ripped (confidence 3) [9366BBCC] (AR v2)
Track 4 accurately ripped (confidence 3) [6A124DF5] (AR v2)
Track 5 accurately ripped (confidence 3) [3E3D1C5A] (AR v2)
Track 6 accurately ripped (confidence 3) [ECA30949] (AR v2)
Track 7 accurately ripped (confidence 3) [D747097A] (AR v2)
Track 8 accurately ripped (confidence 3) [27A47C61] (AR v2)
Track 9 accurately ripped (confidence 3) [A82A3BE6] (AR v2)
Track 10 accurately ripped (confidence 3) [7C2DDF48] (AR v2)
Track 11 accurately ripped (confidence 3) [78BF9215] (AR v2)

All tracks accurately ripped

End of status report

–– CUETools DB Plugin V2.1.6

[CTDB TOCID: jooUj8hi3e0AGN24IF9o8BmmA_s-] found
Submit result: already submitted
Track | CTDB Status
1 | (51/51) Accurately ripped
2 | (51/51) Accurately ripped
3 | (51/51) Accurately ripped
4 | (51/51) Accurately ripped
5 | (51/51) Accurately ripped
6 | (51/51) Accurately ripped
7 | (51/51) Accurately ripped
8 | (51/51) Accurately ripped
9 | (51/51) Accurately ripped
10 | (51/51) Accurately ripped
11 | (51/51) Accurately ripped


==== Log checksum A37848C1527A8D2A9A1A9CF9907B7CCB47A56B267F334578C38C5E7A7A0D84A6 ====

[CUETools log; Date: 13.01.2016 23:44:29; Version: 2.1.5]
[CTDB TOCID: jooUj8hi3e0AGN24IF9o8BmmA_s-] found.
Track | CTDB Status
1 | (52/53) Accurately ripped
2 | (53/53) Accurately ripped
3 | (53/53) Accurately ripped
4 | (53/53) Accurately ripped
5 | (53/53) Accurately ripped
6 | (53/53) Accurately ripped
7 | (53/53) Accurately ripped
8 | (53/53) Accurately ripped
9 | (53/53) Accurately ripped
10 | (53/53) Accurately ripped
11 | (53/53) Accurately ripped
[AccurateRip ID: 000f7d4c-0086f57a-7509560b] found.
Track [ CRC | V2 ] Status
01 [a5765b11|4f9b7171] (009+003/144) Accurately ripped
02 [c395e5b6|1ef7852c] (009+003/151) Accurately ripped
03 [56713299|9366bbcc] (009+003/149) Accurately ripped
04 [3b1fdb3e|6a124df5] (009+003/151) Accurately ripped
05 [086fe33d|3e3d1c5a] (009+003/149) Accurately ripped
06 [a661562b|eca30949] (009+003/151) Accurately ripped
07 [005fad9b|d747097a] (009+003/151) Accurately ripped
08 [8752706c|27a47c61] (009+003/151) Accurately ripped
09 [abf8ca28|a82a3be6] (009+003/151) Accurately ripped
10 [c83e3260|7c2ddf48] (009+003/149) Accurately ripped
11 [378e178d|78bf9215] (009+003/146) Accurately ripped
Offsetted by -279:
01 [c6ab917b] (006/144) Accurately ripped
02 [549dddc0] (006/151) Accurately ripped
03 [87c4b538] (006/149) Accurately ripped
04 [6a29597b] (006/151) Accurately ripped
05 [80cbb2cd] (006/149) Accurately ripped
06 [c831caa0] (006/151) Accurately ripped
07 [4247f408] (006/151) Accurately ripped
08 [0b8485ae] (006/151) Accurately ripped
09 [3ca2e434] (006/151) Accurately ripped
10 [03a8c077] (006/149) Accurately ripped
11 [1782994b] (006/146) Accurately ripped
Offsetted by -151:
01 [b1edfe7b] (014/144) Accurately ripped
02 [78d89ac0] (014/151) Accurately ripped
03 [416cd8b8] (014/149) Accurately ripped
04 [96a573fb] (014/151) Accurately ripped
05 [45e83acd] (014/149) Accurately ripped
06 [d9b6a120] (014/151) Accurately ripped
07 [03cef408] (014/151) Accurately ripped
08 [356e012e] (014/151) Accurately ripped
09 [937ffa34] (014/151) Accurately ripped
10 [fbab3ff7] (014/149) Accurately ripped
11 [7f37204b] (014/146) Accurately ripped
Offsetted by -29:
01 [a6294e5f] (058/144) Accurately ripped
02 [5b6096e4] (063/151) Accurately ripped
03 [ee611a8e] (061/149) Accurately ripped
04 [610bbd3d] (063/151) Accurately ripped
05 [bdc76c6d] (062/149) Accurately ripped
06 [ba693d92] (063/151) Accurately ripped
07 [a4cc6efa] (063/151) Accurately ripped
08 [1d6e8ad6] (063/151) Accurately ripped
09 [324ab32c] (063/151) Accurately ripped
10 [580da17d] (062/149) Accurately ripped
11 [360f30f7] (060/146) Accurately ripped
Offsetted by -25:
01 [f58361c7] (005/144) Accurately ripped
02 [dc826ccc] (006/151) Accurately ripped
03 [4c2e5baa] (006/149) Accurately ripped
04 [a26f9e11] (006/151) Accurately ripped
05 [9bf050ad] (006/149) Accurately ripped
06 [daf56446] (006/151) Accurately ripped
07 [dad4a6fe] (006/151) Accurately ripped
08 [9ec1d6ae] (006/151) Accurately ripped
09 [ad019bdc] (006/151) Accurately ripped
10 [bfcdb579] (006/149) Accurately ripped
11 [014cd52f] (006/146) Accurately ripped

Track Peak [ CRC32 ] [W/O NULL] [ LOG ]
– 100,0 [FFBCDFEE] [797E0D1D] CRC32
01 100,0 [6C9AD4F3] [377926A0]
02 100,0 [71B44FEE] [B8D8EF10]
03 100,0 [B4F1CF4A] [621C74D1]
04 100,0 [CD063EC2] [96FB33FF]
05 100,0 [FA5DE175] [2309FF5A]
06 100,0 [A23A8D3B] [2A4A1353]
07 92,6 [9E8E1152] [12EDEBC5]
08 100,0 [43A98BD4] [977EF08E]
09 100,0 [A1004E8C] [D788D4DE]
10 84,1 [811E89EB] [06B0D62B]
11 100,0 [C7DC72DD] [DB1CFD7D]

R.E.M. - Document (1987) Re-Up


See also:

R.E.M. - Out Of Time (1991)

All thanks go to powermet

>>> My Blog <<<

DOWNLOAD: