Tags
Language
Tags
April 2024
Su Mo Tu We Th Fr Sa
31 1 2 3 4 5 6
7 8 9 10 11 12 13
14 15 16 17 18 19 20
21 22 23 24 25 26 27
28 29 30 1 2 3 4

R.E.M. - Out Of Time (1991)

Posted By: popsakov
R.E.M. - Out Of Time (1991)

R.E.M. - Out Of Time (1991)
EAC Rip | FLAC (Img) + Cue + Log ~ 307 Mb | MP3 CBR320 ~ 107 Mb
Full Scans ~ 118 Mb | RAR 5% Recovery
Alternative Rock | Warner Bros. Records #W2 26496

Out of Time is the seventh studio album by the American alternative rock band R.E.M., released on Warner Bros. Records in 1991. With Out of Time R.E.M.'s status grew from that of a cult band to a massive international act. The record topped the album sales charts in both the U.S. and the United Kingdom, spending 109 weeks on American album charts and enjoying two separate spells at the summit, and spending 183 weeks on the British charts and a single week at the top. The album has sold over four and a half million copies in the U.S. and over 18 million copies worldwide. The album won three Grammy Awards in 1992: one as Best Alternative Music Album, and two for the first single, "Losing My Religion."

The supporting tour for Green exhausted R.E.M., and they spent nearly a year recuperating before reconvening for Out of Time. Where previous R.E.M. records captured a stripped-down, live sound, Out of Time was lush with sonic detail, featuring string sections, keyboards, mandolins, and cameos from everyone from rapper KRS-One to the B-52's' Kate Pierson. The scope of R.E.M.'s ambitions is impressive, and the record sounds impeccable, its sunny array of pop and folk songs as refreshing as Michael Stipe's decision to abandon explicitly political lyrics for the personal. Several R.E.M. classics – including Mike Mills' Byrds-y "Near Wild Heaven," the haunting "Country Feedback," and the masterpiece "Losing My Religion" – are present, but the album is more notable for its production than its songwriting. Most of the songs are slight but pleasant, or are awkward experiments like "Radio Song"'s stab at funk, and while this sounds fine as the record is playing, there's not much substantive material to make the record worth returning to.

~ Stephen Thomas Erlewine, All Music

***************

R.E.M. - Out Of Time (1991)

R.E.M. - Out Of Time (1991)

Track List:

01. Radio Song [04:16]
02. Losing My Religion [04:29]
03. Low [04:57]
04. Near Wild Heaven [03:20]
05. Endgame [03:51]
06. Shiny Happy People [03:47]
07. Belong [04:07]
08. Half A World Away [03:29]
09. Texarkana [03:40]
10. Country Feedback [04:10]
11. Me In Honey [04:07]

Exact Audio Copy V1.0 beta 6 from 9. April 2015

EAC extraction logfile from 19. December 2015, 15:59

R.E.M. / Out Of Time

Used drive : HL-DT-STDVDRAM GH22NS40 Adapter: 1 ID: 0

Read mode : Secure
Utilize accurate stream : Yes
Defeat audio cache : Yes
Make use of C2 pointers : No

Read offset correction : 667
Overread into Lead-In and Lead-Out : No
Fill up missing offset samples with silence : Yes
Delete leading and trailing silent blocks : No
Null samples used in CRC calculations : Yes
Used interface : Native Win32 interface for Win NT & 2000

Used output format : User Defined Encoder
Selected bitrate : 1024 kBit/s
Quality : High
Add ID3 tag : Yes
Command line compressor : C:\Program Files\Exact Audio Copy\Flac\flac.exe
Additional command line options : -V -8 -T "Date=%year%" -T "Genre=%genre%" %source%


TOC of the extracted CD

Track | Start | Length | Start sector | End sector
––––––––––––––––––––––––––––-
1 | 0:00.32 | 4:15.28 | 32 | 19184
2 | 4:15.60 | 4:28.70 | 19185 | 39354
3 | 8:44.55 | 4:56.52 | 39355 | 61606
4 | 13:41.32 | 3:19.58 | 61607 | 76589
5 | 17:01.15 | 3:50.45 | 76590 | 93884
6 | 20:51.60 | 3:46.15 | 93885 | 110849
7 | 24:38.00 | 4:06.70 | 110850 | 129369
8 | 28:44.70 | 3:28.25 | 129370 | 144994
9 | 32:13.20 | 3:40.00 | 144995 | 161494
10 | 35:53.20 | 4:09.52 | 161495 | 180221
11 | 40:02.72 | 4:06.43 | 180222 | 198714


Range status and errors

Selected range

Filename I:\Rips\R.E.M. - Out Of Time.wav

Peak level 100.0 %
Extraction speed 1.8 X
Range quality 100.0 %
Test CRC 13DF3680
Copy CRC 13DF3680
Copy OK

No errors occurred


AccurateRip summary

Track 1 accurately ripped (confidence 12) [F5A81D2A] (AR v2)
Track 2 accurately ripped (confidence 13) [791F8404] (AR v2)
Track 3 accurately ripped (confidence 13) [9A0CA74F] (AR v2)
Track 4 accurately ripped (confidence 13) [50FB56C7] (AR v2)
Track 5 accurately ripped (confidence 13) [7783EBD0] (AR v2)
Track 6 accurately ripped (confidence 13) [38417823] (AR v2)
Track 7 accurately ripped (confidence 13) [E68BBF79] (AR v2)
Track 8 accurately ripped (confidence 13) [E3A977AB] (AR v2)
Track 9 accurately ripped (confidence 12) [E0F19F9D] (AR v2)
Track 10 accurately ripped (confidence 12) [DA15DDE6] (AR v2)
Track 11 accurately ripped (confidence 12) [D02E7FFA] (AR v2)

All tracks accurately ripped

End of status report

–– CUETools DB Plugin V2.1.6

[CTDB TOCID: 6xKUmHbwQNNUloarYwFgLyguWvk-] found
Submit result: already submitted
Track | CTDB Status
1 | (332/338) Accurately ripped, or (1/338) differs in 112 samples @03:56:03-03:56:04,03:57:34,03:59:31-03:59:32
2 | (332/338) Accurately ripped, or (1/338) differs in 275 samples @02:19:72,03:24:28-03:24:29,03:39:38,03:52:53,04:20:74-04:21:00,04:24:31
3 | (332/338) Accurately ripped, or (1/338) differs in 47 samples @04:49:45
4 | (331/338) Accurately ripped, or (1/338) differs in 3 samples @00:54:60
5 | (332/338) Accurately ripped, or (1/338) differs in 27 samples @03:04:70,03:05:51-03:05:52
6 | (331/338) Accurately ripped, or (1/338) differs in 174 samples @00:01:37-00:01:39,00:06:61-00:06:62,00:17:63,00:23:42,00:33:21,00:37:50,00:39:31,02:09:40-02:09:41
7 | (333/338) Accurately ripped
8 | (335/338) Accurately ripped
9 | (335/338) Accurately ripped
10 | (329/338) Accurately ripped
11 | (331/338) Accurately ripped


==== Log checksum E3923B66C65700011F1186746785B59C4102486C097ECD27070CEC537981FD63 ====

[CUETools log; Date: 23.07.2019 2:24:55; Version: 2.1.6]
Pregap length 00:00:32.
[CTDB TOCID: 6xKUmHbwQNNUloarYwFgLyguWvk-] found.
Track | CTDB Status
1 | (2045/2071) Accurately ripped
2 | (2039/2071) Accurately ripped
3 | (2046/2071) Accurately ripped
4 | (2039/2071) Accurately ripped
5 | (2026/2071) Accurately ripped
6 | (2030/2071) Accurately ripped
7 | (2040/2071) Accurately ripped
8 | (2048/2071) Accurately ripped
9 | (2047/2071) Accurately ripped
10 | (2035/2071) Accurately ripped
11 | (2036/2071) Accurately ripped
[AccurateRip ID: 00128f2d-009f6890-810a590b] found.
Track [ CRC | V2 ] Status
01 [3713d4d5|f5a81d2a] (027+022/1581) Accurately ripped
02 [8254719b|791f8404] (027+023/1590) Accurately ripped
03 [2124c0e9|9a0ca74f] (028+023/1587) Accurately ripped
04 [903cd13b|50fb56c7] (028+023/1588) Accurately ripped
05 [5661cfeb|7783ebd0] (027+023/1584) Accurately ripped
06 [5f849809|38417823] (028+023/1588) Accurately ripped
07 [32621e57|e68bbf79] (028+023/1586) Accurately ripped
08 [c9db963b|e3a977ab] (028+023/1588) Accurately ripped
09 [4940a693|e0f19f9d] (028+022/1585) Accurately ripped
10 [fb57d713|da15dde6] (028+022/1579) Accurately ripped
11 [e3ea330e|d02e7ffa] (027+022/1576) Accurately ripped
Offsetted by -1017:
01 [7c55f8a3] (059/1581) Accurately ripped
02 [e0ba7c87] (061/1590) Accurately ripped
03 [fbc89a76] (060/1587) Accurately ripped
04 [a0a20849] (061/1588) Accurately ripped
05 [9b0b88a4] (060/1584) Accurately ripped
06 [04215155] (060/1588) Accurately ripped
07 [0addb61b] (061/1586) Accurately ripped
08 [de3d4d1d] (061/1588) Accurately ripped
09 [052e333a] (060/1585) Accurately ripped
10 [a92e1a78] (057/1579) Accurately ripped
11 [ac6ce5a2] (054/1576) Accurately ripped
Offsetted by -1010:
01 [f5b12471] (019/1581) Accurately ripped
02 [db0b5773] (019/1590) Accurately ripped
03 [5a6fa003] (019/1587) Accurately ripped
04 [6d2b4757] (019/1588) Accurately ripped
05 [038a3d5d] (019/1584) Accurately ripped
06 [e0c35aa1] (020/1588) Accurately ripped
07 [e35dbddf] (019/1586) Accurately ripped
08 [92953bff] (020/1588) Accurately ripped
09 [052543e1] (020/1585) Accurately ripped
10 [fb0d29dd] (021/1579) Accurately ripped
11 [6cdec836] (019/1576) Accurately ripped
Offsetted by -326:
01 [6c7ddcc9] (004/1581) Accurately ripped
02 [d4313063] (004/1590) Accurately ripped
03 [0d9dbe67] (004/1587) Accurately ripped
04 [a3d758af] (004/1588) Accurately ripped
05 [787981b1] (004/1584) Accurately ripped
06 [f32ee711] (004/1588) Accurately ripped
07 [3d60b4af] (004/1586) Accurately ripped
08 [d66eb367] (004/1588) Accurately ripped
09 [b8979f0d] (004/1585) Accurately ripped
10 [5f9f0a21] (004/1579) Accurately ripped
11 [e17b8d46] (004/1576) Accurately ripped
Offsetted by -218:
01 [05fc80a1] (007/1581) Accurately ripped
02 [c5a2f453] (008/1590) Accurately ripped
03 [e68a140b] (008/1587) Accurately ripped
04 [40af2587] (008/1588) Accurately ripped
05 [e940f845] (008/1584) Accurately ripped
06 [f6177681] (007/1588) Accurately ripped
07 [b7612c7f] (007/1586) Accurately ripped
08 [904dab4f] (007/1588) Accurately ripped
09 [25c49ff9] (007/1585) Accurately ripped
10 [97ebf7a5] (008/1579) Accurately ripped
11 [7aa1c756] (007/1576) Accurately ripped
Offsetted by 17:
01 [a6f13f37] (002/1581) Accurately ripped
02 [bdab178f] (002/1590) Accurately ripped
03 [2b95ce64] (002/1587) Accurately ripped
04 [ca1c6a5d] (002/1588) Accurately ripped
05 [78ba191a] (002/1584) Accurately ripped
06 [2e32ae9d] (002/1588) Accurately ripped
07 [ade23133] (002/1586) Accurately ripped
08 [5b436ca9] (002/1588) Accurately ripped
09 [b6e1cf04] (002/1585) Accurately ripped
10 [0b50fc76] (002/1579) Accurately ripped
11 [b747eb9a] (002/1576) Accurately ripped
Offsetted by 668:
01 [bd10290d] (002/1581) Accurately ripped
02 [ad0a9f4b] (002/1590) Accurately ripped
03 [8e42d29d] (002/1587) Accurately ripped
04 [17f85273] (002/1588) Accurately ripped
05 [6ec1c04f] (002/1584) Accurately ripped
06 [55100f39] (002/1588) Accurately ripped
07 [54650367] (002/1586) Accurately ripped
08 [df3534c3] (002/1588) Accurately ripped
09 [b3a2dbaf] (002/1585) Accurately ripped
10 [c9599427] (002/1579) Accurately ripped
11 [a0a73b5e] (002/1576) Accurately ripped
Offsetted by 698:
01 [a096e4c9] (003/1581) Accurately ripped
02 [701c0063] (003/1590) Accurately ripped
03 [91a0ea67] (003/1587) Accurately ripped
04 [5ffb60af] (003/1588) Accurately ripped
05 [9c4e7db1] (003/1584) Accurately ripped
06 [2b343711] (002/1588) Accurately ripped
07 [3d6524af] (003/1586) Accurately ripped
08 [7664eb67] (003/1588) Accurately ripped
09 [fca1230d] (003/1585) Accurately ripped
10 [03a7d621] (003/1579) Accurately ripped
11 [d96abd46] (003/1576) Accurately ripped
Offsetted by 1143:
01 [7a3ac583] (016/1581) Accurately ripped
02 [bd9dcb47] (016/1590) Accurately ripped
03 [ee3f4b46] (016/1587) Accurately ripped
04 [e17e0929] (016/1588) Accurately ripped
05 [6aa0cc34] (016/1584) Accurately ripped
06 [3e4c8615] (016/1588) Accurately ripped
07 [92e7125b] (016/1586) Accurately ripped
08 [63a8ab3d] (015/1588) Accurately ripped
09 [8cb245aa] (014/1585) Accurately ripped
10 [0f30a8c8] (014/1579) Accurately ripped
11 [a3696ee2] (015/1576) Accurately ripped
Offsetted by 1156:
01 [ede416dd] (200/1581) Accurately ripped
02 [4558866b] (200/1590) Accurately ripped
03 [e72c5595] (200/1587) Accurately ripped
04 [efa17e43] (200/1588) Accurately ripped
05 [75d54067] (200/1584) Accurately ripped
06 [45c29759] (200/1588) Accurately ripped
07 [006720c7] (200/1586) Accurately ripped
08 [69708b73] (200/1588) Accurately ripped
09 [680f6497] (200/1585) Accurately ripped
10 [3985c55f] (200/1579) Accurately ripped
11 [08cf383e] (200/1576) Accurately ripped
Offsetted by 1243:
01 [1b51374b] (200/1581) Accurately ripped
02 [47d7b997] (200/1590) Accurately ripped
03 [a4239a92] (200/1587) Accurately ripped
04 [26dd8df1] (200/1588) Accurately ripped
05 [ad2098d0] (200/1584) Accurately ripped
06 [b2c50ae5] (200/1588) Accurately ripped
07 [f0e7814b] (200/1586) Accurately ripped
08 [0647b6b5] (200/1588) Accurately ripped
09 [d557338e] (200/1585) Accurately ripped
10 [7c3584b4] (200/1579) Accurately ripped
11 [609fca92] (200/1576) Accurately ripped
Offsetted by 1420:
01 [f3528aed] (036/1581) Accurately ripped
02 [938b100b] (035/1590) Accurately ripped
03 [6b3526ed] (036/1587) Accurately ripped
04 [3622c853] (035/1588) Accurately ripped
05 [6d12295f] (035/1584) Accurately ripped
06 [a233f5f9] (035/1588) Accurately ripped
07 [9c6845a7] (035/1586) Accurately ripped
08 [68ae05e3] (035/1588) Accurately ripped
09 [1d99d89f] (035/1585) Accurately ripped
10 [6dd009f7] (035/1579) Accurately ripped
11 [62bae29e] (034/1576) Accurately ripped
Offsetted by 1597:
01 [cb53de8f] (200/1581) Accurately ripped
02 [df3e667f] (200/1590) Accurately ripped
03 [3246b348] (200/1587) Accurately ripped
04 [456802b5] (200/1588) Accurately ripped
05 [2d03b9ee] (200/1584) Accurately ripped
06 [91a2e10d] (200/1588) Accurately ripped
07 [47e90a03] (200/1586) Accurately ripped
08 [cb145511] (200/1588) Accurately ripped
09 [65dc7db0] (200/1585) Accurately ripped
10 [5f6a8f3a] (200/1579) Accurately ripped
11 [64d5faaa] (200/1576) Accurately ripped
Offsetted by 638:
01 [d9896d51] (000/1581) No match (V2 was not tested)
02 [e9f93e33] (000/1590) No match (V2 was not tested)
03 [8ae4bad3] (000/1587) No match (V2 was not tested)
04 [cff54437] (000/1588) No match (V2 was not tested)
05 [413502ed] (000/1584) No match (V2 was not tested)
06 [7eebe761] (000/1588) No match (V2 was not tested)
07 [6b64e21f] (000/1586) No match (V2 was not tested)
08 [48057e1f] (000/1588) No match (V2 was not tested)
09 [6aa49451] (000/1585) No match (V2 was not tested)
10 [8f0b522d] (000/1579) No match (V2 was not tested)
11 [67e3b976] (000/1576) No match (V2 was not tested)
Offsetted by 1107:
01 [9c65e43b] (000/1581) No match (V2 was not tested)
02 [6d2289f7] (000/1590) No match (V2 was not tested)
03 [509b2eba] (000/1587) No match (V2 was not tested)
04 [57e0c4e1] (000/1588) No match (V2 was not tested)
05 [9a5e4f58] (000/1584) No match (V2 was not tested)
06 [3d545645] (000/1588) No match (V2 was not tested)
07 [14e6ea6b] (000/1586) No match (V2 was not tested)
08 [7b090345] (000/1588) No match (V2 was not tested)
09 [684df006] (000/1585) No match (V2 was not tested)
10 [fc6c599c] (000/1579) No match (V2 was not tested)
11 [c5b20632] (000/1576) No match (V2 was not tested)
Offsetted by 1609:
01 [bff029a7] (000/1581) No match
02 [fa1226ef] (000/1590) No match
03 [66d2bccc] (000/1587) No match
04 [c89c6ecd] (000/1588) No match
05 [726f38e2] (000/1584) No match
06 [e74af0fd] (000/1588) No match
07 [71e91753] (000/1586) No match
08 [6df437b9] (000/1588) No match
09 [1ca89a3c] (000/1585) No match
10 [1056a99e] (000/1579) No match
11 [aebdc83a] (000/1576) No match (V2 was not tested)

Track Peak [ CRC32 ] [W/O NULL] [ LOG ]
– 100,0 [13DF3680] [11AA3DBE] CRC32
01 100,0 [CCD741A2] [48DA497B]
02 100,0 [C7A84291] [26F08ABB]
03 100,0 [9A81B581] [F08FC885]
04 100,0 [8F5084AF] [D406A4A3]
05 64,2 [BE97FC04] [C3698359]
06 100,0 [0133A7BE] [F7AAB9FD]
07 100,0 [8F47475F] [999E8979]
08 100,0 [B95666DC] [0F34C44B]
09 100,0 [4D3A374A] [15918ACB]
10 100,0 [7BC312AB] [D0C00C25]
11 100,0 [76A6703A] [013AEAB0]

R.E.M. - Out Of Time (1991)

All thanks go to powermet

>>> My Blog <<<

Download from icerbox.com: