Subcategories

REO Speedwagon - R.E.O./T.W.O (1972) {2011, 40th Anniversary Edition, Remastered, Japan} Repost

Posted By: popsakov
REO Speedwagon - R.E.O./T.W.O (1972) {2011, 40th Anniversary Edition, Remastered, Japan} Repost

REO Speedwagon - R.E.O./T.W.O (1972) {2011, 40th Anniversary Edition, Remastered, Japan}
EAC Rip | FLAC (Img) + Cue + Log ~ 319 Mb | MP3 CBR320 ~ 105 Mb
Full Scans ~ 86 Mb | RAR 5% Recovery
Classic Rock, Boogie Rock, Hard Rock | Epic / Sony Music Japan #EICP-1481

As soon as REO Speedwagon's second album – aptly titled T.W.O. – kicks off with "Let Me Ride," it's clear that the band has made some significant strides in gaining a personality. Part of this is due to singer Terry Luttrell being swapped out for Kevin Cronin, whose keening tenor is markedly different from Luttrell's bluesy gargle, and part is due to three of the songs, dramatic multi-sectioned rockers, being more distinguished than the pedestrian boogie of the debut. That boogie hasn't been abandoned – the group takes the swing out of Chuck Berry's "Little Queenie," which brings it closer to the anonymous thud that characterizes Gary Richrath's "Flash Tan Queen," along with much of the rest of the album. Although REO don't always succeed when opening up their music – "Being Kind (Can Hurt Someone Sometimes)" winds up getting stuck in the murk – Cronin's two side-openers of "Let Me Ride" and "Music Man" point the way toward the group's classic sound.
~ Stephen Thomas Erlewine, All Music

***************

REO Speedwagon - R.E.O./T.W.O (1972) {2011, 40th Anniversary Edition, Remastered, Japan} Repost

Track List:

01. Let Me Ride [5:58]
02. How The Story Goes [3:32]
03. Little Queenie [6:39]
04. Being Kind (Can Hurt Someone Sometimes) [6:05]
05. Music Man [4:34]
06. Like You Do [5:56]
07. Flash Tan Queen [4:20]
08. Golden Country [6:37]

Personnel:
Kevin Cronin - lead vocals, rhythm guitar
Gary Richrath - lead guitar
Neal Doughty - keyboards
Gregg Philbin - bass, backing vocals
Alan Gratzer - drums, backing vocals

Additional personnel:
Boots Randolph - saxophone (track 3)
Kelly Bowen - backing vocals (track 1)
Tomi Lee Bradly - backing vocals (track 1)

Exact Audio Copy V1.0 beta 3 from 29. August 2011

EAC extraction logfile from 15. November 2011, 17:31

REO Speedwagon / R.E.O./T.W.O.

Used drive : HL-DT-STDVDRAM GSA-H60N Adapter: 2 ID: 0

Read mode : Secure
Utilize accurate stream : Yes
Defeat audio cache : Yes
Make use of C2 pointers : No

Read offset correction : 667
Overread into Lead-In and Lead-Out : No
Fill up missing offset samples with silence : Yes
Delete leading and trailing silent blocks : No
Null samples used in CRC calculations : Yes
Used interface : Native Win32 interface for Win NT & 2000

Used output format : Internal WAV Routines
Sample format : 44.100 Hz; 16 Bit; Stereo


TOC of the extracted CD

Track | Start | Length | Start sector | End sector
––––––––––––––––––––––––––––-
1 | 0:00.00 | 5:57.45 | 0 | 26819
2 | 5:57.45 | 3:32.20 | 26820 | 42739
3 | 9:29.65 | 6:39.04 | 42740 | 72668
4 | 16:08.69 | 6:04.53 | 72669 | 100021
5 | 22:13.47 | 4:34.34 | 100022 | 120605
6 | 26:48.06 | 5:55.53 | 120606 | 147283
7 | 32:43.59 | 4:19.62 | 147284 | 166770
8 | 37:03.46 | 6:36.48 | 166771 | 196518


Range status and errors

Selected range

Filename C:\Documents and Settings\Admin\Рабочий стол\REO Speedwagon 40 Anniversary Sony Music Japan 2011\1972 R.E.O - T.W.O\REO Speedwagon - R.E.O. - T.W.O.wav

Peak level 100.0 %
Extraction speed 5.6 X
Range quality 100.0 %
Test CRC FC1F7F32
Copy CRC FC1F7F32
Copy OK

No errors occurred


AccurateRip summary

Track 1 not present in database
Track 2 not present in database
Track 3 not present in database
Track 4 not present in database
Track 5 not present in database
Track 6 not present in database
Track 7 not present in database
Track 8 not present in database

None of the tracks are present in the AccurateRip database

End of status report

==== Log checksum FCB882E415057A6815288D9E958FFB7F18D8A3A7F4E62B619C7701E00BE9C1D4 ====

[CUETools log; Date: 29.10.2018 19:17:59; Version: 2.1.6]
[CTDB TOCID: Dm9EBLSMhboYmrBJVJA8bKWkYlc-] found.
Track | CTDB Status
1 | (8/8) Accurately ripped
2 | (8/8) Accurately ripped
3 | (8/8) Accurately ripped
4 | (8/8) Accurately ripped
5 | (8/8) Accurately ripped
6 | (8/8) Accurately ripped
7 | (8/8) Accurately ripped
8 | (8/8) Accurately ripped
[AccurateRip ID: 000d53d7-0058f5de-640a3c08] found.
Track [ CRC | V2 ] Status
01 [fb1b13e6|34270108] (0+4/4) Accurately ripped
02 [2d37df5b|b027c8ba] (0+4/4) Accurately ripped
03 [32bb86d9|a9b617a8] (0+4/4) Accurately ripped
04 [94766dd3|f57cfe8a] (0+4/4) Accurately ripped
05 [6990f7ef|e978c0a8] (0+4/4) Accurately ripped
06 [775dee51|95691235] (0+4/4) Accurately ripped
07 [546a3654|cbe7cf13] (0+4/4) Accurately ripped
08 [e481ae60|393ba3c1] (0+4/4) Accurately ripped

Track Peak [ CRC32 ] [W/O NULL] [ LOG ]
– 100,0 [FC1F7F32] [789B6E3E] CRC32
01 100,0 [AF0D57EF] [92023F5A]
02 100,0 [17651D6D] [0C01C829]
03 99,9 [5C28BEE6] [E89AADB6]
04 99,9 [647982D9] [A50B83A5]
05 100,0 [9EB8CE73] [B88BA616]
06 99,9 [2777216E] [9E949E7F]
07 100,0 [A1232D6C] [4B0911E1]
08 100,0 [4B33314D] [DA331871]

REO Speedwagon - R.E.O./T.W.O (1972) {2011, 40th Anniversary Edition, Remastered, Japan} Repost

All thanks go to ALLexxess

>>> My Blog <<<

Download from icerbox.com: