Subcategories

REO Speedwagon - Original Album Classics (2011) [5CD Box Set] Repost

Posted By: v3122
REO Speedwagon - Original Album Classics (2011) [5CD Box Set] Repost

REO Speedwagon - Original Album Classics (2011)
EAC | Flac(Image) + Cue + Log & MP3 CBR 320Kbps
Sony Music, 88697928942 | ~ 1554 or 675 Mb | Artwork(png) -> 295 Mb
Hard Rock, Soft Rock

This box set from Sony UK features five of the Champaign, Illinois-bred AOR rockers' most notable albums, including Live You Get What You Play For (1977), You Can Tune a Piano But You Can't Tuna Fish (1978), Hi Infidelity (1980), Good Trouble (1982), and Wheels Are Turnin (1984).

[right~ allmusic[/right]
REO Speedwagon - Original Album Classics (2011):

REO Speedwagon - Original Album Classics (2011) [5CD Box Set] Repost

Tracklist CD1 - 1977 Live: You Get What You Play For:

01. Like You Do
02. Lay Me Down
03. Any Kind Of Love
04. Being Kind (Can Hurt Someone Sometimes)
05. Keep Pushin'
06. (Only A) Summer Love
07. Son Of A Poor Man
08. (I Believe) Our Time Is Gonna Come
09. Flying Turkey Trot
10. 157 Riverside Avenue
11. Ridin' The Storm Out
12. Music Man
13. Golden Country

Exact Audio Copy V1.0 beta 2 from 29. April 2011

EAC extraction logfile from 15. September 2011, 19:42

REO Speedwagon / You Get What You Play For

Used drive : HL-DT-STDVDRAM GSA-H60N Adapter: 2 ID: 0

Read mode : Secure
Utilize accurate stream : Yes
Defeat audio cache : Yes
Make use of C2 pointers : No

Read offset correction : 667
Overread into Lead-In and Lead-Out : No
Fill up missing offset samples with silence : Yes
Delete leading and trailing silent blocks : No
Null samples used in CRC calculations : Yes
Used interface : Native Win32 interface for Win NT & 2000

Used output format : Internal WAV Routines
Sample format : 44.100 Hz; 16 Bit; Stereo


TOC of the extracted CD

Track | Start | Length | Start sector | End sector
––––––––––––––––––––––––––––-
1 | 0:00.00 | 6:54.47 | 0 | 31096
2 | 6:54.47 | 3:38.73 | 31097 | 47519
3 | 10:33.45 | 3:34.40 | 47520 | 63609
4 | 14:08.10 | 6:36.07 | 63610 | 93316
5 | 20:44.17 | 4:06.10 | 93317 | 111776
6 | 24:50.27 | 6:05.03 | 111777 | 139154
7 | 30:55.30 | 5:30.22 | 139155 | 163926
8 | 36:25.52 | 4:49.33 | 163927 | 185634
9 | 41:15.10 | 2:35.05 | 185635 | 197264
10 | 43:50.15 | 7:38.12 | 197265 | 231626
11 | 51:28.27 | 5:47.15 | 231627 | 257666
12 | 57:15.42 | 2:58.60 | 257667 | 271076
13 | 60:14.27 | 8:25.40 | 271077 | 308991


Range status and errors

Selected range

Filename C:\Documents and Settings\Admin\Рабочий стол\Rip by ALLexxess\2011 REO Speedwagon Original Album Classics (5CD Box Set Epic Records)\1977 You Get What You Play For\REO Speedwagon - You Get What You Play For.wav

Peak level 100.0 %
Extraction speed 6.3 X
Range quality 100.0 %
Test CRC E0BA1E5C
Copy CRC E0BA1E5C
Copy OK

No errors occurred


AccurateRip summary

Track 1 not present in database
Track 2 not present in database
Track 3 not present in database
Track 4 not present in database
Track 5 not present in database
Track 6 not present in database
Track 7 not present in database
Track 8 not present in database
Track 9 not present in database
Track 10 not present in database
Track 11 not present in database
Track 12 not present in database
Track 13 not present in database

None of the tracks are present in the AccurateRip database

End of status report

==== Log checksum 31B2DBE81BA0D668BBA25E92FBE6A8AAFF2D67C12B066495CBBEED82CABF5DAE ====


[CUETools log; Date: 22.07.2019 9:37:41; Version: 2.1.4]
[AccurateRip ID: 0020158a-0140aa3a-ba10170d] found.
Track [ CRC | V2 ] Status
01 [8a9dd5ff|b50c21a3] (04+64/68) Accurately ripped
02 [fd7b3529|fa0248a7] (05+64/69) Accurately ripped
03 [ced3d3f2|41e5db87] (05+64/69) Accurately ripped
04 [5a374f8a|d378be34] (05+64/69) Accurately ripped
05 [d8006a76|166ae697] (05+64/69) Accurately ripped
06 [258f77e6|b523a4d5] (05+64/69) Accurately ripped
07 [f8860dfd|53e38168] (05+64/69) Accurately ripped
08 [b6976eb0|88368327] (05+64/69) Accurately ripped
09 [56ee6676|a3cf6817] (05+64/69) Accurately ripped
10 [2892dfaf|df9e82d7] (05+64/69) Accurately ripped
11 [9812093c|7c506bc8] (05+65/70) Accurately ripped
12 [0e5053a3|d69465d7] (05+64/69) Accurately ripped
13 [64d35718|142daad4] (05+63/68) Accurately ripped

Track Peak [ CRC32 ] [W/O NULL] [ LOG ]
– 100,0 [E0BA1E5C] [D7AA33B1] CRC32
01 97,8 [BC96AA3E] [23352DB5]
02 96,2 [9AF14ABC] [B8A9DAB8]
03 90,0 [DEAD49F8] [8FF0ECF5]
04 100,0 [1D476755] [74912F1A]
05 84,8 [EE780699] [4ABE4B00]
06 100,0 [437A68CB] [7BF1BDAB]
07 100,0 [49FA0F98] [F9222B58]
08 100,0 [1802C2C7] [FD5F388B]
09 89,0 [C24033DD] [329720D7]
10 87,6 [617DCC5B] [E9DE0640]
11 97,6 [E0A57031] [8A516AE6]
12 96,4 [8EC61227] [C56F82AC]
13 100,0 [800BF4F6] [39DF0749]


REO Speedwagon - Original Album Classics (2011) [5CD Box Set] Repost

Tracklist CD2 - 1978 You Can Tune A Piano, But You Can't Tuna Fish:

1. Roll With The Changes
2. Time For Me To Fly
3. Runnin' Blind
4. Blazin' Your Own Trail Again
5. Sing To Me
6. Lucky For You
7. Do You Know Where Your Woman Is Tonight?
8. The Unidentified Flying Tuna Trot
9. Say You Love Me Or Say Goodnight

Exact Audio Copy V1.0 beta 2 from 29. April 2011

EAC extraction logfile from 15. September 2011, 20:25

REO Speedwagon / You Can Tune A Piano, But You Can't Tuna Fish

Used drive : HL-DT-STDVDRAM GSA-H60N Adapter: 2 ID: 0

Read mode : Secure
Utilize accurate stream : Yes
Defeat audio cache : Yes
Make use of C2 pointers : No

Read offset correction : 667
Overread into Lead-In and Lead-Out : No
Fill up missing offset samples with silence : Yes
Delete leading and trailing silent blocks : No
Null samples used in CRC calculations : Yes
Used interface : Native Win32 interface for Win NT & 2000

Used output format : Internal WAV Routines
Sample format : 44.100 Hz; 16 Bit; Stereo


TOC of the extracted CD

Track | Start | Length | Start sector | End sector
––––––––––––––––––––––––––––-
1 | 0:00.00 | 5:36.52 | 0 | 25251
2 | 5:36.52 | 3:42.00 | 25252 | 41901
3 | 9:18.52 | 3:08.18 | 41902 | 56019
4 | 12:26.70 | 3:32.57 | 56020 | 71976
5 | 15:59.52 | 2:34.33 | 71977 | 83559
6 | 18:34.10 | 5:02.10 | 83560 | 106219
7 | 23:36.20 | 2:53.35 | 106220 | 119229
8 | 26:29.55 | 2:17.37 | 119230 | 129541
9 | 28:47.17 | 4:57.55 | 129542 | 151871


Range status and errors

Selected range

Filename C:\Documents and Settings\Admin\Рабочий стол\Rip by ALLexxess\2011 REO Speedwagon Original Album Classics (5CD Box Set Epic Records)\1978 You Can Tune A Piano But You Can't Tuna Fish\REO Speedwagon - You Can Tune A Piano.wav

Peak level 99.8 %
Extraction speed 5.4 X
Range quality 100.0 %
Test CRC EE572C0B
Copy CRC EE572C0B
Copy OK

No errors occurred


AccurateRip summary

Track 1 not present in database
Track 2 not present in database
Track 3 not present in database
Track 4 not present in database
Track 5 not present in database
Track 6 not present in database
Track 7 not present in database
Track 8 not present in database
Track 9 not present in database

None of the tracks are present in the AccurateRip database

End of status report

==== Log checksum 60025E0D2388F5518810754B38EACC15BBC8DE38DD53C52507528DAD05CE644D ====


[CUETools log; Date: 22.07.2019 9:39:44; Version: 2.1.4]
[AccurateRip ID: 000bfca7-00561cfa-7807e809] found.
Track [ CRC | V2 ] Status
01 [58a93208|874b4225] (05+67/72) Accurately ripped
02 [3a3cf4a9|5e1f8b22] (05+67/72) Accurately ripped
03 [d3d4b541|612b5b2c] (05+67/72) Accurately ripped
04 [a18500ab|7b56971e] (05+67/72) Accurately ripped
05 [c79ecc0e|b84ec011] (05+67/72) Accurately ripped
06 [d6f20506|d8a73017] (05+67/72) Accurately ripped
07 [9c1a2422|14c336dc] (04+66/70) Accurately ripped
08 [efa82c9b|5567b78f] (05+66/71) Accurately ripped
09 [f58f2b53|9f0cd9e8] (05+66/71) Accurately ripped

Track Peak [ CRC32 ] [W/O NULL] [ LOG ]
– 99,8 [EE572C0B] [A72EB4AD] CRC32
01 99,8 [AF6D0C70] [A0916EE8]
02 99,8 [7EF87CD7] [E49DC7F6]
03 99,8 [9A374F05] [42C11CAE]
04 99,8 [6D11D6A6] [E17B8CC5]
05 99,8 [A834329C] [CE7E1D5F]
06 99,8 [7FB2C0A0] [54C642C1]
07 99,8 [FBCC112A] [DA8CC492]
08 99,8 [66D97E4B] [B2939C4F]
09 99,8 [CADE8CF9] [56BA34F7]


REO Speedwagon - Original Album Classics (2011) [5CD Box Set] Repost

Tracklist CD3 - 1980 Hi Infidelity:

01. Don't Let Him Go
02. Keep On Loving You
03. Follow My Heart
04. In Your Letter
05. Take It On The Run
06. Tough Guys
07. Out Of Season
08. Shakin' It Loose
09. Someone Tonight
10. I Wish You Were There

Exact Audio Copy V1.0 beta 2 from 29. April 2011

EAC extraction logfile from 15. September 2011, 21:24

REO Speedwagon / Hi Infidelity

Used drive : HL-DT-STDVDRAM GSA-H60N Adapter: 2 ID: 0

Read mode : Secure
Utilize accurate stream : Yes
Defeat audio cache : Yes
Make use of C2 pointers : No

Read offset correction : 667
Overread into Lead-In and Lead-Out : No
Fill up missing offset samples with silence : Yes
Delete leading and trailing silent blocks : No
Null samples used in CRC calculations : Yes
Used interface : Native Win32 interface for Win NT & 2000

Used output format : Internal WAV Routines
Sample format : 44.100 Hz; 16 Bit; Stereo


TOC of the extracted CD

Track | Start | Length | Start sector | End sector
––––––––––––––––––––––––––––-
1 | 0:00.00 | 3:46.07 | 0 | 16956
2 | 3:46.07 | 3:22.45 | 16957 | 32151
3 | 7:08.52 | 3:50.58 | 32152 | 49459
4 | 10:59.35 | 3:17.30 | 49460 | 64264
5 | 14:16.65 | 4:01.15 | 64265 | 82354
6 | 18:18.05 | 3:50.47 | 82355 | 99651
7 | 22:08.52 | 3:07.63 | 99652 | 113739
8 | 25:16.40 | 2:25.37 | 113740 | 124651
9 | 27:42.02 | 2:40.58 | 124652 | 136709
10 | 30:22.60 | 4:26.70 | 136710 | 156729


Range status and errors

Selected range

Filename C:\Documents and Settings\Admin\Рабочий стол\Rip by ALLexxess\2011 REO Speedwagon Original Album Classics (5CD Box Set Epic Records)\1980 Hi Infidelity\REO Speedwagon - Hi Infidelity.wav

Peak level 99.7 %
Extraction speed 5.5 X
Range quality 100.0 %
Test CRC C9D4DCD9
Copy CRC C9D4DCD9
Copy OK

No errors occurred


AccurateRip summary

Track 1 not present in database
Track 2 not present in database
Track 3 not present in database
Track 4 not present in database
Track 5 not present in database
Track 6 not present in database
Track 7 not present in database
Track 8 not present in database
Track 9 not present in database
Track 10 not present in database

None of the tracks are present in the AccurateRip database

End of status report

==== Log checksum 93CD24626C7E22D3C47114EF3ECAC5A5F7BF2D956359E0110B6C1E5C90BDC6A5 ====


[CUETools log; Date: 22.07.2019 9:41:20; Version: 2.1.4]
[AccurateRip ID: 000d6081-006a43b4-6f08290a] found.
Track [ CRC | V2 ] Status
01 [f14f0390|de3384f6] (05+68/73) Accurately ripped
02 [66109826|efdd4283] (05+68/73) Accurately ripped
03 [da02cddb|82b004cd] (05+68/73) Accurately ripped
04 [c503e674|315a2de4] (05+68/73) Accurately ripped
05 [14f2a149|c8bb398e] (05+68/73) Accurately ripped
06 [b9233327|347ac5e0] (05+68/73) Accurately ripped
07 [87926299|0ed66af8] (05+68/73) Accurately ripped
08 [004fb495|36ebdc84] (05+68/73) Accurately ripped
09 [d3041de0|032752ef] (05+68/73) Accurately ripped
10 [7328f067|425ed984] (04+67/71) Accurately ripped

Track Peak [ CRC32 ] [W/O NULL] [ LOG ]
– 99,7 [C9D4DCD9] [BC1560AD] CRC32
01 99,7 [A7BF3B19] [5A9B655A]
02 88,9 [950E0C0B] [67282901]
03 94,2 [7E57B8E5] [5E76B663]
04 88,9 [F3937724] [9EEE64CD]
05 94,2 [7D219065] [B0222D05]
06 99,7 [4615C5C0] [8D03296E]
07 99,7 [A73C8436] [FD351C88]
08 99,7 [DE5C20FD] [699B64B3]
09 99,7 [D81D7093] [09A1D56B]
10 99,7 [272086C3] [8CB53181]


REO Speedwagon - Original Album Classics (2011) [5CD Box Set] Repost

Tracklist CD4 - 1982 Good Trouble:

01. Keep The Fire Burnin'
02. Sweet Time
03. Girl With The Heart Of Gold
04. Every Now And Then
05. I'll Follow You
06. The Key
07. Back In My Heart Again
08. Let's Be-Bop
09. Stillness Of The Night
10. Good Trouble

Exact Audio Copy V1.0 beta 2 from 29. April 2011

EAC extraction logfile from 16. September 2011, 10:12

REO Speedwagon / Good Trouble

Used drive : HL-DT-STDVDRAM GSA-H60N Adapter: 2 ID: 0

Read mode : Secure
Utilize accurate stream : Yes
Defeat audio cache : Yes
Make use of C2 pointers : No

Read offset correction : 667
Overread into Lead-In and Lead-Out : No
Fill up missing offset samples with silence : Yes
Delete leading and trailing silent blocks : No
Null samples used in CRC calculations : Yes
Used interface : Native Win32 interface for Win NT & 2000

Used output format : Internal WAV Routines
Sample format : 44.100 Hz; 16 Bit; Stereo


TOC of the extracted CD

Track | Start | Length | Start sector | End sector
––––––––––––––––––––––––––––-
1 | 0:00.00 | 3:58.02 | 0 | 17851
2 | 3:58.02 | 3:08.15 | 17852 | 31966
3 | 7:06.17 | 4:25.58 | 31967 | 51899
4 | 11:32.00 | 4:02.22 | 51900 | 70071
5 | 15:34.22 | 4:24.03 | 70072 | 89874
6 | 19:58.25 | 3:27.70 | 89875 | 105469
7 | 23:26.20 | 3:20.32 | 105470 | 120501
8 | 26:46.52 | 3:15.68 | 120502 | 135194
9 | 30:02.45 | 3:45.00 | 135195 | 152069
10 | 33:47.45 | 4:08.15 | 152070 | 170684


Range status and errors

Selected range

Filename C:\Documents and Settings\Admin\Рабочий стол\Rip by ALLexxess\2011 REO Speedwagon Original Album Classics (5CD Box Set Epic Records)\1982 Good Trouble\REO Speedwagon - Good Trouble.wav

Peak level 100.0 %
Extraction speed 4.2 X
Range quality 100.0 %
Test CRC 97D48BA6
Copy CRC 97D48BA6
Copy OK

No errors occurred


AccurateRip summary

Track 1 accurately ripped (confidence 4) [BE75A85C] (AR v1)
Track 2 accurately ripped (confidence 4) [77E826D0] (AR v1)
Track 3 accurately ripped (confidence 4) [2504E3AB] (AR v1)
Track 4 accurately ripped (confidence 4) [3C9B6940] (AR v1)
Track 5 accurately ripped (confidence 4) [F50D14A6] (AR v1)
Track 6 accurately ripped (confidence 4) [789C83A9] (AR v1)
Track 7 accurately ripped (confidence 4) [F78C82AC] (AR v1)
Track 8 accurately ripped (confidence 4) [BA858904] (AR v1)
Track 9 accurately ripped (confidence 4) [FA143EC0] (AR v1)
Track 10 accurately ripped (confidence 4) [26775173] (AR v1)

All tracks accurately ripped

End of status report

==== Log checksum 1115D0F1169C16E05B16AC61DEB9332660E9E0D34E4177964EBB503D4906AC98 ====


[CUETools log; Date: 22.07.2019 9:50:53; Version: 2.1.4]
[AccurateRip ID: 000e6db4-00732500-7408e30a] found.
Track [ CRC | V2 ] Status
01 [be75a85c|1ff3d50e] (011+089/100) Accurately ripped
02 [77e826d0|1edbca5d] (011+089/100) Accurately ripped
03 [2504e3ab|8cbafd8c] (011+090/101) Accurately ripped
04 [3c9b6940|1d59bf54] (011+089/100) Accurately ripped
05 [f50d14a6|4e7d5a2b] (010+088/098) Accurately ripped
06 [789c83a9|3b9c48cc] (011+089/100) Accurately ripped
07 [f78c82ac|470cfc84] (011+089/100) Accurately ripped
08 [ba858904|9b348fdf] (011+089/100) Accurately ripped
09 [fa143ec0|4b46a9bc] (011+088/099) Accurately ripped
10 [26775173|97fa7f40] (010+088/098) Accurately ripped

Track Peak [ CRC32 ] [W/O NULL] [ LOG ]
– 100,0 [97D48BA6] [12333C43] CRC32
01 93,4 [1D9F9039] [B1CF56D4]
02 90,5 [9F6CC9DC] [A8D4D26F]
03 85,6 [23937307] [7F7949B8]
04 100,0 [FDB809A1] [855D7491]
05 90,8 [22F5A4B3] [D584A30C]
06 87,2 [CFB73E11] [E2437D4C]
07 85,5 [381C00F1] [30D6CCB7]
08 82,1 [4C635048] [D4ECB4BC]
09 100,0 [E7307DAB] [6B5BE6E9]
10 97,3 [D7DAFEE3] [B4BCFF90]


REO Speedwagon - Original Album Classics (2011) [5CD Box Set] Repost

Tracklist CD5 - 1984 Wheels Are Turnin':

1. I Do' Wanna Know
2. One Lonely Night
3. Thru The Window
4. Rock 'N Roll Star
5. Live Every Moment
6. Can't Fight This Feeling
7. Gotta Feel More
8. Break His Spell
9. Wheels Are Turnin'

Exact Audio Copy V1.0 beta 2 from 29. April 2011

EAC extraction logfile from 16. September 2011, 11:05

REO Speedwagon / Wheels Are Turnin'

Used drive : HL-DT-STDVDRAM GSA-H60N Adapter: 2 ID: 0

Read mode : Secure
Utilize accurate stream : Yes
Defeat audio cache : Yes
Make use of C2 pointers : No

Read offset correction : 667
Overread into Lead-In and Lead-Out : No
Fill up missing offset samples with silence : Yes
Delete leading and trailing silent blocks : No
Null samples used in CRC calculations : Yes
Used interface : Native Win32 interface for Win NT & 2000

Used output format : Internal WAV Routines
Sample format : 44.100 Hz; 16 Bit; Stereo


TOC of the extracted CD

Track | Start | Length | Start sector | End sector
––––––––––––––––––––––––––––-
1 | 0:00.00 | 4:13.02 | 0 | 18976
2 | 4:13.02 | 3:21.35 | 18977 | 34086
3 | 7:34.37 | 5:02.00 | 34087 | 56736
4 | 12:36.37 | 3:41.13 | 56737 | 73324
5 | 16:17.50 | 5:01.57 | 73325 | 95956
6 | 21:19.32 | 4:54.58 | 95957 | 118064
7 | 26:14.15 | 4:27.22 | 118065 | 138111
8 | 30:41.37 | 2:58.40 | 138112 | 151501
9 | 33:40.02 | 5:50.30 | 151502 | 177781


Range status and errors

Selected range

Filename C:\Documents and Settings\Admin\Рабочий стол\Rip by ALLexxess\2011 REO Speedwagon Original Album Classics (5CD Box Set Epic Records)\1984 Wheels Are Turnin'\REO Speedwagon - Wheels Are Turnin'.wav

Peak level 100.0 %
Extraction speed 5.5 X
Range quality 100.0 %
Test CRC 4701262D
Copy CRC 4701262D
Copy OK

No errors occurred


AccurateRip summary

Track 1 cannot be verified as accurate (confidence 7) [9FED2610], AccurateRip returned [1E4E9378] (AR v2)
Track 2 cannot be verified as accurate (confidence 7) [6C581B3C], AccurateRip returned [DB8B5DEB] (AR v2)
Track 3 cannot be verified as accurate (confidence 7) [9D912EA6], AccurateRip returned [CB3D4671] (AR v2)
Track 4 cannot be verified as accurate (confidence 7) [7EFD3B45], AccurateRip returned [7E586285] (AR v2)
Track 5 cannot be verified as accurate (confidence 7) [36EC5330], AccurateRip returned [24C17925] (AR v2)
Track 6 cannot be verified as accurate (confidence 7) [C257886D], AccurateRip returned [4A958108] (AR v2)
Track 7 cannot be verified as accurate (confidence 7) [5AFD3200], AccurateRip returned [59DA52A6] (AR v2)
Track 8 cannot be verified as accurate (confidence 7) [CA96CA5A], AccurateRip returned [CCEB0FE1] (AR v2)
Track 9 cannot be verified as accurate (confidence 7) [1F8B5685], AccurateRip returned [9B03721F] (AR v2)

No tracks could be verified as accurate
You may have a different pressing from the one(s) in the database

End of status report

==== Log checksum 636C39F51D86B38F98122D4DF95A6514C27E57411B3841A0171D79B4D28198B9 ====


[CUETools log; Date: 22.07.2019 9:53:04; Version: 2.1.4]
[AccurateRip ID: 000d3120-0061628c-7f094209] found.
Track [ CRC | V2 ] Status
01 [6173989f|9fed2610] (06+68/99) Accurately ripped
02 [7cff0803|6c581b3c] (06+68/99) Accurately ripped
03 [52a07acd|9d912ea6] (06+68/99) Accurately ripped
04 [81d9490e|7efd3b45] (06+68/99) Accurately ripped
05 [aff16ae5|36ec5330] (06+67/97) Accurately ripped
06 [1b8d7085|c257886d] (06+66/97) Accurately ripped
07 [4f9996aa|5afd3200] (06+67/98) Accurately ripped
08 [b9a09863|ca96ca5a] (06+68/99) Accurately ripped
09 [74f6c1f8|1f8b5685] (06+68/99) Accurately ripped
Offsetted by 416:
01 [62008a4c] (00/99) No match (V2 was not tested)
02 [58d7be7e] (00/99) No match (V2 was not tested)
03 [7ee68f9b] (00/99) No match (V2 was not tested)
04 [2e3750fc] (00/99) No match (V2 was not tested)
05 [f95c4e27] (00/97) No match (V2 was not tested)
06 [425794ab] (00/97) No match (V2 was not tested)
07 [3caf320d] (00/98) No match (V2 was not tested)
08 [2efcda32] (00/99) No match (V2 was not tested)
09 [72068e5e] (00/99) No match (V2 was not tested)

Track Peak [ CRC32 ] [W/O NULL] [ LOG ]
– 100,0 [4701262D] [2EF90917] CRC32
01 87,6 [969A3C06] [F4095A68]
02 100,0 [51A9F267] [51A9F267]
03 99,0 [0C911AE1] [0C911AE1]
04 84,7 [C9C69008] [932CEF39]
05 97,6 [24CBF26C] [24CBF26C]
06 94,9 [BA08B627] [BA08B627]
07 100,0 [BFE3E0CF] [BFE3E0CF]
08 94,9 [8B07574A] [8B07574A]
09 98,8 [E85DCD50] [D6F03FFE]


REO Speedwagon - Original Album Classics (2011) [5CD Box Set] Repost

All thanks go to ALLexxess

Original Album Classics in my Blog

Download REO Speedwagon - Original Album Classics (2011):