Subcategories

Ryan Meagher - Mist. Moss. Home. (2016)

Posted By: TestTickles
Ryan Meagher - Mist. Moss. Home. (2016)

Ryan Meagher - Mist. Moss. Home. (2016)
EAC Rip | FLAC with CUE and log | scans | 320 mb
MP3 CBR 320kbps | RAR | 137 mb
Genre: jazz

Mist. Moss. Home. is a 2016 jazz gem courtesy of Portland, Oregon musician Ryan Meagher. This was released by PJCE Records.

Ryan Meagher - Mist. Moss. Home. (2016)

1. The Hipster's Folly
2. First Place
3. Banter
4. Children In The Park
5. Skip
6. Vasona
7. Platitudes (For Wayne Shorter And Alex Hoffman)
8. The Legend Continues…

Ryan Meagher-guitar, Wurlitzer electric piano (track 3), voice (track 8)
Tim Willcox-tenor sax, beer bottle (track 8)
Chris Higgins-bass
Charlie Doggett-drums
Ben Turner-Wurlitzer electric piano (track 8)

Recorded, mixed & mastered by Josh Powell

EAC extraction logfile from 2. March 2017, 15:02 for CD
Ryan Meagher / Mist. Moss. Home.

Used drive : TSSTcorpDVD+-RW TS-H653B Adapter: 2 ID: 0
Read mode : Secure with NO C2, accurate stream, disable cache
Read offset correction : 6
Overread into Lead-In and Lead-Out : No

Used output format : Internal WAV Routines
44.100 Hz; 16 Bit; Stereo

Other options :
Fill up missing offset samples with silence : Yes
Delete leading and trailing silent blocks : No
Native Win32 interface for Win NT & 2000


Track 1
Filename C:\Documents and Settings\Desktop\Ryan Meagher - Mist. Moss. Home. (2016) [FLAC]\01 - The Hipster's Folly.wav

Pre-gap length 0:00:02.00

Peak level 99.9 %
Track quality 100.0 %
Test CRC 8255A9B3
Copy CRC 8255A9B3
Copy OK

Track 2
Filename C:\Documents and Settings\Desktop\Ryan Meagher - Mist. Moss. Home. (2016) [FLAC]\02 - First Place.wav

Peak level 99.9 %
Track quality 100.0 %
Test CRC 888CE311
Copy CRC 888CE311
Copy OK

Track 3
Filename C:\Documents and Settings\Desktop\Ryan Meagher - Mist. Moss. Home. (2016) [FLAC]\03 - Banter.wav

Peak level 99.9 %
Track quality 100.0 %
Test CRC AEF935EF
Copy CRC AEF935EF
Copy OK

Track 4
Filename C:\Documents and Settings\Desktop\Ryan Meagher - Mist. Moss. Home. (2016) [FLAC]\04 - Children In The Park.wav

Peak level 99.9 %
Track quality 99.9 %
Test CRC 52E960B8
Copy CRC 52E960B8
Copy OK

Track 5
Filename C:\Documents and Settings\Desktop\Ryan Meagher - Mist. Moss. Home. (2016) [FLAC]\05 - Skip.wav

Peak level 99.9 %
Track quality 100.0 %
Test CRC 0FADB3AC
Copy CRC 0FADB3AC
Copy OK

Track 6
Filename C:\Documents and Settings\Desktop\Ryan Meagher - Mist. Moss. Home. (2016) [FLAC]\06 - Vasona.wav

Peak level 99.9 %
Track quality 100.0 %
Test CRC 88EFB353
Copy CRC 88EFB353
Copy OK

Track 7
Filename C:\Documents and Settings\Desktop\Ryan Meagher - Mist. Moss. Home. (2016) [FLAC]\07 - Platitudes (For Wayne Shorter And Alex Hoffman).wav

Peak level 99.9 %
Track quality 99.9 %
Test CRC 0F96A376
Copy CRC 0F96A376
Copy OK

Track 8
Filename C:\Documents and Settings\Desktop\Ryan Meagher - Mist. Moss. Home. (2016) [FLAC]\08 - The Legend Continues….wav

Peak level 99.9 %
Track quality 100.0 %
Test CRC 56D72496
Copy CRC 56D72496
Copy OK

No errors occured


End of status report


Ryan Meagher - Mist. Moss. Home. (2016)