Subcategories

Rabbitt - A Croak And A Grunt In The Night (1977) {2004, Reissue}

Posted By: popsakov
Rabbitt - A Croak And A Grunt In The Night (1977) {2004, Reissue}

Rabbitt - A Croak And A Grunt In The Night (1977) {2004, Reissue}
EAC Rip | FLAC (Img) + Cue + Log ~ 337 Mb | MP3 CBR320 ~ 140 Mb
Scans Included (JPG, 300 dpi) | RAR 5% Recovery
Rock, Pop Rock | © 2004 Voiceprint #VP313CD

Rabbit formed by guitarist Trevor Rabin was his first major recording band, based in South Africa. 1977 Rabbitt's second album, A Croak And A Grunt In The Night is released. It is the first time any South African album has achieved gold status immediately upon its release. Plans are made for a tour of the United States and Great Britain. Plans for the tour fall through, outside pressures take their toll on the band. Trevor leaves Rabbitt and heads for London.

***************

Rabbitt - A Croak And A Grunt In The Night (1977) {2004, Reissue}

Rabbitt - A Croak And A Grunt In The Night (1977) {2004, Reissue}

Track List:

01. T.C. Rabin In D-Minor [0:26]
02. I Sleep Alone [2:53]
03. A Croak & A Grunt In The Night [2:37]
04. Everybody's Cheating [4:09]
05. Sugar Pie [3:20]
06. Searching [4:09]
07. Working For The People [4:17]
08. Pollyman [2:23]
09. Schumann [0:25]
10. Hold On To Love [4:04]
11. Dingleys Bookshop [2:12]
12. Never Gonna Ruin My Life [0:55]
13. Tribal Fence [3:46]
14. Gift Of Love [3:41]
15. Lonely Loner Two [3:34]
16. Take It Easy [3:42]
17. A Love You Song [1:45]

Exact Audio Copy V0.99 prebeta 5 from 4. May 2009

Отчёт EAC об извлечении, выполненном 9. января 2010, 13:32

Rabbitt / A Croak and a Grunt in the Night

Дисковод: PLEXTOR DVDR PX-810SA Adapter: 1 ID: 0

Режим чтения : Достоверность
Использование точного потока : Да
Отключение кэша аудио : Да
Использование указателей C2 : Нет

Коррекция смещения при чтении : 48
Способность читать области Lead-in и Lead-out : Нет
Заполнение пропущенных сэмплов тишиной : Да
Удаление блоков с тишиной в начале и конце : Нет
При вычислениях CRC использовались нулевые сэмплы : Да
Интерфейс : Встроенный Win32-интерфейс для Win NT/2000

Выходной формат : Monkey's Audio (без потерь)
Выбранный битрейт : Normal Lossless Compression
Качество : Высокий
Добавление ID3-тэга : Нет
Утилита сжатия : C:\Program Files\Exact Audio Copy\MAC.exe


TOC извлечённого CD

Трек | Старт | Длительность | Начальный сектор | Конечный сектор
––––––––––––––––––––––––––––––––––-
1 | 0:00.00 | 0:25.40 | 0 | 1914
2 | 0:25.40 | 2:52.50 | 1915 | 14864
3 | 3:18.15 | 2:36.50 | 14865 | 26614
4 | 5:54.65 | 4:09.09 | 26615 | 45298
5 | 10:03.74 | 3:19.57 | 45299 | 60280
6 | 13:23.56 | 4:08.71 | 60281 | 78951
7 | 17:32.52 | 4:17.32 | 78952 | 98258
8 | 21:50.09 | 2:22.56 | 98259 | 108964
9 | 24:12.65 | 0:24.50 | 108965 | 110814
10 | 24:37.40 | 4:03.45 | 110815 | 129084
11 | 28:41.10 | 2:11.41 | 129085 | 138950
12 | 30:52.51 | 0:55.28 | 138951 | 143103
13 | 31:48.04 | 3:45.68 | 143104 | 160046
14 | 35:33.72 | 3:40.51 | 160047 | 176597
15 | 39:14.48 | 3:34.29 | 176598 | 192676
16 | 42:49.02 | 3:41.48 | 192677 | 209299
17 | 46:30.50 | 1:45.09 | 209300 | 217183


Характеристики диапазона извлечения и сообщения об ошибках

Выбранный диапазон

Имя файла D:\Rabbitt - A Croak and a Grunt in the Night (1977)\Rabbitt - A Croak and a Grunt in the Night.wav

Пиковый уровень 99.3 %
Качество диапазона 99.9 %
CRC теста 76FB0642
CRC копии 76FB0642
Копирование… OK

Ошибок не произошло


AccurateRip: сводка

Трек 1 нет в базе данных
Трек 2 нет в базе данных
Трек 3 нет в базе данных
Трек 4 нет в базе данных
Трек 5 нет в базе данных
Трек 6 нет в базе данных
Трек 7 нет в базе данных
Трек 8 нет в базе данных
Трек 9 нет в базе данных
Трек 10 нет в базе данных
Трек 11 нет в базе данных
Трек 12 нет в базе данных
Трек 13 нет в базе данных
Трек 14 нет в базе данных
Трек 15 нет в базе данных
Трек 16 нет в базе данных
Трек 17 нет в базе данных

Ни одного трека нет в базе AccurateRip

Конец отчёта

foobar2000 1.2.6 / Dynamic Range Meter 1.1.1
log date: 2017-05-28 13:55:57

––––––––––––––––––––––––––––––––––––––––
Analyzed: Rabbitt / A Croak and a Grunt in the Night
––––––––––––––––––––––––––––––––––––––––

DR Peak RMS Duration Track
––––––––––––––––––––––––––––––––––––––––
DR9 -3.73 dB -14.01 dB 0:26 01-T.C. Rabin In D-Minor
DR12 -4.75 dB -18.76 dB 2:53 02-I Sleep Alone
DR16 -0.16 dB -18.90 dB 2:37 03-A Croak & A Grunt In The Night
DR12 -1.21 dB -16.72 dB 4:09 04-Everybody's Cheating
DR9 -3.40 dB -13.69 dB 3:20 05-Sugar Pie
DR14 -0.06 dB -17.32 dB 4:09 06-Searching
DR10 -2.91 dB -14.55 dB 4:17 07-Working For The People
DR15 -1.20 dB -17.55 dB 2:23 08-Pollyman
DR9 -2.64 dB -14.67 dB 0:25 09-Schumann
DR12 -1.19 dB -16.72 dB 4:04 10-Hold On To Love
DR13 -1.21 dB -17.62 dB 2:12 11-Dingleys Bookshop
DR10 -2.84 dB -15.41 dB 0:55 12-Never Gonna Ruin My Life
DR9 -3.03 dB -14.69 dB 3:46 13-Tribal Fence
DR9 -3.65 dB -14.77 dB 3:41 14-Gift Of Love
DR12 -0.69 dB -16.51 dB 3:34 15-Lonely Loner Two
DR12 -0.85 dB -15.09 dB 3:42 16-Take It Easy
DR13 -6.13 dB -21.73 dB 1:45 17-A Love You Song
––––––––––––––––––––––––––––––––––––––––

Number of tracks: 17
Official DR value: DR12

Samplerate: 44100 Hz
Channels: 2
Bits per sample: 16
Bitrate: 865 kbps
Codec: FLAC
================================================================================

[CUETools log; Date: 28.05.2017 13:56:01; Version: 2.1.5]
[CTDB TOCID: vo7_uehpiXEBLnCY_sWn3mgzHEo-] found.
Track | CTDB Status
1 | (7/7) Accurately ripped
2 | (7/7) Accurately ripped
3 | (7/7) Accurately ripped
4 | (7/7) Accurately ripped
5 | (7/7) Accurately ripped
6 | (7/7) Accurately ripped
7 | (4/7) Accurately ripped, or (1/7) differs in 28 samples @00:40:17, or (1/7) differs in 36 samples @00:40:04,00:40:17
8 | (7/7) Accurately ripped
9 | (7/7) Accurately ripped
10 | (7/7) Accurately ripped
11 | (7/7) Accurately ripped
12 | (7/7) Accurately ripped
13 | (7/7) Accurately ripped
14 | (7/7) Accurately ripped
15 | (7/7) Accurately ripped
16 | (7/7) Accurately ripped
17 | (7/7) Accurately ripped
[AccurateRip ID: 001d3050-0176ba81-cf0b4f11] found.
Track [ CRC | V2 ] Status
01 [66cf51dc|8da09d1f] (0+2/2) Accurately ripped
02 [5b6271b8|9a7ebdc6] (0+2/2) Accurately ripped
03 [e273f488|d76a6723] (0+2/2) Accurately ripped
04 [42c200e7|43d7caaa] (0+2/2) Accurately ripped
05 [1df1010f|54a195f4] (0+2/2) Accurately ripped
06 [9477eda7|4eeec256] (0+2/2) Accurately ripped
07 [a61ed397|66dbe7b9] (0+2/2) Accurately ripped
08 [a4899569|84208853] (0+2/2) Accurately ripped
09 [13375a8e|b4a13069] (0+2/2) Accurately ripped
10 [1ede9195|aef0ddc6] (0+2/2) Accurately ripped
11 [feea08a9|d850a89c] (0+2/2) Accurately ripped
12 [37a493fd|34573541] (0+2/2) Accurately ripped
13 [d741cd3b|1c7c889d] (0+2/2) Accurately ripped
14 [419be57b|7e11a74c] (0+2/2) Accurately ripped
15 [bb81cd2b|d3dec3f6] (0+2/2) Accurately ripped
16 [3da64d9c|725893b0] (0+2/2) Accurately ripped
17 [1a580ff9|c9ed2923] (0+2/2) Accurately ripped

Track Peak [ CRC32 ] [W/O NULL] [ LOG ]
– 99,3 [76FB0642] [D2D65C64] CRC32
01 65,0 [B8876BAD] [82B2A7D1]
02 57,8 [4B05ED1E] [15A7A0EE]
03 98,1 [D003775F] [2417F2C3]
04 87,0 [30483F66] [8030EF40]
05 67,5 [1274E587] [E230D58E]
06 99,3 [E93EC12F] [7CD0A7BB]
07 71,5 [49905F15] [BB79DEDD]
08 87,1 [8D5D8973] [9FBD384E]
09 73,8 [13F3E33E] [DE3E46F1]
10 87,1 [4D1B1178] [64BE0514]
11 87,0 [7B45D39A] [64708C6A]
12 72,1 [56668BDA] [1D44A32D]
13 70,5 [5BDEF9BA] [8DF35302]
14 65,6 [B1899258] [10D57FC2]
15 92,3 [88883B73] [9FC57895]
16 90,6 [55742AE8] [CEDD3C9B]
17 49,3 [C9D3FC62] [228D2EA7]

Rabbitt - A Croak And A Grunt In The Night (1977) {2004, Reissue}

See also:
Rabbitt - Boys Will Be Boys! (1976) {2004 Reissue}

All thanks go to wwphil

>>> My Blog <<<

Download from icerbox.com: