Subcategories

Rachmaninov & Lutoslawski Paganini Variations - Shostakovich Piano Concerto No.1 (Decca)

Posted By: mrjansons
Rachmaninov & Lutoslawski Paganini Variations - Shostakovich Piano Concerto No.1 (Decca)

Rachmaninov & Lutoslawski Paganini Variations - Shostakovich Piano Concerto No.1 (Decca)
EAC 099pb4 Rip | APE+CUE, LOGs | 53:24 min | 221 MB 300 dpi PDF Complete Scans
Genre: Classical - 20th Century| Label: Decca Classics - Universal

The Shostakovich concerto is a good choice, not just as a near contemporary of the Paganini Rhapsody, but as a bridge to the zany world of Lutoslawski. It receives a fluent, well-judged and idiomatic performance with every note in place and some lovely trumpet playing from Raymond Simmons. Lutoslawski's Paganini Variations are a 1978 orchestration of the familiar 1941 two-piano work. I had not heard this version before and was instantly captivated. Jablonski, whose credentials include having been voted best jazz drummer in Sweden at the age of seven (!), revels in its high jinks, and Ashkenazy and the orchestra just manage to hang on to his coat-tails—an exciting end to an admirably played and recorded disc.'

Exact Audio Copy V0.99 prebeta 4 from 23. January 2008

EAC extraction logfile from 12. April 2009, 20:59

Jablonski, Ashkenazy, Royal Philharmonic / Rachmanoniv - Paganini Rhapsody, Shastakovich Piano Concerto No 1

Used drive : HL-DT-STDVDRAM GSA-4163B Adapter: 1 ID: 1

Read mode : Secure
Utilize accurate stream : Yes
Defeat audio cache : Yes
Make use of C2 pointers : No

Read offset correction : 667
Overread into Lead-In and Lead-Out : No
Fill up missing offset samples with silence : Yes
Delete leading and trailing silent blocks : No
Null samples used in CRC calculations : No
Used interface : Native Win32 interface for Win NT & 2000

Used output format : Internal WAV Routines
Sample format : 44.100 Hz; 16 Bit; Stereo


TOC of the extracted CD

Track | Start | Length | Start sector | End sector
––––––––––––––––––––––––––––-
1 | 0:00.32 | 23:13.23 | 32 | 104529
2 | 23:13.55 | 6:00.07 | 104530 | 131536
3 | 29:13.62 | 8:27.60 | 131537 | 169621
4 | 37:41.47 | 8:27.20 | 169622 | 207666
5 | 46:08.67 | 8:41.65 | 207667 | 246806


Range status and errors

Selected range

Filename C:\Documents and Settings\Administrador\Escritorio\Jablonski\Jablonski, Ashkenazy, Royal Philharmonic - Rachmanoniv - Paganini Rhapsody, Shastakovich Piano Concerto No 1.wav

Peak level 99.5 %
Range quality 99.9 %
Copy CRC 511604C5
Copy OK

No errors occurred

End of status report



Sergey Rachmaninov

Rhapsody on a Theme of Paganini

Dmitri Shostakovich

Piano Concerto Nº1

Witold Lutoslawski

Paganini Variations for piano and orchestra

Peter Jablonski

Royal Philharmonic Orchestra

Vladimir Ashkenazy

CD - DECCA - 436 239 - 2

Recording location: EMI Studios, Abbey Road, London, May 1991

APE+CUE+SCANS (*.pdf)

http://rapidshare.com/files/228501121/JBLNSK.part3.rar
http://rapidshare.com/files/228489553/JBLNSK.part2.rar
http://rapidshare.com/files/228477337/JBLNSK.part1.rar

PASSWORD: Tilia platyphyllos