Subcategories

Radio Massacre International - Solid States (2003)

Posted By: gribovar
Radio Massacre International - Solid States (2003)

Radio Massacre International - Solid States (2003)
EAC Rip | APE (tracks+.cue+log) - 803 MB | MP3 CBR 320 kbps (LAME 3.93) - 370 MB | Covers (2 MB) included
Genre: Electronic, Berlin School | RAR 3% Rec. | Label: Northern Echo Recordings (NE012)

Radio Massacre International is a trio of English musicians (Duncan Goddard, Steve Dinsdale, Gary Houghton) known for their extended concerts of epic aural excursions. Their performances are largely improvised and often veer off into areas dictated by mood, circumstance or whim. RMI's recorded output reflects the diversity and complexity of this work, which is often compared to that of the Berlin School of cosmic music that emerged in Germany during the 1970s. But RMI is not simply re-creating the music of this era, but rather further exploring and contemplating the expressional mode and the instruments that made it possible - in hopes of realizing new ideas. Their album "Solid States" is an audio document of their bi-coastal 2002 tour of the USA, including the track "Nov(embers)" recorded live on Star's End.
CD 1 Tracklist:
01. Wrecks
02. Ants In Me Room
03. Black Cloud Over Claremont
04. The Loneliness Of The Long Distance Drummer
05. 'Ave It!/Erm

Total time: 01:17:21

CD 2 Tracklist:
01. I Knew We Were In Trouble When They Taught The Machines To Talk
02. Delaware Horseshoe Crab
03. International Mass
04. (Nov)embers

Total time: 01:18:50

Exact Audio Copy V0.99 prebeta 3 from 28. July 2007

EAC extraction logfile from 23. November 2007, 11:27

Radio Massacre International / Solid States - CD1

Used drive : PIONEER DVD-RW DVR-108 Adapter: 0 ID: 0

Read mode : Secure
Utilize accurate stream : Yes
Defeat audio cache : Yes
Make use of C2 pointers : No

Read offset correction : 48
Overread into Lead-In and Lead-Out : No
Fill up missing offset samples with silence : Yes
Delete leading and trailing silent blocks : No
Null samples used in CRC calculations : Yes
Used interface : Native Win32 interface for Win NT & 2000
Gap handling : Appended to previous track

Used output format : Internal WAV Routines
Sample format : 44.100 Hz; 16 Bit; Stereo


TOC of the extracted CD

Track | Start | Length | Start sector | End sector
––––––––––––––––––––––––––––-
1 | 0:00.00 | 19:12.40 | 0 | 86439
2 | 19:12.40 | 8:17.00 | 86440 | 123714
3 | 27:29.40 | 8:38.00 | 123715 | 162564
4 | 36:07.40 | 14:20.53 | 162565 | 227117
5 | 50:28.18 | 26:52.34 | 227118 | 348051


Track 1

Filename C:\NVIDIA\01 - Wrecks.wav

Pre-gap length 0:00:02.00

Peak level 82.2 %
Track quality 100.0 %
Test CRC B321A9AC
Copy CRC B321A9AC
Track not present in AccurateRip database
Copy OK

Track 2

Filename C:\NVIDIA\02 - Ants in Me Room.wav

Pre-gap length 0:00:29.52

Peak level 97.7 %
Track quality 100.0 %
Test CRC 91C08147
Copy CRC 91C08147
Track not present in AccurateRip database
Copy OK

Track 3

Filename C:\NVIDIA\03 - Black Cloud over Claremont.wav

Peak level 95.9 %
Track quality 99.9 %
Test CRC 703F892E
Copy CRC 703F892E
Track not present in AccurateRip database
Copy OK

Track 4

Filename C:\NVIDIA\04 - The Loneliness of the Long Distance Drummer.wav

Peak level 90.8 %
Track quality 99.9 %
Test CRC FFEAC1C9
Copy CRC FFEAC1C9
Track not present in AccurateRip database
Copy OK

Track 5

Filename C:\NVIDIA\05 - Ave It! - Erm.wav

Pre-gap length 0:00:15.00

Peak level 97.5 %
Track quality 100.0 %
Test CRC 9092C8DE
Copy CRC 9092C8DE
Track not present in AccurateRip database
Copy OK


None of the tracks are present in the AccurateRip database

No errors occurred

End of status report

[CUETools log; Date: 30.08.2016 2:44:19; Version: 2.1.4]
[CTDB TOCID: E54RHLDmu1lSLLC3c9Z0xV12N8s-] found.
Track | CTDB Status
1 | (2/2) Accurately ripped
2 | (2/2) Accurately ripped
3 | (2/2) Accurately ripped
4 | (2/2) Accurately ripped
5 | (2/2) Accurately ripped
[AccurateRip ID: 000e76b2-00436a8c-32122005] found.
Track [ CRC | V2 ] Status
01 [afb6f3c4|509d3bb4] (05+05/10) Accurately ripped
02 [e769c1c6|4b350c27] (05+05/10) Accurately ripped
03 [0bcd3e91|aef384c1] (05+05/10) Accurately ripped
04 [e71a8c99|55f64ba4] (05+05/10) Accurately ripped
05 [facd60ed|ef48029f] (05+05/10) Accurately ripped

Track Peak [ CRC32 ] [W/O NULL] [ LOG ]
– 97,7 [64B05103] [38274E48]
01 82,2 [B321A9AC] [3249DFF5] CRC32
02 97,7 [91C08147] [67512F0B] CRC32
03 95,9 [703F892E] [3BDFFB57] CRC32
04 90,8 [FFEAC1C9] [B68B569D] CRC32
05 97,5 [9092C8DE] [D21CA9B6] CRC32

Exact Audio Copy V0.99 prebeta 3 from 28. July 2007

EAC extraction logfile from 23. November 2007, 13:17

Radio Massacre International / Solid States - CD2

Used drive : PIONEER DVD-RW DVR-108 Adapter: 0 ID: 0

Read mode : Secure
Utilize accurate stream : Yes
Defeat audio cache : Yes
Make use of C2 pointers : No

Read offset correction : 48
Overread into Lead-In and Lead-Out : No
Fill up missing offset samples with silence : Yes
Delete leading and trailing silent blocks : No
Null samples used in CRC calculations : Yes
Used interface : Native Win32 interface for Win NT & 2000
Gap handling : Not detected, thus appended to previous track

Used output format : Internal WAV Routines
Sample format : 44.100 Hz; 16 Bit; Stereo


TOC of the extracted CD

Track | Start | Length | Start sector | End sector
––––––––––––––––––––––––––––-
1 | 0:00.00 | 16:54.25 | 0 | 76074
2 | 16:54.25 | 18:19.59 | 76075 | 158558
3 | 35:14.09 | 11:34.60 | 158559 | 210668
4 | 46:48.69 | 32:01.20 | 210669 | 354763


Track 1

Filename C:\NVIDIA\01 - I Knew We Were in Trouble When They Taught the Machines to Talk.wav

Peak level 81.7 %
Track quality 100.0 %
Test CRC D7916AA3
Copy CRC D7916AA3
Track not present in AccurateRip database
Copy OK

Track 2

Filename C:\NVIDIA\02 - Delaware Horseshoe Crab.wav

Peak level 69.9 %
Track quality 99.9 %
Test CRC 81C09B2B
Copy CRC 81C09B2B
Track not present in AccurateRip database
Copy OK

Track 3

Filename C:\NVIDIA\03 - International Mass.wav

Peak level 91.5 %
Track quality 100.0 %
Test CRC DC70CEB0
Copy CRC DC70CEB0
Track not present in AccurateRip database
Copy OK

Track 4

Filename C:\NVIDIA\04 - (Nov)embers.wav

Peak level 87.2 %
Track quality 100.0 %
Test CRC B95F88AF
Copy CRC B95F88AF
Track not present in AccurateRip database
Copy OK


None of the tracks are present in the AccurateRip database

No errors occurred

End of status report

[CUETools log; Date: 30.08.2016 2:48:58; Version: 2.1.4]
[CTDB TOCID: b5dS6HaKpu.rExKGfu9YBDJPk1E-] found.
Track | CTDB Status
1 | (2/2) Accurately ripped
2 | (2/2) Accurately ripped
3 | (1/2) Accurately ripped, or (1/2) differs in 493 samples @06:19:01-06:19:02
4 | (1/2) Accurately ripped, or (1/2) differs in 14 samples @11:03:64
[AccurateRip ID: 000c3543-00318124-1f127a04] found.
Track [ CRC | V2 ] Status
01 [d12ed09d|c620b16a] (05+05/10) Accurately ripped
02 [d4d6e069|78bfdf01] (05+05/10) Accurately ripped
03 [9f24fcfc|f30b9336] (05+05/10) Accurately ripped
04 [21b0ec65|e7260a00] (05+05/10) Accurately ripped

Track Peak [ CRC32 ] [W/O NULL] [ LOG ]
– 91,5 [DBC5DDC6] [2F07D2D6]
01 81,7 [D7916AA3] [4CD47CC2] CRC32
02 69,9 [81C09B2B] [839136EF] CRC32
03 91,5 [DC70CEB0] [483C7ACF] CRC32
04 87,2 [B95F88AF] [01508D84] CRC32

Thanks to Zammo

LOSSLESS:
Nitroflare.com
_______________

MP3 320 kbps:
Nitroflare.com


LOSSLESS:
Depositfiles.com
_______________

MP3 320 kbps:
Depositfiles.com