Subcategories

Radu Lupu, Murray Perahia, English CO - Wolfgang Amadeus Mozart: Concertos for Two and Three Pianos (1991)

Posted By: Designol
Radu Lupu, Murray Perahia, English CO - Wolfgang Amadeus Mozart: Concertos for Two and Three Pianos (1991)

Wolfgang Amadeus Mozart - Concertos for Two and Three Pianos (1991)
Radu Lupu, piano; Murray Perahia, piano; English Chamber Orchestra

EAC | FLAC | Image (Cue&Log) ~ 242 Mb (incl 5%) | Mp3 (CBR320) ~ 155 Mb (incl 5%) | Scans included
Genre: Classical | Label: Sony Classical | # SK 44 915 | Time: 01:02:09

Radu Lupu and Murray Perahia should have recorded all of Mozart's piano music for four hands, which includes several neglected masterpieces. This disc reflects their ideal partnership, two artists of great sensitivity collaborating in performances that feature constant interplay of parts, alertness to each other's work, and superb playing as individuals. The Concerto for Two Pianos ripples along without a care in the world, just as it should, and the English Chamber Orchestra doesn't seem to care that nobody is conducting it. The pieces without orchestra are a bit less significant (as is the Concerto for Three Pianos), but the playing is so beautiful you won't care.

Review by Leslie Gerber

Originally released in 1991, this recording has been through several reissues that have tweaked both the sound and the contents. It's hard to blame Sony for recycling it, for the album was a winner from the start; it has been supplanted by historical-instrument recordings but remains state-of-the-art for performances using modern instruments. Combining tracks recorded in 1988 and 1990, this was originally the tail end of Murray Perahia's justly celebrated cycle of Mozart concertos. The central attraction is the Concerto for two pianos and orchestra in E flat major, K. 365, where Perahia, Radu Lupu, and the English Chamber Orchestra, all without benefit of a conductor, deliver a performance that's spacious, imposing, detailed, and spontaneous, all at the same time. All the musicians seem to operate as a single unit, with the drama provided by the orchestra in the opening material of the first movement answered by supple dual explorations from the two pianists. The program is filled out with rather unusual works, which has also added to the album's appeal down through the years. The Concerto for three pianos and orchestra in F major, K. 242, is presented in Mozart's own two-piano arrangement, which attests to the composer's fondness for this lightweight little piece. The Fantasia in F minor, K. 608, originally for an instrument known as a mechanical clock, mechanical organ, or flute-clock (it is a small machine with a clock on the front, above which miniature organ pipes would be automatically activated by the mechanism, an "authentic" performance would also include moving pastoral scenes on one panel, some of which could apparently get somewhat erotic). Mozart transcribed the work for two pianos, and Ferruccio Busoni later expanded this transcription in much the same way as he did the works of Bach, adding chromatic complications and late Romantic phrasing and pedal use. Perahia and Lupu take this yet another step, restoring material from the original that Busoni omitted. Finally is the rarely played Andante and Variations for four hands in G major, K. 501, which cleanses the palate after the sweet flavors of the Busoni. At a true budget price level, this may be the reissue of choice; at least one other version of the disc includes music by Brahms that breaks the carefully constructed mood of the program.

Review by James Manheim, Allmusic.com

Radu Lupu, Murray Perahia, English CO - Wolfgang Amadeus Mozart: Concertos for Two and Three Pianos (1991)



Radu Lupu, Murray Perahia, English CO - Wolfgang Amadeus Mozart: Concertos for Two and Three Pianos (1991)



Tracklist:

Concerto for 2 Pianos and Orchesra in E flat major K.365 [316a]
01. I: Allegro (09:40)
02. II: Andante (07:09)
03. III: Rondeaux. Allegro (06:38)

Concerto for 3 Pianos and Orchesra in F major K.242
(arranged for 2 pianos by W.A.Mozart)
04. I: Allegro (08:11)
05. II: Adagio (07:11)
06. III: Rondeau. Tempo di Menuetto (05:20)

Fantasia in F minor K.608
(for organ, arranged for 2 pianos by F. Busoni)
07. I: Allegro ritenuto (03:10)
08. II: Andante (04:22)
09. III: Allegro ritenuto (02:36)

Andante and variations for four hands in G major K.501
10. Andante (01:12)
11. Variation 1 (01:05)
12. Variation 2 (01:03)
13. Variation 3 (01:00)
14. Variation 4 (01:23)
15. Variation 5 (02:03)


Exact Audio Copy V1.0 beta 3 from 29. August 2011

Отчёт EAC об извлечении, выполненном 17. апреля 2016, 9:55

Murray Perahia & Radu Lupu / Mozart - Concertos for Two and Three Pianos

Дисковод: Optiarc DVD RW AD-7260S Adapter: 0 ID: 1

Режим чтения : Достоверность
Использование точного потока : Да
Отключение кэша аудио : Да
Использование указателей C2 : Нет

Коррекция смещения при чтении : 48
Способность читать области Lead-in и Lead-out : Нет
Заполнение пропущенных сэмплов тишиной : Да
Удаление блоков с тишиной в начале и конце : Нет
При вычислениях CRC использовались нулевые сэмплы : Да
Интерфейс : Встроенный Win32-интерфейс для Win NT/2000

Выходной формат : Пользовательский кодировщик
Выбранный битрейт : 896 kBit/s
Качество : Высокий
Добавление ID3-тега : Нет
Утилита сжатия : C:\Program Files\FLAC Frontend\tools\flac.exe
Дополнительные параметры : -V -8 -T "Date=%year%" -T "Genre=%genre%" %source%


TOC извлечённого CD

Трек | Старт | Длительность | Начальный сектор | Конечный сектор
––––––––––––––––––––––––––––––––––-
1 | 0:00.00 | 9:40.00 | 0 | 43499
2 | 9:40.00 | 7:09.12 | 43500 | 75686
3 | 16:49.12 | 6:38.63 | 75687 | 105599
4 | 23:28.00 | 8:11.00 | 105600 | 142424
5 | 31:39.00 | 7:11.00 | 142425 | 174749
6 | 38:50.00 | 5:20.00 | 174750 | 198749
7 | 44:10.00 | 3:10.12 | 198750 | 213011
8 | 47:20.12 | 4:22.55 | 213012 | 232716
9 | 51:42.67 | 2:36.08 | 232717 | 244424
10 | 54:19.00 | 1:12.55 | 244425 | 249879
11 | 55:31.55 | 1:05.45 | 249880 | 254799
12 | 56:37.25 | 1:03.62 | 254800 | 259586
13 | 57:41.12 | 1:00.30 | 259587 | 264116
14 | 58:41.42 | 1:23.48 | 264117 | 270389
15 | 60:05.15 | 2:03.62 | 270390 | 279676


Характеристики диапазона извлечения и сообщения об ошибках

Выбранный диапазон

Имя файла D:\EAC\Мои раздачи\Mozart - Concertos for Two and Three Pianos - Perahia, Lupu\Murray Perahia & Radu Lupu - Mozart - Concertos for Two and Three Pianos.wav

Пиковый уровень 100.0 %
Скорость извлечения 3.4 X
Качество диапазона 99.9 %
CRC теста D5C65828
CRC копии D5C65828
Копирование… OK

Ошибок не произошло


AccurateRip: сводка

Трек 1 : извлечено точно (доверие 20) [536F06EA] (AR v2)
Трек 2 : извлечено точно (доверие 20) [0C4840B2] (AR v2)
Трек 3 : извлечено точно (доверие 20) [01F72381] (AR v2)
Трек 4 : извлечено точно (доверие 20) [19DDDD4D] (AR v2)
Трек 5 : извлечено точно (доверие 20) [6BD3E58A] (AR v2)
Трек 6 : извлечено точно (доверие 20) [0DA9807D] (AR v2)
Трек 7 : извлечено точно (доверие 20) [50387C75] (AR v2)
Трек 8 : извлечено точно (доверие 20) [FD7D21DD] (AR v2)
Трек 9 : извлечено точно (доверие 20) [F4B29180] (AR v2)
Трек 10 : извлечено точно (доверие 20) [4A338714] (AR v2)
Трек 11 : извлечено точно (доверие 20) [2416F46B] (AR v2)
Трек 12 : извлечено точно (доверие 20) [F838E12B] (AR v2)
Трек 13 : извлечено точно (доверие 20) [A223B749] (AR v2)
Трек 14 : извлечено точно (доверие 20) [F1CDA19C] (AR v2)
Трек 15 : извлечено точно (доверие 20) [11A19308] (AR v2)

Все треки извлечены точно

Конец отчёта

==== Контрольная сумма отчёта 7ED4A1331D52E933F2A8FCF44EE255B3F6A4DD60234301C569E82F3A92739608 ====

foobar2000 1.2 / Dynamic Range Meter 1.1.1
log date: 2016-04-28 12:53:04

––––––––––––––––––––––––––––––––––––––––
Analyzed: Murray Perahia & Radu Lupu / Mozart - Concertos for Two and Three Pianos
––––––––––––––––––––––––––––––––––––––––

DR Peak RMS Duration Track
––––––––––––––––––––––––––––––––––––––––
DR14 0.00 dB -19.01 dB 9:40 01-Concerto for 2 Pianos and Orchesra in E flat major K.365 [316a] - I: Allegro
DR15 -0.28 dB -22.37 dB 7:09 02-Concerto for 2 Pianos and Orchesra in E flat major K.365 [316a] - II: Andante
DR14 0.00 dB -18.53 dB 6:39 03-Concerto for 2 Pianos and Orchesra in E flat major K.365 [316a] - III: Rondeaux. Allegro
DR13 0.00 dB -18.97 dB 8:11 04-Concerto for 3 Pianos and Orchesra in F major K.242 - I: Allegro
DR14 -2.80 dB -22.20 dB 7:11 05-Concerto for 3 Pianos and Orchesra in F major K.242 - II: Adagio
DR15 -0.67 dB -20.57 dB 5:20 06-Concerto for 3 Pianos and Orchesra in F major K.242 - III: Rondeau. Tempo di Menuetto
DR14 -1.41 dB -20.35 dB 3:10 07-Fantasia in F minor K.608 - I: Allegro ritenuto
DR13 -6.51 dB -27.00 dB 4:23 08-Fantasia in F minor K.608 - II: Andante
DR13 -0.60 dB -18.60 dB 2:36 09-Fantasia in F minor K.608 - III: Allegro ritenuto
DR13 -13.81 dB -31.21 dB 1:13 10-Andante and variations for four hands in G major K.501 - Andante
DR11 -10.95 dB -27.81 dB 1:06 11-Andante and variations for four hands in G major K.501 - Variation 1
DR12 -11.50 dB -27.87 dB 1:04 12-Andante and variations for four hands in G major K.501 - Variation 2
DR14 -9.60 dB -26.26 dB 1:00 13-Andante and variations for four hands in G major K.501 - Variation 3
DR15 -9.99 dB -29.51 dB 1:24 14-Andante and variations for four hands in G major K.501 - Variation 4
DR15 -4.31 dB -25.57 dB 2:04 15-Andante and variations for four hands in G major K.501 - Variation 5
––––––––––––––––––––––––––––––––––––––––

Number of tracks: 15
Official DR value: DR14

Samplerate: 44100 Hz
Channels: 2
Bits per sample: 16
Bitrate: 506 kbps
Codec: FLAC
================================================================================

Radu Lupu, Murray Perahia, English CO - Wolfgang Amadeus Mozart: Concertos for Two and Three Pianos (1991)

All thanks to original releaser - Святогор Иванович