Subcategories

Radu Malfatti - Burkhard Stangl - Michael Moser - Werner Dafeldecker - Polwechsel 1 (1998)

Posted By: basa005
Radu Malfatti - Burkhard Stangl - Michael Moser - Werner Dafeldecker - Polwechsel 1 (1998)

Radu Malfatti - Burkhard Stangl - Michael Moser - Werner Dafeldecker - Polwechsel 1 (1998)
EAC RIP | APE + CUE + LOG | COVER + BOOK | RAR FILES (3% recovery) | 169 Mb
Classical | hat[now]ART 112

Radu Malfatti - Burkhard Stangl - Michael Moser - Werner Dafeldecker - Polwechsel 1 (1998)

Tracklist:
1. Nord (by Dafeldecker)
2. Ost (by Dafeldecker)
3. NNO-Fernaumoos (by Moser)
4. Sudwest (by Dafeldecker)

Polwechsel - Radu Malfatti (trombone),
Burkhard Stangl (guitar),
Michael Moser (cello),
Werner Dafeldecker (double bass & guitar)

Even music evolving from a background like this finds its place in an historical development, although music history hasn't been densely inhabited by musicians and composers who are working towards a productive tension between the poles of improvisation and composition. And the selection becomes even more narrow when restricting the search onto groups of musicians who, in more heroic times, were quick to be named a "collective."
—Christian Scheib


Exact Audio Copy V0.99 prebeta 4 from 23. January 2008

EAC extraction logfile from 3. March 2011, 16:18

Polwechsel / 1

Used drive : ATAPI DVD A DH16A1L Adapter: 1 ID: 0

Read mode : Secure
Utilize accurate stream : Yes
Defeat audio cache : Yes
Make use of C2 pointers : No

Read offset correction : 6
Overread into Lead-In and Lead-Out : No
Fill up missing offset samples with silence : Yes
Delete leading and trailing silent blocks : No
Null samples used in CRC calculations : Yes
Used interface : Native Win32 interface for Win NT & 2000

Used output format : Internal WAV Routines
Sample format : 44.100 Hz; 16 Bit; Stereo


TOC of the extracted CD

Track | Start | Length | Start sector | End sector
––––––––––––––––––––––––––––-
1 | 0:00.00 | 13:31.62 | 0 | 60886
2 | 13:31.62 | 15:05.00 | 60887 | 128761
3 | 28:36.62 | 10:52.00 | 128762 | 177661
4 | 39:28.62 | 9:35.13 | 177662 | 220799


Range status and errors

Selected range

Filename C:\avaxhome\Polwechsel - 1.wav

Peak level 98.3 %
Range quality 100.0 %
Copy CRC 207CD35F
Copy OK

No errors occurred


AccurateRip summary

Track 1 cannot be verified as accurate (confidence 3) [4B105DE0], AccurateRip returned [20DD67EF]
Track 2 cannot be verified as accurate (confidence 3) [6DD334C0], AccurateRip returned [478D1F88]
Track 3 cannot be verified as accurate (confidence 3) [8D42FB10], AccurateRip returned [3222E2C3]
Track 4 cannot be verified as accurate (confidence 3) [559E7DA2], AccurateRip returned [EA43209F]

No tracks could be verified as accurate
You may have a different pressing from the one(s) in the database

End of status report

Radu Malfatti - Burkhard Stangl - Michael Moser - Werner Dafeldecker - Polwechsel 1 (1998)
RS link
Radu Malfatti - Burkhard Stangl - Michael Moser - Werner Dafeldecker - Polwechsel 1 (1998)
MU link
Radu Malfatti - Burkhard Stangl - Michael Moser - Werner Dafeldecker - Polwechsel 1 (1998)
HF link