Subcategories
Tags
Language
Tags

Rainbow Serpent / Fanger & Schönwälder - Elektrik Cowboys (2009)

Posted By: gribovar
Rainbow Serpent / Fanger & Schönwälder - Elektrik Cowboys (2009)

Rainbow Serpent / Fanger & Schönwälder - Elektrik Cowboys (2009)
EAC Rip | FLAC (image+.cue+log) - 370 MB | MP3 CBR 320 kbps (LAME 3.93) - 151 MB | Covers included
Genre: Electronic, Berlin School | RAR 3% Rec. | Label: Ricochet Dream (RD041)

Classic Berlin School electronic music recorded live in Montana and evokes dreamy images of Yellowstone with influence of Tangerine Dream, Klaus Schulze, Steve Roach and even Ashra.
Recorded live in 2007 with the Ricochet Gathering Yellowstone 2007. Mario is also well known for his solo works, collaborations and the German electronic music label Manikin. Thomas Fanger has played in many ambient and techno electronic line-ups. He is also in film production. This release contains an epic long Berlin School electronic track akin to Tangerine Dream in the mid 1970's. Rainbow Serpent with Gerd and Frank have long followed in the Berlin School electronic music tradition and this CD features two tracks showing Rainbow Serpent in their prime. Guaranteed to please any fan of this electronic music genre.
Tracklist:
01. Rainbow Serpent - Geyser Field
02. Rainbow Serpent - On The Road
03. Fanger & Schönwälder - Montana Grooves

Total time: 01:03:28

Exact Audio Copy V1.3 from 2. September 2016

EAC extraction logfile from 16. December 2017, 12:08

Rainbow Serpent / Fanger & Schönwälder , / Elektrik Cowboys

Used drive : PIONEER BD-RW BDR-209M Adapter: 1 ID: 0

Read mode : Secure
Utilize accurate stream : Yes
Defeat audio cache : Yes
Make use of C2 pointers : No

Read offset correction : 667
Overread into Lead-In and Lead-Out : No
Fill up missing offset samples with silence : Yes
Delete leading and trailing silent blocks : No
Null samples used in CRC calculations : Yes
Used interface : Native Win32 interface for Win NT & 2000

Used output format : User Defined Encoder
Selected bitrate : 1024 kBit/s
Quality : High
Add ID3 tag : No
Command line compressor : C:\Program Files (x86)\Exact Audio Copy\Flac\flac.exe
Additional command line options : -V -8 -T "Date=%year%" -T "Genre=%genre%" %source%


TOC of the extracted CD

Track | Start | Length | Start sector | End sector
––––––––––––––––––––––––––––-
1 | 0:00.00 | 15:30.22 | 0 | 69771
2 | 15:30.22 | 12:30.35 | 69772 | 126056
3 | 28:00.57 | 35:27.27 | 126057 | 285608


Range status and errors

Selected range

Filename C:\Users\Jean\Music\Rainbow Serpent , Fanger & Schönwälder , - Elektrik Cowboys.wav

Peak level 98.5 %
Extraction speed 7.9 X
Range quality 100.0 %
Test CRC 496F5C14
Copy CRC 496F5C14
Copy OK

No errors occurred


AccurateRip summary

Track 1 accurately ripped (confidence 2) [0F36F211] (AR v2)
Track 2 accurately ripped (confidence 2) [8A5357C5] (AR v2)
Track 3 accurately ripped (confidence 2) [FF1F50C5] (AR v2)

All tracks accurately ripped

End of status report

–– CUETools DB Plugin V2.1.6

[CTDB TOCID: cMtqAHCCAuYF3weVisJ.77bz4MI-] found
Submit result: cMtqAHCCAuYF3weVisJ.77bz4MI- has been confirmed
Track | CTDB Status
1 | (5/5) Accurately ripped
2 | (5/5) Accurately ripped
3 | (5/5) Accurately ripped


==== Log checksum 5C763A57AF53BF073E50037C4E5DCC969EE8AB8A3FB23AE556C03DD3A0191B7E ====

[CUETools log; Date: 17.12.2017 16:20:11; Version: 2.1.4]
[CTDB TOCID: cMtqAHCCAuYF3weVisJ.77bz4MI-] found.
Track | CTDB Status
1 | (6/6) Accurately ripped
2 | (6/6) Accurately ripped
3 | (6/6) Accurately ripped
[AccurateRip ID: 0007589e-001954f8-210ee003] found.
Track [ CRC | V2 ] Status
01 [4b44e529|0f36f211] (2+2/4) Accurately ripped
02 [a8a91027|8a5357c5] (2+2/4) Accurately ripped
03 [8cc26a9d|ff1f50c5] (2+2/4) Accurately ripped

Track Peak [ CRC32 ] [W/O NULL] [ LOG ]
– 98,5 [496F5C14] [93939515] CRC32
01 98,5 [390959AF] [F8429710]
02 94,3 [CDCF1128] [094CBCA5]
03 96,8 [75D93387] [E4F38229]

Thanks to Jeanlab