Tags
Language
Tags

Rainer Bloss - Drive Inn III (1998)

Posted By: gribovar
Rainer Bloss - Drive Inn III (1998)

Rainer Bloss - Drive Inn III (1998)
EAC Rip | FLAC (tracks+.cue+log) - 387 MB | MP3 CBR 320 kbps (LAME 3.93) - 144 MB | Covers - 74 MB
Genre: Traditional Electronic, Berlin School | RAR 3% Rec. | Label: TKO Magnum Music (CDTB 181)

Rainer Bloss (1946-2015) was a German electronic musician. He collaborated with electronic composer Klaus Schulze in the 1980s to produce several albums, including Audentity (1981), Aphrica (1984), and Drive Inn (1984). Worked as co-writer for Alphaville since mid-90s.
Tracklist:
01. Archimedes Plaza
02. Dawn Patrol
03. Love 15
04. Eternal Restroom
05. Ford Galaxy
06. Mysterion
07. Astrodome
08. Nebula
09. Enter Space
10. Space Driver
11. Gagarian Lighthouse
12. Endless
13. Metamorphosis

Total time: 01:01:20

Exact Audio Copy V1.1 from 23. June 2015

EAC extraction logfile from 12. October 2016, 14:36

Rainer Bloss / Drive Inn III

Used drive : SONY DVD RW AD-7260S Adapter: 2 ID: 0

Read mode : Secure
Utilize accurate stream : Yes
Defeat audio cache : Yes
Make use of C2 pointers : No

Read offset correction : 48
Overread into Lead-In and Lead-Out : No
Fill up missing offset samples with silence : Yes
Delete leading and trailing silent blocks : No
Null samples used in CRC calculations : Yes
Used interface : Installed external ASPI interface
Gap handling : Appended to previous track

Used output format : Internal WAV Routines
Sample format : 44.100 Hz; 16 Bit; Stereo


TOC of the extracted CD

Track | Start | Length | Start sector | End sector
––––––––––––––––––––––––––––-
1 | 0:00.00 | 3:02.29 | 0 | 13678
2 | 3:02.29 | 3:45.13 | 13679 | 30566
3 | 6:47.42 | 4:56.23 | 30567 | 52789
4 | 11:43.65 | 3:17.46 | 52790 | 67610
5 | 15:01.36 | 3:44.18 | 67611 | 84428
6 | 18:45.54 | 11:07.21 | 84429 | 134474
7 | 29:53.00 | 4:27.43 | 134475 | 154542
8 | 34:20.43 | 4:34.16 | 154543 | 175108
9 | 38:54.59 | 4:17.37 | 175109 | 194420
10 | 43:12.21 | 5:30.65 | 194421 | 219235
11 | 48:43.11 | 4:04.21 | 219236 | 237556
12 | 52:47.32 | 4:35.69 | 237557 | 258250
13 | 57:23.26 | 3:57.08 | 258251 | 276033


Track 1

Filename W:\Torrents To Upload\RuTracker\Rainer Bloss\1998 - Drive Inn III\01. Archimedes Plaza.wav

Pre-gap length 0:00:02.00

Peak level 99.8 %
Extraction speed 2.3 X
Track quality 100.0 %
Test CRC EDCA9BE9
Copy CRC EDCA9BE9
Accurately ripped (confidence 1) [2E1A6314] (AR v2)
Copy OK

Track 2

Filename W:\Torrents To Upload\RuTracker\Rainer Bloss\1998 - Drive Inn III\02. Dawn Patrol.wav

Pre-gap length 0:00:02.00

Peak level 98.8 %
Extraction speed 2.6 X
Track quality 100.0 %
Test CRC 20402CEF
Copy CRC 20402CEF
Accurately ripped (confidence 1) [32277C2C] (AR v2)
Copy OK

Track 3

Filename W:\Torrents To Upload\RuTracker\Rainer Bloss\1998 - Drive Inn III\03. Love 15.wav

Pre-gap length 0:00:02.00

Peak level 99.7 %
Extraction speed 2.9 X
Track quality 100.0 %
Test CRC 02FF6BDD
Copy CRC 02FF6BDD
Accurately ripped (confidence 1) [5FF6C808] (AR v2)
Copy OK

Track 4

Filename W:\Torrents To Upload\RuTracker\Rainer Bloss\1998 - Drive Inn III\04. Eternal Restroom.wav

Pre-gap length 0:00:02.00

Peak level 99.8 %
Extraction speed 3.0 X
Track quality 100.0 %
Test CRC AC017759
Copy CRC AC017759
Accurately ripped (confidence 1) [DCEDBA3F] (AR v2)
Copy OK

Track 5

Filename W:\Torrents To Upload\RuTracker\Rainer Bloss\1998 - Drive Inn III\05. Ford Galaxy.wav

Pre-gap length 0:00:02.00

Peak level 98.3 %
Extraction speed 3.2 X
Track quality 100.0 %
Test CRC D31AB798
Copy CRC D31AB798
Accurately ripped (confidence 1) [D8A3A669] (AR v2)
Copy OK

Track 6

Filename W:\Torrents To Upload\RuTracker\Rainer Bloss\1998 - Drive Inn III\06. Mysterion.wav

Pre-gap length 0:00:02.00

Peak level 99.6 %
Extraction speed 3.8 X
Track quality 99.9 %
Test CRC C7EEAA60
Copy CRC C7EEAA60
Accurately ripped (confidence 1) [70C842AD] (AR v2)
Copy OK

Track 7

Filename W:\Torrents To Upload\RuTracker\Rainer Bloss\1998 - Drive Inn III\07. Astrodome.wav

Pre-gap length 0:00:02.00

Peak level 99.5 %
Extraction speed 3.6 X
Track quality 99.9 %
Test CRC 34AE5602
Copy CRC 34AE5602
Accurately ripped (confidence 1) [F88517D1] (AR v2)
Copy OK

Track 8

Filename W:\Torrents To Upload\RuTracker\Rainer Bloss\1998 - Drive Inn III\08. Nebula.wav

Pre-gap length 0:00:02.00

Peak level 98.2 %
Extraction speed 3.7 X
Track quality 99.9 %
Test CRC 051D311A
Copy CRC 051D311A
Accurately ripped (confidence 1) [581696A2] (AR v2)
Copy OK

Track 9

Filename W:\Torrents To Upload\RuTracker\Rainer Bloss\1998 - Drive Inn III\09. Enter Space.wav

Pre-gap length 0:00:02.00

Peak level 99.0 %
Extraction speed 4.3 X
Track quality 100.0 %
Test CRC 0FAD07C1
Copy CRC 0FAD07C1
Accurately ripped (confidence 1) [85FB6CF1] (AR v2)
Copy OK

Track 10

Filename W:\Torrents To Upload\RuTracker\Rainer Bloss\1998 - Drive Inn III\10. Space Driver.wav

Pre-gap length 0:00:02.00

Peak level 99.3 %
Extraction speed 4.6 X
Track quality 100.0 %
Test CRC DF094D57
Copy CRC DF094D57
Accurately ripped (confidence 1) [8E6F7629] (AR v2)
Copy OK

Track 11

Filename W:\Torrents To Upload\RuTracker\Rainer Bloss\1998 - Drive Inn III\11. Gagarin Lighthouse.wav

Pre-gap length 0:00:02.00

Peak level 99.6 %
Extraction speed 4.6 X
Track quality 100.0 %
Test CRC 974611A6
Copy CRC 974611A6
Accurately ripped (confidence 1) [FD245D6F] (AR v2)
Copy OK

Track 12

Filename W:\Torrents To Upload\RuTracker\Rainer Bloss\1998 - Drive Inn III\12. Endless.wav

Pre-gap length 0:00:02.00

Peak level 99.3 %
Extraction speed 4.8 X
Track quality 100.0 %
Test CRC 08A1B041
Copy CRC 08A1B041
Accurately ripped (confidence 1) [57DE9FF4] (AR v2)
Copy OK

Track 13

Filename W:\Torrents To Upload\RuTracker\Rainer Bloss\1998 - Drive Inn III\13. Metamorphosis.wav

Pre-gap length 0:00:02.00

Peak level 98.8 %
Extraction speed 4.9 X
Track quality 100.0 %
Test CRC C06E736F
Copy CRC C06E736F
Accurately ripped (confidence 1) [E06F59C3] (AR v2)
Copy OK


All tracks accurately ripped

No errors occurred

End of status report

==== Log checksum AE4EC47581CA99E30CB6D3415B2AD582E9D74445B21ACCABD1B3BE856115BA06 ====

[CUETools log; Date: 26.02.2021 21:54:02; Version: 2.1.4]
[CTDB TOCID: xvKz1w4cguRfUk8vMojg3dLGa_M-] found.
Track | CTDB Status
1 | (3/3) Accurately ripped
2 | (3/3) Accurately ripped
3 | (3/3) Accurately ripped
4 | (3/3) Accurately ripped
5 | (3/3) Accurately ripped
6 | (3/3) Accurately ripped
7 | (3/3) Accurately ripped
8 | (3/3) Accurately ripped
9 | (3/3) Accurately ripped
10 | (3/3) Accurately ripped
11 | (3/3) Accurately ripped
12 | (3/3) Accurately ripped
13 | (3/3) Accurately ripped
[AccurateRip ID: 001cf8ce-01275c38-b60e600d] found.
Track [ CRC | V2 ] Status
01 [d54d4657|2e1a6314] (0+3/3) Accurately ripped
02 [5eedbcaa|32277c2c] (0+3/3) Accurately ripped
03 [f62f6ac4|5ff6c808] (0+3/3) Accurately ripped
04 [cbad3924|dcedba3f] (0+3/3) Accurately ripped
05 [f8178a2c|d8a3a669] (0+3/3) Accurately ripped
06 [9c3e53f4|70c842ad] (0+3/3) Accurately ripped
07 [cbf3684d|f88517d1] (0+3/3) Accurately ripped
08 [0b57e629|581696a2] (0+3/3) Accurately ripped
09 [9a45fd22|85fb6cf1] (0+3/3) Accurately ripped
10 [eb854828|8e6f7629] (0+3/3) Accurately ripped
11 [1e54c145|fd245d6f] (0+3/3) Accurately ripped
12 [f7fca849|57de9ff4] (0+3/3) Accurately ripped
13 [d8d886a4|e06f59c3] (0+3/3) Accurately ripped

Track Peak [ CRC32 ] [W/O NULL] [ LOG ]
– 99,8 [AEA1F62A] [91D3A9B0]
01 99,8 [EDCA9BE9] [606B8D5B] CRC32
02 98,8 [20402CEF] [34B500D2] CRC32
03 99,7 [02FF6BDD] [4DFACA7A] CRC32
04 99,8 [AC017759] [19B570CD] CRC32
05 98,3 [D31AB798] [98567897] CRC32
06 99,6 [C7EEAA60] [A53AAB87] CRC32
07 99,5 [34AE5602] [D4362E45] CRC32
08 98,2 [051D311A] [1900F9E1] CRC32
09 99,0 [0FAD07C1] [5766A599] CRC32
10 99,3 [DF094D57] [E0321C84] CRC32
11 99,6 [974611A6] [223B9939] CRC32
12 99,3 [08A1B041] [29C2AD23] CRC32
13 98,8 [C06E736F] [9F157C83] CRC32

Thanks to aylaayla