Subcategories

Ramases - Glass Top Coffin (1975) [Reissue 2010]

Posted By: gribovar
Ramases - Glass Top Coffin (1975) [Reissue 2010]

Ramases - Glass Top Coffin (1975) [Reissue 2010]
EAC Rip | FLAC (image+.cue+log) - 280 MB | MP3 CBR 320 kbps (LAME 3.93) - 138 MB | Covers included
Genre: Progressive Rock | RAR 3% Rec. | Label: Esoteric Recordings (ECLEC2184), Remastered

Esoteric Recordings are pleased to announce the release of Glass Top Coffin, the second album by Ramases. The duo (Martin Raphael and his wife Sel) first came to prominence with the release of the album Space Hymns on the Vertigo label in 1971. The Glass Top Coffin project took several years to write, and Ramases vision of an inter-galactic concept finally appeared on Vertigo in 1975 in an elaborate sleeve. The sessions saw contributions from the Royal Philharmonic Orchestra and the London Symphony Orchestra and was arguably the most fully realised of the two Ramases albums.
Tracklist:
01. Golden Landing
02. Long Long Time
03. Now Mona Lisa
04. God Voice
05. Mind Island
06. Only The Loneliest Feeling
07. Sweet Reason
08. Stepping Stones
09. Saler Man
10. Children Of The Green Earth
11. Glass Top Coffin
12. Golden Landing (Part II)

Total time: 50:20

Exact Audio Copy V0.99 prebeta 5 from 4. May 2009

EAC extraction logfile from 20. July 2010, 13:41

Ramases / Glass Top Coffin

Used drive : PIONEER DVD-RW DVR-215D Adapter: 4 ID: 0

Read mode : Secure
Utilize accurate stream : Yes
Defeat audio cache : Yes
Make use of C2 pointers : No

Read offset correction : 48
Overread into Lead-In and Lead-Out : No
Fill up missing offset samples with silence : Yes
Delete leading and trailing silent blocks : No
Null samples used in CRC calculations : Yes
Used interface : Native Win32 interface for Win NT & 2000

Used output format : User Defined Encoder
Selected bitrate : 1024 kBit/s
Quality : High
Add ID3 tag : No
Command line compressor : C:\Program Files\Exact Audio Copy\Flac\flac.exe
Additional command line options : -8 -V %s


TOC of the extracted CD

Track | Start | Length | Start sector | End sector
––––––––––––––––––––––––––––-
1 | 0:00.00 | 6:06.38 | 0 | 27487
2 | 6:06.38 | 5:14.15 | 27488 | 51052
3 | 11:20.53 | 2:56.36 | 51053 | 64288
4 | 14:17.14 | 3:18.18 | 64289 | 79156
5 | 17:35.32 | 4:41.42 | 79157 | 100273
6 | 22:16.74 | 2:56.06 | 100274 | 113479
7 | 25:13.05 | 5:45.23 | 113480 | 139377
8 | 30:58.28 | 4:28.58 | 139378 | 159535
9 | 35:27.11 | 5:02.49 | 159536 | 182234
10 | 40:29.60 | 3:28.72 | 182235 | 197906
11 | 43:58.57 | 3:58.64 | 197907 | 215820
12 | 47:57.46 | 2:22.26 | 215821 | 226496


Range status and errors

Selected range

Filename C:\Documents and Settings\валера\Рабочий стол\Ramases - Glass Top Coffin.wav

Peak level 98.8 %
Range quality 100.0 %
Copy CRC 41698877
Copy OK

No errors occurred


AccurateRip summary

Track 1 accurately ripped (confidence 2) [814AB75D]
Track 2 accurately ripped (confidence 2) [0F13DC61]
Track 3 accurately ripped (confidence 2) [BB9FD02D]
Track 4 accurately ripped (confidence 2) [0A33220A]
Track 5 accurately ripped (confidence 2) [16774E29]
Track 6 accurately ripped (confidence 2) [7C2AB21F]
Track 7 accurately ripped (confidence 2) [116D2C97]
Track 8 accurately ripped (confidence 2) [AC04786B]
Track 9 accurately ripped (confidence 2) [5F230DEC]
Track 10 accurately ripped (confidence 2) [E4355005]
Track 11 accurately ripped (confidence 2) [6EF5425F]
Track 12 accurately ripped (confidence 2) [DA2ECFFA]

All tracks accurately ripped

End of status report

[CUETools log; Date: 04.02.2013 20:24:21; Version: 2.0.9]
[CTDB TOCID: 2HUN0jMgTjyPYnhSijuy91Ex4ag-] found.
[ CTDBID ] Status
[161cf7cb] (2/2) Accurately ripped
[AccurateRip ID: 0017c27b-00dad5c1-ae0bcb0c] found.
Track [ CRC ] Status
01 [814ab75d] (4/4) Accurately ripped
02 [0f13dc61] (4/4) Accurately ripped
03 [bb9fd02d] (4/4) Accurately ripped
04 [0a33220a] (4/4) Accurately ripped
05 [16774e29] (4/4) Accurately ripped
06 [7c2ab21f] (4/4) Accurately ripped
07 [116d2c97] (4/4) Accurately ripped
08 [ac04786b] (4/4) Accurately ripped
09 [5f230dec] (4/4) Accurately ripped
10 [e4355005] (4/4) Accurately ripped
11 [6ef5425f] (4/4) Accurately ripped
12 [da2ecffa] (4/4) Accurately ripped

Track Peak [ CRC32 ] [W/O NULL] [ LOG ]
– 98,8 [41698877] [A1046884] CRC32
01 77,1 [6E3F085D] [21F2D461]
02 98,8 [F3A5083C] [30211FE1]
03 98,8 [E87EB226] [7231C32D]
04 73,8 [3B640937] [32ED7746]
05 76,7 [AC9D76D2] [E0BFB6C8]
06 51,7 [293135FE] [E30A160D]
07 98,8 [80F6457D] [6E6CFF29]
08 69,2 [364BE603] [CE90C8D1]
09 91,3 [08CBD7AF] [34ED895B]
10 77,6 [1476B9C8] [69DA57F3]
11 98,8 [33FE3A2B] [AC6F3A78]
12 63,8 [BFC7DE72] [827884E3]

Thanks to the original releaser

More Esoteric Recordings' releases from my blog:
Esoteric Recordings
LOSSLESS:

Filepost.com
________________

MP3 320 kbps:

Filepost.com