Ramin Djawadi - Game of Thrones: Season 7 (Music from the HBO® Series) (2017)

Posted By: Pisulik
Ramin Djawadi - Game of Thrones: Season 7 (Music from the HBO® Series) (2017)

Ramin Djawadi - Game of Thrones: Season 7 (Music from the HBO® Series) (2017)
EAC Rip | FLAC (Tracks) +cue, log, m3u, artworks - 591 MB | 01:14:12
Soundtracks | Label: WaterTower Music

Score soundtrack of the seventh season to the immensely popular HBO series. Season ends Sunday 8/27/17.


TRACKLIST

01. Main Titles
02. Dragonstone
03. Shall We Begin?
04. The Queen's Justice
05. A Game I Like to Play
06. I Am the Storm
07. The Gift
08. Dragonglass
09. Spoils of War, Pt. 1
10. Spoils of War, Pt. 2
11. The Dagger
12. Home
13. Gorgeous Beasts
14. The Long Farewell
15. Against All Odds
16. See You for What You Are
17. Casterly Rock
18. A Lion's Legacy
19. Message for Cersei
20. Ironborn
21. No One Walks Away from Me
22. Truth
23. The Army of the Dead
24. Winter Is Here

Exact Audio Copy V1.1 from 23. June 2015

EAC extraction logfile from 18. October 2017, 12:25

Ramin Djawadi / Game Of Thrones Season 7 (Music From The HBO Series)

Used drive : slimtype eTDU108 1 Adapter: 1 ID: 0

Read mode : Secure
Utilize accurate stream : Yes
Defeat audio cache : Yes
Make use of C2 pointers : No

Read offset correction : 6
Overread into Lead-In and Lead-Out : No
Fill up missing offset samples with silence : Yes
Delete leading and trailing silent blocks : No
Null samples used in CRC calculations : Yes
Used interface : Native Win32 interface for Win NT & 2000
Gap handling : Appended to previous track

Used output format : User Defined Encoder
Selected bitrate : 1024 kBit/s
Quality : High
Add ID3 tag : No
Command line compressor : C:\Program Files (x86)\Exact Audio Copy\FLAC\FLAC.EXE
Additional command line options : -6 -V -T "ARTIST=%artist%" -T "TITLE=%title%" -T "ALBUM=%albumtitle%" -T "DATE=%year%" -T "TRACKNUMBER=%tracknr%" -T "GENRE=%genre%" -T "COMMENT=%comment%" -T "BAND=%albuminterpret%" -T "ALBUMARTIST=%albuminterpret%" -T "COMPOSER=%composer%" %haslyrics%–tag-from-file=LYRICS="%lyricsfile%"%haslyrics% -T "DISCNUMBER=%cdnumber%" -T "TOTALDISCS=%totalcds%" -T "TOTALTRACKS=%numtracks%" %hascover%–picture="%coverfile%"%hascover% %source% -o %dest%


TOC of the extracted CD

Track | Start | Length | Start sector | End sector
––––––––––––––––––––––––––––-
1 | 0:00.00 | 1:53.58 | 0 | 8532
2 | 1:53.58 | 5:06.09 | 8533 | 31491
3 | 6:59.67 | 1:24.06 | 31492 | 37797
4 | 8:23.73 | 1:21.38 | 37798 | 43910
5 | 9:45.36 | 1:45.14 | 43911 | 51799
6 | 11:30.50 | 6:25.04 | 51800 | 80678
7 | 17:55.54 | 2:02.73 | 80679 | 89901
8 | 19:58.52 | 4:19.46 | 89902 | 109372
9 | 24:18.23 | 3:53.72 | 109373 | 126919
10 | 28:12.20 | 4:03.16 | 126920 | 145160
11 | 32:15.36 | 2:33.73 | 145161 | 156708
12 | 34:49.34 | 2:30.28 | 156709 | 167986
13 | 37:19.62 | 2:11.31 | 167987 | 177842
14 | 39:31.18 | 2:46.56 | 177843 | 190348
15 | 42:17.74 | 7:48.42 | 190349 | 225490
16 | 50:06.41 | 2:09.24 | 225491 | 235189
17 | 52:15.65 | 2:23.27 | 235190 | 245941
18 | 54:39.17 | 1:34.59 | 245942 | 253050
19 | 56:14.01 | 1:43.33 | 253051 | 260808
20 | 57:57.34 | 2:19.04 | 260809 | 271237
21 | 60:16.38 | 2:11.11 | 271238 | 281073
22 | 62:27.49 | 3:31.19 | 281074 | 296917
23 | 65:58.68 | 5:26.67 | 296918 | 321434
24 | 71:25.60 | 2:54.12 | 321435 | 334496


Track 1

Filename D:\My Music\barca008\Ramin Djawadi - Game Of Thrones Season 7 (Music From The HBO Series)\01 - Main Titles.wav

Pre-gap length 0:00:02.00

Peak level 97.7 %
Extraction speed 1.0 X
Track quality 100.0 %
Test CRC 697AA8EC
Copy CRC 697AA8EC
Accurately ripped (confidence 7) [0C57E69A] (AR v2)
Copy OK

Track 2

Filename D:\My Music\barca008\Ramin Djawadi - Game Of Thrones Season 7 (Music From The HBO Series)\02 - Dragonstone.wav

Peak level 100.0 %
Extraction speed 1.3 X
Track quality 100.0 %
Test CRC 45DDD22E
Copy CRC 45DDD22E
Accurately ripped (confidence 7) [29127BB3] (AR v2)
Copy OK

Track 3

Filename D:\My Music\barca008\Ramin Djawadi - Game Of Thrones Season 7 (Music From The HBO Series)\03 - Shall We Begin.wav

Peak level 100.0 %
Extraction speed 1.1 X
Track quality 100.0 %
Test CRC 4DC5362D
Copy CRC 4DC5362D
Accurately ripped (confidence 7) [411A5CA1] (AR v2)
Copy OK

Track 4

Filename D:\My Music\barca008\Ramin Djawadi - Game Of Thrones Season 7 (Music From The HBO Series)\04 - The Queen’s Justice.wav

Peak level 97.7 %
Extraction speed 1.1 X
Track quality 100.0 %
Test CRC 03BBC128
Copy CRC 03BBC128
Accurately ripped (confidence 7) [974954E9] (AR v2)
Copy OK

Track 5

Filename D:\My Music\barca008\Ramin Djawadi - Game Of Thrones Season 7 (Music From The HBO Series)\05 - A Game I Like to Play.wav

Peak level 98.8 %
Extraction speed 1.3 X
Track quality 100.0 %
Test CRC 05B8FD61
Copy CRC 05B8FD61
Accurately ripped (confidence 7) [C2B1D91A] (AR v2)
Copy OK

Track 6

Filename D:\My Music\barca008\Ramin Djawadi - Game Of Thrones Season 7 (Music From The HBO Series)\06 - I Am the Storm.wav

Peak level 98.8 %
Extraction speed 1.7 X
Track quality 100.0 %
Test CRC 51BAA62A
Copy CRC 51BAA62A
Accurately ripped (confidence 7) [127A4B67] (AR v2)
Copy OK

Track 7

Filename D:\My Music\barca008\Ramin Djawadi - Game Of Thrones Season 7 (Music From The HBO Series)\07 - The Gift.wav

Peak level 98.8 %
Extraction speed 1.5 X
Track quality 100.0 %
Test CRC 5CF5FB43
Copy CRC 5CF5FB43
Accurately ripped (confidence 7) [D74AA3C8] (AR v2)
Copy OK

Track 8

Filename D:\My Music\barca008\Ramin Djawadi - Game Of Thrones Season 7 (Music From The HBO Series)\08 - Dragonglass.wav

Peak level 97.7 %
Extraction speed 1.6 X
Track quality 99.9 %
Test CRC 169FE433
Copy CRC 169FE433
Accurately ripped (confidence 7) [9CBC4A79] (AR v2)
Copy OK

Track 9

Filename D:\My Music\barca008\Ramin Djawadi - Game Of Thrones Season 7 (Music From The HBO Series)\09 - Spoils of War, Pt. 1.wav

Peak level 98.8 %
Extraction speed 1.8 X
Track quality 100.0 %
Test CRC CB67B874
Copy CRC CB67B874
Accurately ripped (confidence 7) [A6627B1F] (AR v2)
Copy OK

Track 10

Filename D:\My Music\barca008\Ramin Djawadi - Game Of Thrones Season 7 (Music From The HBO Series)\10 - Spoils of War, Pt. 2.wav

Peak level 98.8 %
Extraction speed 1.9 X
Track quality 100.0 %
Test CRC 4C1CBF9F
Copy CRC 4C1CBF9F
Accurately ripped (confidence 7) [E7E36B65] (AR v2)
Copy OK

Track 11

Filename D:\My Music\barca008\Ramin Djawadi - Game Of Thrones Season 7 (Music From The HBO Series)\11 - The Dagger.wav

Peak level 76.0 %
Extraction speed 1.8 X
Track quality 100.0 %
Test CRC CD63D3F6
Copy CRC CD63D3F6
Accurately ripped (confidence 7) [B8D96ED1] (AR v2)
Copy OK

Track 12

Filename D:\My Music\barca008\Ramin Djawadi - Game Of Thrones Season 7 (Music From The HBO Series)\12 - Home.wav

Peak level 97.7 %
Extraction speed 1.6 X
Track quality 99.9 %
Test CRC 4BEB6DB6
Copy CRC 4BEB6DB6
Accurately ripped (confidence 7) [1FA5AE1B] (AR v2)
Copy OK

Track 13

Filename D:\My Music\barca008\Ramin Djawadi - Game Of Thrones Season 7 (Music From The HBO Series)\13 - Gorgeous Beasts.wav

Peak level 98.8 %
Extraction speed 1.9 X
Track quality 100.0 %
Test CRC 562CBB60
Copy CRC 562CBB60
Accurately ripped (confidence 7) [5156BC42] (AR v2)
Copy OK

Track 14

Filename D:\My Music\barca008\Ramin Djawadi - Game Of Thrones Season 7 (Music From The HBO Series)\14 - The Long Farewell.wav

Peak level 97.7 %
Extraction speed 2.0 X
Track quality 100.0 %
Test CRC 494D4D1F
Copy CRC 494D4D1F
Accurately ripped (confidence 7) [A6FA8386] (AR v2)
Copy OK

Track 15

Filename D:\My Music\barca008\Ramin Djawadi - Game Of Thrones Season 7 (Music From The HBO Series)\15 - Against All Odds.wav

Peak level 100.0 %
Extraction speed 2.4 X
Track quality 100.0 %
Test CRC 2757CB9D
Copy CRC 2757CB9D
Accurately ripped (confidence 7) [64D0FFDD] (AR v2)
Copy OK

Track 16

Filename D:\My Music\barca008\Ramin Djawadi - Game Of Thrones Season 7 (Music From The HBO Series)\16 - See You for What You Are.wav

Peak level 88.4 %
Extraction speed 2.0 X
Track quality 100.0 %
Test CRC D9AB6FC5
Copy CRC D9AB6FC5
Accurately ripped (confidence 7) [176528BA] (AR v2)
Copy OK

Track 17

Filename D:\My Music\barca008\Ramin Djawadi - Game Of Thrones Season 7 (Music From The HBO Series)\17 - Casterly Rock.wav

Peak level 97.7 %
Extraction speed 2.1 X
Track quality 100.0 %
Test CRC 5D819A39
Copy CRC 5D819A39
Accurately ripped (confidence 7) [68D02E80] (AR v2)
Copy OK

Track 18

Filename D:\My Music\barca008\Ramin Djawadi - Game Of Thrones Season 7 (Music From The HBO Series)\18 - A Lion’s Legacy.wav

Peak level 97.7 %
Extraction speed 1.9 X
Track quality 100.0 %
Test CRC FD045B02
Copy CRC FD045B02
Accurately ripped (confidence 7) [650B83AE] (AR v2)
Copy OK

Track 19

Filename D:\My Music\barca008\Ramin Djawadi - Game Of Thrones Season 7 (Music From The HBO Series)\19 - Message for Cersei.wav

Peak level 90.0 %
Extraction speed 2.0 X
Track quality 100.0 %
Test CRC 22129AD0
Copy CRC 22129AD0
Accurately ripped (confidence 7) [AD2E7AA0] (AR v2)
Copy OK

Track 20

Filename D:\My Music\barca008\Ramin Djawadi - Game Of Thrones Season 7 (Music From The HBO Series)\20 - Ironborn.wav

Peak level 97.7 %
Extraction speed 2.2 X
Track quality 100.0 %
Test CRC DAD63877
Copy CRC DAD63877
Accurately ripped (confidence 7) [BC7C987F] (AR v2)
Copy OK

Track 21

Filename D:\My Music\barca008\Ramin Djawadi - Game Of Thrones Season 7 (Music From The HBO Series)\21 - No One Walks Away From Me.wav

Peak level 97.7 %
Extraction speed 1.8 X
Track quality 99.9 %
Test CRC 154BF85A
Copy CRC 154BF85A
Accurately ripped (confidence 7) [83EC613B] (AR v2)
Copy OK

Track 22

Filename D:\My Music\barca008\Ramin Djawadi - Game Of Thrones Season 7 (Music From The HBO Series)\22 - Truth.wav

Peak level 97.7 %
Extraction speed 2.5 X
Track quality 100.0 %
Test CRC 6BE3FC21
Copy CRC 6BE3FC21
Accurately ripped (confidence 7) [C0A901D1] (AR v2)
Copy OK

Track 23

Filename D:\My Music\barca008\Ramin Djawadi - Game Of Thrones Season 7 (Music From The HBO Series)\23 - The Army of the Dead.wav

Peak level 98.8 %
Extraction speed 2.7 X
Track quality 100.0 %
Test CRC DB2F7044
Copy CRC DB2F7044
Accurately ripped (confidence 7) [37828C53] (AR v2)
Copy OK

Track 24

Filename D:\My Music\barca008\Ramin Djawadi - Game Of Thrones Season 7 (Music From The HBO Series)\24 - Winter Is Here.wav

Peak level 76.6 %
Extraction speed 2.5 X
Track quality 100.0 %
Test CRC ED90C1E1
Copy CRC ED90C1E1
Accurately ripped (confidence 7) [A9543461] (AR v2)
Copy OK


All tracks accurately ripped

No errors occurred

End of status report

–– CUETools DB Plugin V2.1.6

[CTDB TOCID: luP.GdwuDbTZrfz3BTl60h_vSQk-] found
Submit result: luP.GdwuDbTZrfz3BTl60h_vSQk- has been confirmed
Track | CTDB Status
1 | (17/17) Accurately ripped
2 | (17/17) Accurately ripped
3 | (17/17) Accurately ripped
4 | (17/17) Accurately ripped
5 | (17/17) Accurately ripped
6 | (17/17) Accurately ripped
7 | (17/17) Accurately ripped
8 | (17/17) Accurately ripped
9 | (17/17) Accurately ripped
10 | (17/17) Accurately ripped
11 | (17/17) Accurately ripped
12 | (17/17) Accurately ripped
13 | (17/17) Accurately ripped
14 | (17/17) Accurately ripped
15 | (17/17) Accurately ripped
16 | (17/17) Accurately ripped
17 | (17/17) Accurately ripped
18 | (17/17) Accurately ripped
19 | (17/17) Accurately ripped
20 | (17/17) Accurately ripped
21 | (17/17) Accurately ripped
22 | (17/17) Accurately ripped
23 | (17/17) Accurately ripped
24 | (17/17) Accurately ripped


==== Log checksum D63DB9736671E0D6F4F7E941C8D16C7F5FE32241C15F66D243C6D8D8CA2D94B8 ====


All thanks go to the original releaser