Tags
Language
Tags

Randy Newman - Original Album Series [5CD Box Set] (1968-1977) (2011) (Repost)

Posted By: gribovar
Randy Newman - Original Album Series [5CD Box Set] (1968-1977) (2011) (Repost)

Randy Newman - Original Album Series [5CD Box Set] (1968-1977) (2011)
EAC Rip | FLAC (image+.cue+log) - 794 MB | MP3 CBR 320 kbps (LAME 3.93) - 379 MB | Covers - 228 MB
Genre: Rock | RAR 3% Rec. | Label: Warner Bros. Records (8122797539)

This five disc, U.K.-only box set includes a remarkably solid quintet of full albums from Randy Newman, including his eponymous 1968 debut, 1970's 12 Songs, 1972's Sail Away, 1973's Good Old Boys, and 1977's Little Criminals, the latter of which featured the novelty hit "Short People."
An anomaly among early-'70s singer/songwriters, Randy Newman may have been slightly influenced by Bob Dylan, but his music owed more to New Orleans R&B and traditional pop than folk. Newman developed an idiosyncratic style that alternated between sweeping, cinematic pop and rolling R&B, which were tied together by his nasty sense of humor. Where his peers concentrated on confessional songwriting, Newman drew characters, creating a world filled with misfits, outcasts, charlatans, and con men. Though he occasionally showed sympathy for his characters, he became well known for his biting sense of satire, highlighted by his fluke 1978 hit "Short People" and his parody of '80s yuppies, "I Love L.A." While Newman's records consistently received strongly positive reviews, he made his money through composing film scores for films like Ragtime and The Natural. His albums may never have sold in large amounts, but his work influenced several generations of songwriters, including Lyle Lovett and Mark Knopfler.

Randy Newman - Original Album Series [5CD Box Set] (1968-1977) (2011) (Repost)

CD 1: Randy Newman - Randy Newman (1968)
EAC Rip | FLAC (image+.cue+log) - 140 MB | MP3 CBR 320 kbps (LAME 3.93) - 66 MB | Covers - 37 MB
Genre: Rock | RAR 3% Rec. | Label: Warner Bros. Records (8122797539)

Tracklist:
01. Love Story (You and Me)
02. Bet No One Ever Hurt This Bad
03. Living Without You
04. So Long Dad
05. I Think He's Hiding
06. Linda
07. Laughing Boy
08. Cowboy
09. Beehive State
10. I Think it's Going to Rain Today
11. Davy the Fat Boy

Total time: 28:06

Exact Audio Copy V1.0 beta 3 from 29. August 2011

EAC extraction logfile from 9. July 2013, 2:19

Randy Newman / Randy Newman

Used drive : PLEXTOR DVDR PX-891SA Adapter: 0 ID: 2

Read mode : Secure
Utilize accurate stream : Yes
Defeat audio cache : Yes
Make use of C2 pointers : No

Read offset correction : 6
Overread into Lead-In and Lead-Out : No
Fill up missing offset samples with silence : Yes
Delete leading and trailing silent blocks : No
Null samples used in CRC calculations : Yes
Used interface : Installed external ASPI interface

Used output format : User Defined Encoder
Selected bitrate : 320 kBit/s
Quality : High
Add ID3 tag : No
Command line compressor : C:\Program Files\Exact Audio Copy 1.0\Flac\flac.exe
Additional command line options : -V -8 -T "Genre=%genre%" -T "Artist=%artist%" -T "Title=%title%" -T "Album=%albumtitle%" -T "Date=%year%" -T "Tracknumber=%tracknr%" -T "Comment=%comment%" %source%


TOC of the extracted CD

Track | Start | Length | Start sector | End sector
––––––––––––––––––––––––––––-
1 | 0:00.00 | 3:22.40 | 0 | 15189
2 | 3:22.40 | 2:06.55 | 15190 | 24694
3 | 5:29.20 | 2:23.52 | 24695 | 35471
4 | 7:52.72 | 2:14.20 | 35472 | 45541
5 | 10:07.17 | 3:07.50 | 45542 | 59616
6 | 13:14.67 | 2:29.18 | 59617 | 70809
7 | 15:44.10 | 1:59.70 | 70810 | 79804
8 | 17:44.05 | 2:41.30 | 79805 | 91909
9 | 20:25.35 | 1:52.10 | 91910 | 100319
10 | 22:17.45 | 3:01.17 | 100320 | 113911
11 | 25:18.62 | 2:47.00 | 113912 | 126436


Range status and errors

Selected range

Filename K:\Lossless Temp\Randy Newman\Randy Newman - Original Album Series 5 CD (2011 Warner Bros Music Group Company, 8122797539)\01 - Randy Newman - 1968\Randy Newman - Randy Newman.wav

Peak level 100.0 %
Extraction speed 5.3 X
Range quality 100.0 %
Test CRC 9BD09971
Copy CRC 9BD09971
Copy OK

No errors occurred


AccurateRip summary

Track 1 accurately ripped (confidence 4) [C0AE1F55] (AR v2)
Track 2 accurately ripped (confidence 4) [BBADFD28] (AR v2)
Track 3 accurately ripped (confidence 4) [DC6FC8D3] (AR v2)
Track 4 accurately ripped (confidence 4) [0F92ADB1] (AR v2)
Track 5 accurately ripped (confidence 4) [7E7CB9C6] (AR v2)
Track 6 accurately ripped (confidence 4) [7CB185F1] (AR v2)
Track 7 accurately ripped (confidence 4) [23DC74F3] (AR v2)
Track 8 accurately ripped (confidence 4) [4058CA61] (AR v2)
Track 9 accurately ripped (confidence 4) [B0BC2D49] (AR v2)
Track 10 accurately ripped (confidence 4) [219E37CF] (AR v2)
Track 11 accurately ripped (confidence 4) [B3C667A5] (AR v2)

All tracks accurately ripped

End of status report

==== Log checksum 4009260D25FFEFE915EA32F16254A598C1F45CAED963169F0D357DD5966D260F ====

[CUETools log; Date: 23.01.2018 18:39:16; Version: 2.1.4]
[CTDB TOCID: vUYqzcO7sbBXyu4Lb7rbco0bM7w-] found.
Track | CTDB Status
1 | (135/170) Accurately ripped
2 | (135/170) Accurately ripped
3 | (135/170) Accurately ripped
4 | (135/170) Accurately ripped
5 | (135/170) Accurately ripped
6 | (134/170) Accurately ripped
7 | (135/170) Accurately ripped
8 | (135/170) Accurately ripped
9 | (135/170) Accurately ripped
10 | (135/170) Accurately ripped
11 | (135/170) Accurately ripped
[AccurateRip ID: 000ba73e-0064328e-8706950b] found.
Track [ CRC | V2 ] Status
01 [a2760415|c0ae1f55] (008+084/151) Accurately ripped
02 [ea180e3e|bbadfd28] (008+084/152) Accurately ripped
03 [cd61a6af|dc6fc8d3] (008+084/152) Accurately ripped
04 [67499bec|0f92adb1] (008+084/152) Accurately ripped
05 [1260dbc1|7e7cb9c6] (008+084/152) Accurately ripped
06 [b8803f6e|7cb185f1] (008+084/152) Accurately ripped
07 [1f16e841|23dc74f3] (008+084/152) Accurately ripped
08 [c5451610|4058ca61] (008+084/152) Accurately ripped
09 [cca0defb|b0bc2d49] (008+084/152) Accurately ripped
10 [c02cf376|219e37cf] (008+084/152) Accurately ripped
11 [01035289|b3c667a5] (008+083/151) Accurately ripped
Offsetted by 18:
01 [4ff58521] (004/151) Accurately ripped
02 [c751797c] (004/152) Accurately ripped
03 [c2ef47e1] (004/152) Accurately ripped
04 [7c35aad4] (004/152) Accurately ripped
05 [0f212d25] (004/152) Accurately ripped
06 [f311e64c] (004/152) Accurately ripped
07 [a3745fd3] (004/152) Accurately ripped
08 [b65bec10] (004/152) Accurately ripped
09 [a3f72705] (004/152) Accurately ripped
10 [6f3a8e44] (004/152) Accurately ripped
11 [7cd0d35d] (004/151) Accurately ripped
Offsetted by 1287:
01 [97928eef] (003/151) Accurately ripped
02 [33a1820f] (003/152) Accurately ripped
03 [62702c26] (003/152) Accurately ripped
04 [3f37c5b8] (003/152) Accurately ripped
05 [2a17972f] (003/152) Accurately ripped
06 [142e5a6f] (003/152) Accurately ripped
07 [9731cd88] (003/152) Accurately ripped
08 [1b25db10] (003/152) Accurately ripped
09 [f139fdc6] (003/152) Accurately ripped
10 [a479afff] (003/152) Accurately ripped
11 [14e8cdbf] (000/151) No match (V2 was not tested)

Track Peak [ CRC32 ] [W/O NULL] [ LOG ]
– 100,0 [9BD09971] [B9C7876C] CRC32
01 100,0 [DAEDAC10] [5F7146BA]
02 82,1 [8ADAE17D] [78A613F8]
03 100,0 [0D6543C4] [2998BDB9]
04 68,4 [9FFBE12C] [1622B678]
05 99,8 [A5447EC2] [AF960018]
06 96,2 [46192701] [68622BF7]
07 90,1 [7BBD3026] [492A17F0]
08 99,9 [1AFFA296] [C5267728]
09 94,3 [65892565] [8362DF0D]
10 69,9 [905FEAD8] [B411CF23]
11 85,2 [C282C38B] [8B98C485]

Randy Newman - Original Album Series [5CD Box Set] (1968-1977) (2011) (Repost)

CD 2: Randy Newman - 12 Songs (1970)
EAC Rip | FLAC (image+.cue+log) - 144 MB | MP3 CBR 320 kbps (LAME 3.93) - 70 MB | Covers - 38 MB
Genre: Rock | RAR 3% Rec. | Label: Warner Bros. Records (8122797539)

Tracklist:
01. Have You Seen My Baby?
02. Let's Burn Down the Cornfield
03. Mama Told Me Not to Come
04. Suzanne
05. Lover's Prayer
06. Lucinda
07. Underneath the Harlem Moon (Mack Gordon, Harry Revel)
08. Yellow Man
09. Old Kentucky Home
10. Rosemary
11. If You Need Oil
12. Uncle Bob's Midnight Blues

Total time: 29:53

Exact Audio Copy V1.0 beta 3 from 29. August 2011

EAC extraction logfile from 9. July 2013, 3:15

Randy Newman / 12 Songs

Used drive : PLEXTOR DVDR PX-891SA Adapter: 0 ID: 2

Read mode : Secure
Utilize accurate stream : Yes
Defeat audio cache : Yes
Make use of C2 pointers : No

Read offset correction : 6
Overread into Lead-In and Lead-Out : No
Fill up missing offset samples with silence : Yes
Delete leading and trailing silent blocks : No
Null samples used in CRC calculations : Yes
Used interface : Installed external ASPI interface

Used output format : User Defined Encoder
Selected bitrate : 320 kBit/s
Quality : High
Add ID3 tag : No
Command line compressor : C:\Program Files\Exact Audio Copy 1.0\Flac\flac.exe
Additional command line options : -V -8 -T "Genre=%genre%" -T "Artist=%artist%" -T "Title=%title%" -T "Album=%albumtitle%" -T "Date=%year%" -T "Tracknumber=%tracknr%" -T "Comment=%comment%" %source%


TOC of the extracted CD

Track | Start | Length | Start sector | End sector
––––––––––––––––––––––––––––-
1 | 0:00.32 | 2:34.70 | 32 | 11651
2 | 2:35.27 | 3:05.28 | 11652 | 25554
3 | 5:40.55 | 2:12.32 | 25555 | 35486
4 | 7:53.12 | 3:07.63 | 35487 | 49574
5 | 11:01.00 | 1:58.60 | 49575 | 58484
6 | 12:59.60 | 2:44.22 | 58485 | 70806
7 | 15:44.07 | 1:53.68 | 70807 | 79349
8 | 17:38.00 | 2:23.47 | 79350 | 90121
9 | 20:01.47 | 2:39.55 | 90122 | 102101
10 | 22:41.27 | 2:10.13 | 102102 | 111864
11 | 24:51.40 | 2:59.05 | 111865 | 125294
12 | 27:50.45 | 2:02.20 | 125295 | 134464


Range status and errors

Selected range

Filename K:\Lossless Temp\Randy Newman\Randy Newman - Original Album Series 5 CD (2011 Warner Bros Music Group Company, 8122797539)\02 - 12 Songs - 1970\Randy Newman - 12 Songs.wav

Peak level 94.9 %
Extraction speed 2.4 X
Range quality 100.0 %
Test CRC 32449AC5
Copy CRC 32449AC5
Copy OK

No errors occurred


AccurateRip summary

Track 1 accurately ripped (confidence 4) [A5DD1116] (AR v2)
Track 2 accurately ripped (confidence 4) [78156BEF] (AR v2)
Track 3 accurately ripped (confidence 4) [4F92B204] (AR v2)
Track 4 accurately ripped (confidence 4) [704729C1] (AR v2)
Track 5 accurately ripped (confidence 4) [74A348AB] (AR v2)
Track 6 accurately ripped (confidence 4) [3376E7CD] (AR v2)
Track 7 accurately ripped (confidence 4) [117F5854] (AR v2)
Track 8 accurately ripped (confidence 4) [C44C3DCC] (AR v2)
Track 9 accurately ripped (confidence 4) [E855F3F6] (AR v2)
Track 10 accurately ripped (confidence 4) [5F93C10B] (AR v2)
Track 11 accurately ripped (confidence 4) [5D61BBC2] (AR v2)
Track 12 accurately ripped (confidence 4) [426D0259] (AR v2)

All tracks accurately ripped

End of status report

==== Log checksum 5C046F59FB62AAB27484E6E542B21BCD2A169939FFD97157DC5DE96D8D15DAC9 ====

[CUETools log; Date: 23.01.2018 18:39:57; Version: 2.1.4]
Pregap length 00:00:32.
[CTDB TOCID: CzurpIOcSKby1flQmCihTvBHxCo-] found.
Track | CTDB Status
1 | (101/103) Accurately ripped
2 | (103/103) Accurately ripped
3 | (103/103) Accurately ripped
4 | (103/103) Accurately ripped
5 | (103/103) Accurately ripped
6 | (103/103) Accurately ripped
7 | (103/103) Accurately ripped
8 | (103/103) Accurately ripped
9 | (101/103) Accurately ripped
10 | (103/103) Accurately ripped
11 | (100/103) Accurately ripped
12 | (101/103) Accurately ripped
[AccurateRip ID: 000da748-007e6cd9-9507000c] found.
Track [ CRC | V2 ] Status
01 [62899727|a5dd1116] (007+081/146) Accurately ripped
02 [e3569907|78156bef] (007+081/146) Accurately ripped
03 [5471d038|4f92b204] (007+081/146) Accurately ripped
04 [df57976b|704729c1] (007+081/145) Accurately ripped
05 [d4ad0315|74a348ab] (007+081/145) Accurately ripped
06 [14dbdd86|3376e7cd] (007+081/145) Accurately ripped
07 [a4baca58|117f5854] (007+081/145) Accurately ripped
08 [396ecedf|c44c3dcc] (007+081/145) Accurately ripped
09 [96b4cf57|e855f3f6] (007+081/146) Accurately ripped
10 [db90d937|5f93c10b] (007+081/146) Accurately ripped
11 [87e1eb9f|5d61bbc2] (007+081/144) Accurately ripped
12 [f9fa1c49|426d0259] (007+081/144) Accurately ripped
Offsetted by -1019:
01 [b17e2da8] (004/146) Accurately ripped
02 [d31b70ca] (004/146) Accurately ripped
03 [8e137d98] (004/146) Accurately ripped
04 [0b7bb86b] (004/145) Accurately ripped
05 [7eae2482] (004/145) Accurately ripped
06 [809f099c] (004/145) Accurately ripped
07 [16dccd70] (004/145) Accurately ripped
08 [59cd9b8a] (004/145) Accurately ripped
09 [956be7ff] (004/146) Accurately ripped
10 [858fffe9] (004/146) Accurately ripped
11 [975362d2] (003/144) Accurately ripped
12 [0a5a7bad] (003/144) Accurately ripped
Offsetted by 18:
01 [ce2cd691] (016/146) Accurately ripped
02 [ff0239c5] (016/146) Accurately ripped
03 [57f2d9f8] (016/146) Accurately ripped
04 [5044f4fb] (016/145) Accurately ripped
05 [040bf5c7] (016/145) Accurately ripped
06 [015e92a2] (016/145) Accurately ripped
07 [17486248] (016/145) Accurately ripped
08 [7cf187ad] (016/145) Accurately ripped
09 [159934e7] (016/146) Accurately ripped
10 [00c25aeb] (016/146) Accurately ripped
11 [65b1b0bd] (016/144) Accurately ripped
12 [00ee5f35] (016/144) Accurately ripped
Offsetted by 137:
01 [7955dd5c] (011/146) Accurately ripped
02 [a7b7fce6] (011/146) Accurately ripped
03 [6f1d4518] (011/146) Accurately ripped
04 [01606142] (011/145) Accurately ripped
05 [f0dd802f] (011/145) Accurately ripped
06 [64140714] (011/145) Accurately ripped
07 [457eb250] (011/145) Accurately ripped
08 [2d0aa2c6] (011/145) Accurately ripped
09 [4e46461f] (011/146) Accurately ripped
10 [1317df11] (011/146) Accurately ripped
11 [03abb9ae] (011/144) Accurately ripped
12 [aee7e0bf] (011/144) Accurately ripped

Track Peak [ CRC32 ] [W/O NULL] [ LOG ]
– 94,9 [32449AC5] [3725CDEE] CRC32
01 76,6 [6A2D2579] [953BAEDC]
02 43,7 [B231B8C8] [F69089E7]
03 94,9 [CE773ADD] [477519DF]
04 50,6 [AFDB3F40] [A8310374]
05 61,4 [0631E642] [384195F0]
06 77,1 [BA19D667] [10CB9681]
07 86,3 [FF4A6D21] [493C4750]
08 85,9 [676DED30] [7A563C60]
09 65,3 [253FDB92] [2A54BBB9]
10 61,2 [CB48554E] [76B1065A]
11 50,9 [8469BA27] [A1ABBAA3]
12 61,8 [2F59109C] [CEA4962B]

Randy Newman - Original Album Series [5CD Box Set] (1968-1977) (2011) (Repost)

CD 3: Randy Newman - Sail Away (1972)
EAC Rip | FLAC (image+.cue+log) - 149 MB | MP3 CBR 320 kbps (LAME 3.93) - 72 MB | Covers - 37 MB
Genre: Rock | RAR 3% Rec. | Label: Warner Bros. Records (8122797539)

Tracklist:
01. Sail Away
02. Lonely At The Top
03. He Gives Us All His Love
04. Last Night I Had A Dream
05. Simon Smith And The Amazing Dancing Bear
06. Old Man
07. Political Science
08. Burn On
09. Memo To My Son
10. Dayton, Ohio - 1903
11. You Can Leave Your Hat On
12. God's Song (That's Why I Love Mankind)

Total time: 30:37

Exact Audio Copy V1.0 beta 3 from 29. August 2011

EAC extraction logfile from 9. July 2013, 3:29

Randy Newman / Sail Away

Used drive : PLEXTOR DVDR PX-891SA Adapter: 0 ID: 2

Read mode : Secure
Utilize accurate stream : Yes
Defeat audio cache : Yes
Make use of C2 pointers : No

Read offset correction : 6
Overread into Lead-In and Lead-Out : No
Fill up missing offset samples with silence : Yes
Delete leading and trailing silent blocks : No
Null samples used in CRC calculations : Yes
Used interface : Installed external ASPI interface

Used output format : User Defined Encoder
Selected bitrate : 320 kBit/s
Quality : High
Add ID3 tag : No
Command line compressor : C:\Program Files\Exact Audio Copy 1.0\Flac\flac.exe
Additional command line options : -V -8 -T "Genre=%genre%" -T "Artist=%artist%" -T "Title=%title%" -T "Album=%albumtitle%" -T "Date=%year%" -T "Tracknumber=%tracknr%" -T "Comment=%comment%" %source%


TOC of the extracted CD

Track | Start | Length | Start sector | End sector
––––––––––––––––––––––––––––-
1 | 0:00.00 | 2:52.22 | 0 | 12921
2 | 2:52.22 | 2:34.73 | 12922 | 24544
3 | 5:27.20 | 1:56.22 | 24545 | 33266
4 | 7:23.42 | 3:02.50 | 33267 | 46966
5 | 10:26.17 | 2:05.30 | 46967 | 56371
6 | 12:31.47 | 2:44.30 | 56372 | 68701
7 | 15:16.02 | 2:01.63 | 68702 | 77839
8 | 17:17.65 | 2:34.67 | 77840 | 89456
9 | 19:52.57 | 1:55.08 | 89457 | 98089
10 | 21:47.65 | 1:51.37 | 98090 | 106451
11 | 23:39.27 | 3:18.05 | 106452 | 121306
12 | 26:57.32 | 3:39.73 | 121307 | 137804


Range status and errors

Selected range

Filename K:\Lossless Temp\Randy Newman\Randy Newman - Original Album Series 5 CD (2011 Warner Bros Music Group Company, 8122797539)\02 - Sail Away - 1972\Randy Newman - Sail Away.wav

Peak level 94.6 %
Extraction speed 5.3 X
Range quality 100.0 %
Test CRC 64365253
Copy CRC 64365253
Copy OK

No errors occurred


AccurateRip summary

Track 1 accurately ripped (confidence 5) [2BD5AE2F] (AR v2)
Track 2 accurately ripped (confidence 5) [EA41436C] (AR v2)
Track 3 accurately ripped (confidence 5) [BBF30AB0] (AR v2)
Track 4 accurately ripped (confidence 5) [892ED381] (AR v2)
Track 5 accurately ripped (confidence 5) [77F2C451] (AR v2)
Track 6 accurately ripped (confidence 5) [E731E13D] (AR v2)
Track 7 accurately ripped (confidence 5) [2A4EE6C7] (AR v2)
Track 8 accurately ripped (confidence 5) [324E2591] (AR v2)
Track 9 accurately ripped (confidence 5) [04F551F8] (AR v2)
Track 10 accurately ripped (confidence 5) [6EE9A8BB] (AR v2)
Track 11 accurately ripped (confidence 5) [CC1B73DA] (AR v2)
Track 12 accurately ripped (confidence 5) [FAA0DE4A] (AR v2)

All tracks accurately ripped

End of status report

==== Log checksum 32821B4E54EE15985FC1699EFB090BF72C4D42299BCD55A1EE4003B5497731DF ====

[CUETools log; Date: 23.01.2018 18:40:34; Version: 2.1.4]
[CTDB TOCID: A5Boou4.edv3TWNeu9CWsdwy6G0-] found.
Track | CTDB Status
1 | (107/108) Accurately ripped
2 | (108/108) Accurately ripped
3 | (108/108) Accurately ripped
4 | (107/108) Accurately ripped
5 | (108/108) Accurately ripped
6 | (108/108) Accurately ripped
7 | (108/108) Accurately ripped
8 | (108/108) Accurately ripped
9 | (108/108) Accurately ripped
10 | (108/108) Accurately ripped
11 | (108/108) Accurately ripped
12 | (107/108) Accurately ripped
[AccurateRip ID: 000d54fe-007bcce7-9c072d0c] found.
Track [ CRC | V2 ] Status
01 [8ebf5702|2bd5ae2f] (07+82/89) Accurately ripped
02 [064194f1|ea41436c] (07+81/88) Accurately ripped
03 [59cffc7a|bbf30ab0] (07+81/88) Accurately ripped
04 [4893f852|892ed381] (07+82/89) Accurately ripped
05 [19fe9b3d|77f2c451] (07+83/90) Accurately ripped
06 [fad216e2|e731e13d] (07+83/90) Accurately ripped
07 [f38c5bdb|2a4ee6c7] (07+82/89) Accurately ripped
08 [317cc129|324e2591] (07+83/90) Accurately ripped
09 [5643c4af|04f551f8] (07+82/89) Accurately ripped
10 [d753ccc0|6ee9a8bb] (07+83/90) Accurately ripped
11 [05e25699|cc1b73da] (07+82/89) Accurately ripped
12 [eee40fe1|faa0de4a] (07+81/88) Accurately ripped

Track Peak [ CRC32 ] [W/O NULL] [ LOG ]
– 94,6 [64365253] [C6C286EE] CRC32
01 94,6 [FA17EAC0] [9A5184B3]
02 63,0 [9D66DEFB] [D216C44A]
03 67,1 [094268A4] [655B2AD2]
04 94,6 [271E2465] [BC5B3EB9]
05 71,5 [2EFD5C4D] [61F4E6FA]
06 78,4 [3B27C66F] [79B11B92]
07 94,6 [90C3C7AC] [40E65DDF]
08 89,2 [D76B88B6] [56D9D8BE]
09 79,3 [958C1269] [3E671CFC]
10 60,2 [B74F9FF3] [89270F16]
11 94,6 [F2DBBAEE] [96985CFA]
12 85,9 [D66DBB6E] [964DF38D]

Randy Newman - Original Album Series [5CD Box Set] (1968-1977) (2011) (Repost)

CD 4: Randy Newman - Good Old Boys (1974)
EAC Rip | FLAC (image+.cue+log) - 183 MB | MP3 CBR 320 kbps (LAME 3.93) - 80 MB | Covers - 38 MB
Genre: Rock | RAR 3% Rec. | Label: Warner Bros. Records (8122797539)

Tracklist:
01. Rednecks
02. Birmingham
03. Marie
04. Mr President (Have Pity On The Working Man)
05. Guilty
06. Louisiana 1927
07. Every Man A King
08. Kingfish
09. Naked Man
10. Wedding In Cherokee County
11. Back On My Feet Again
12. Rollin'

Total time: 33:58

Exact Audio Copy V1.0 beta 3 from 29. August 2011

EAC extraction logfile from 9. July 2013, 3:44

Randy Newman / Good Old Boys

Used drive : PLEXTOR DVDR PX-891SA Adapter: 0 ID: 2

Read mode : Secure
Utilize accurate stream : Yes
Defeat audio cache : Yes
Make use of C2 pointers : No

Read offset correction : 6
Overread into Lead-In and Lead-Out : No
Fill up missing offset samples with silence : Yes
Delete leading and trailing silent blocks : No
Null samples used in CRC calculations : Yes
Used interface : Installed external ASPI interface

Used output format : User Defined Encoder
Selected bitrate : 320 kBit/s
Quality : High
Add ID3 tag : No
Command line compressor : C:\Program Files\Exact Audio Copy 1.0\Flac\flac.exe
Additional command line options : -V -8 -T "Genre=%genre%" -T "Artist=%artist%" -T "Title=%title%" -T "Album=%albumtitle%" -T "Date=%year%" -T "Tracknumber=%tracknr%" -T "Comment=%comment%" %source%


TOC of the extracted CD

Track | Start | Length | Start sector | End sector
––––––––––––––––––––––––––––-
1 | 0:00.00 | 3:10.05 | 0 | 14254
2 | 3:10.05 | 2:47.35 | 14255 | 26814
3 | 5:57.40 | 3:10.25 | 26815 | 41089
4 | 9:07.65 | 2:47.17 | 41090 | 53631
5 | 11:55.07 | 2:35.58 | 53632 | 65314
6 | 14:30.65 | 2:58.02 | 65315 | 78666
7 | 17:28.67 | 1:02.43 | 78667 | 83359
8 | 18:31.35 | 2:45.60 | 83360 | 95794
9 | 21:17.20 | 3:11.62 | 95795 | 110181
10 | 24:29.07 | 3:10.23 | 110182 | 124454
11 | 27:39.30 | 3:23.07 | 124455 | 139686
12 | 31:02.37 | 2:55.18 | 139687 | 152829


Range status and errors

Selected range

Filename K:\Lossless Temp\Randy Newman\Randy Newman - Original Album Series 5 CD (2011 Warner Bros Music Group Company, 8122797539)\04 - Good Old Boys - 1974\Randy Newman - Good Old Boys.wav

Peak level 98.9 %
Extraction speed 5.5 X
Range quality 100.0 %
Test CRC F75C7A09
Copy CRC F75C7A09
Copy OK

No errors occurred


AccurateRip summary

Track 1 accurately ripped (confidence 5) [F035ABB5] (AR v2)
Track 2 accurately ripped (confidence 5) [8869DC55] (AR v2)
Track 3 accurately ripped (confidence 5) [DC9A2A96] (AR v2)
Track 4 accurately ripped (confidence 5) [79B7FC71] (AR v2)
Track 5 accurately ripped (confidence 5) [9F6378C8] (AR v2)
Track 6 accurately ripped (confidence 5) [F61EF505] (AR v2)
Track 7 accurately ripped (confidence 5) [F5511B0D] (AR v2)
Track 8 accurately ripped (confidence 5) [251F65EB] (AR v2)
Track 9 accurately ripped (confidence 5) [77400834] (AR v2)
Track 10 accurately ripped (confidence 5) [947F6852] (AR v2)
Track 11 accurately ripped (confidence 5) [30F61AC9] (AR v2)
Track 12 accurately ripped (confidence 5) [FE9C0DF8] (AR v2)

All tracks accurately ripped

End of status report

==== Log checksum FFAF23C7791682A5AAC80E560E18D1D17B3B4F88B3F31E10909A5B01DC50EA9E ====

[CUETools log; Date: 23.01.2018 18:41:10; Version: 2.1.4]
[CTDB TOCID: BvNS2t4JWxFiH_m4Zue.pMxwYJo-] found.
Track | CTDB Status
1 | (108/108) Accurately ripped
2 | (108/108) Accurately ripped
3 | (108/108) Accurately ripped
4 | (108/108) Accurately ripped
5 | (108/108) Accurately ripped
6 | (108/108) Accurately ripped
7 | (108/108) Accurately ripped
8 | (108/108) Accurately ripped
9 | (108/108) Accurately ripped
10 | (108/108) Accurately ripped
11 | (108/108) Accurately ripped
12 | (107/108) Accurately ripped
[AccurateRip ID: 000f0be3-008b9231-9e07f50c] found.
Track [ CRC | V2 ] Status
01 [31ca3ad0|f035abb5] (06+76/82) Accurately ripped
02 [5275b102|8869dc55] (06+77/83) Accurately ripped
03 [90e8e253|dc9a2a96] (06+77/83) Accurately ripped
04 [37afcd8f|79b7fc71] (06+77/83) Accurately ripped
05 [f26b1cac|9f6378c8] (06+76/82) Accurately ripped
06 [a1ffcee3|f61ef505] (06+76/82) Accurately ripped
07 [8167a0bd|f5511b0d] (06+77/83) Accurately ripped
08 [8ac662c2|251f65eb] (06+77/83) Accurately ripped
09 [3a70a4d5|77400834] (06+76/82) Accurately ripped
10 [cfc638ac|947f6852] (06+76/82) Accurately ripped
11 [c300f81f|30f61ac9] (06+76/82) Accurately ripped
12 [90f0337c|fe9c0df8] (06+75/81) Accurately ripped

Track Peak [ CRC32 ] [W/O NULL] [ LOG ]
– 98,9 [F75C7A09] [1533B62E] CRC32
01 97,2 [83E6B300] [85E6F45B]
02 88,1 [6C964C3D] [4720811D]
03 63,7 [B7CCE78B] [95C5744E]
04 97,2 [1DD09F5B] [7999F4DF]
05 97,2 [04CE0A5D] [EB5185A5]
06 97,2 [51EEA940] [616D3D9C]
07 98,9 [94C4BB9A] [AE80416D]
08 97,2 [80A15E90] [4143F584]
09 97,2 [BDE68691] [0244B879]
10 97,2 [56DD00E5] [B04293CF]
11 97,2 [CDFCBC04] [DD6E0747]
12 72,2 [8F618792] [3413562F]

Randy Newman - Original Album Series [5CD Box Set] (1968-1977) (2011) (Repost)

CD 5: Randy Newman - Little Criminals (1977)
EAC Rip | FLAC (image+.cue+log) - 178 MB | MP3 CBR 320 kbps (LAME 3.93) - 91 MB | Covers - 41 MB
Genre: Rock | RAR 3% Rec. | Label: Warner Bros. Records (8122797539)

Tracklist:
01. Short People
02. You Can't Fool The Fat Man
03. Little Criminals
04. Texas Girl At The Funeral Of Her Father
05. Jolly Coppers On Parade
06. In Germany Before The War
07. Sigmund Freud's Impersonation Of Albert Einstein In America
08. Baltimore
09. I'll Be Home
10. Rider In The Rain
11. Kathleen (Catholicism Made Easier)
12. Old Man On The Farm

Total time: 38:40

Exact Audio Copy V1.0 beta 3 from 29. August 2011

EAC extraction logfile from 9. July 2013, 4:25

Randy Newman / Little Criminals

Used drive : PLEXTOR DVDR PX-891SA Adapter: 0 ID: 2

Read mode : Secure
Utilize accurate stream : Yes
Defeat audio cache : Yes
Make use of C2 pointers : No

Read offset correction : 6
Overread into Lead-In and Lead-Out : No
Fill up missing offset samples with silence : Yes
Delete leading and trailing silent blocks : No
Null samples used in CRC calculations : Yes
Used interface : Installed external ASPI interface

Used output format : User Defined Encoder
Selected bitrate : 320 kBit/s
Quality : High
Add ID3 tag : No
Command line compressor : C:\Program Files\Exact Audio Copy 1.0\Flac\flac.exe
Additional command line options : -V -8 -T "Genre=%genre%" -T "Artist=%artist%" -T "Title=%title%" -T "Album=%albumtitle%" -T "Date=%year%" -T "Tracknumber=%tracknr%" -T "Comment=%comment%" %source%


TOC of the extracted CD

Track | Start | Length | Start sector | End sector
––––––––––––––––––––––––––––-
1 | 0:00.32 | 2:57.33 | 32 | 13339
2 | 2:57.65 | 2:46.50 | 13340 | 25839
3 | 5:44.40 | 3:06.12 | 25840 | 39801
4 | 8:50.52 | 2:43.20 | 39802 | 52046
5 | 11:33.72 | 3:49.55 | 52047 | 69276
6 | 15:23.52 | 3:42.40 | 69277 | 85966
7 | 19:06.17 | 2:53.33 | 85967 | 98974
8 | 21:59.50 | 4:05.45 | 98975 | 117394
9 | 26:05.20 | 2:48.22 | 117395 | 130016
10 | 28:53.42 | 3:54.63 | 130017 | 147629
11 | 32:48.30 | 3:37.67 | 147630 | 163971
12 | 36:26.22 | 2:13.28 | 163972 | 173974


Range status and errors

Selected range

Filename K:\Lossless Temp\Randy Newman\Randy Newman - Original Album Series 5 CD (2011 Warner Bros Music Group Company, 8122797539)\05 - Little Criminals - 1977\Randy Newman - Little Criminals.wav

Peak level 100.0 %
Extraction speed 5.5 X
Range quality 99.9 %
Test CRC E166C5FA
Copy CRC E166C5FA
Copy OK

No errors occurred


AccurateRip summary

Track 1 accurately ripped (confidence 3) [EF872BAE] (AR v2)
Track 2 accurately ripped (confidence 3) [249AC143] (AR v2)
Track 3 accurately ripped (confidence 3) [113F30DA] (AR v2)
Track 4 accurately ripped (confidence 3) [A6781E2D] (AR v2)
Track 5 accurately ripped (confidence 3) [3C243CB0] (AR v2)
Track 6 accurately ripped (confidence 3) [788A8E38] (AR v2)
Track 7 accurately ripped (confidence 3) [BB729CA2] (AR v2)
Track 8 accurately ripped (confidence 3) [CD005A21] (AR v2)
Track 9 accurately ripped (confidence 3) [D8978731] (AR v2)
Track 10 accurately ripped (confidence 3) [B345BC91] (AR v2)
Track 11 accurately ripped (confidence 3) [A7C0E388] (AR v2)
Track 12 accurately ripped (confidence 3) [496CD988] (AR v2)

All tracks accurately ripped

End of status report

==== Log checksum DDCD2D70B9191C2E537B8CE3DF3913B6CC99FB26E576D1F72EE04842ACAC7F50 ====

[CUETools log; Date: 23.01.2018 18:41:53; Version: 2.1.4]
Pregap length 00:00:32.
[CTDB TOCID: tqLxWsEgGZGYOqbaBRHT7twS3Wo-] found.
Track | CTDB Status
1 | (103/104) Accurately ripped
2 | (104/104) Accurately ripped
3 | (104/104) Accurately ripped
4 | (104/104) Accurately ripped
5 | (104/104) Accurately ripped
6 | (104/104) Accurately ripped
7 | (104/104) Accurately ripped
8 | (104/104) Accurately ripped
9 | (104/104) Accurately ripped
10 | (104/104) Accurately ripped
11 | (104/104) Accurately ripped
12 | (104/104) Accurately ripped
[AccurateRip ID: 0011103d-00a0df34-aa090f0c] found.
Track [ CRC | V2 ] Status
01 [39d9328b|ef872bae] (006+081/137) Accurately ripped
02 [facf7d0b|249ac143] (006+081/137) Accurately ripped
03 [6a43076a|113f30da] (006+081/137) Accurately ripped
04 [30cf1c50|a6781e2d] (006+082/138) Accurately ripped
05 [94ceb4c8|3c243cb0] (006+081/137) Accurately ripped
06 [8c4ee240|788a8e38] (006+082/138) Accurately ripped
07 [93be66f5|bb729ca2] (006+082/138) Accurately ripped
08 [3b5c9f10|cd005a21] (006+081/137) Accurately ripped
09 [3c50b772|d8978731] (006+080/135) Accurately ripped
10 [cb17d28b|b345bc91] (006+080/136) Accurately ripped
11 [9e235c3d|a7c0e388] (006+080/136) Accurately ripped
12 [27797a25|496cd988] (006+081/137) Accurately ripped
Offsetted by 18:
01 [7c930963] (024/137) Accurately ripped
02 [684bbc87] (024/137) Accurately ripped
03 [996e12dc] (024/137) Accurately ripped
04 [d3f67630] (024/138) Accurately ripped
05 [e9c2b21a] (024/137) Accurately ripped
06 [90eba494] (024/138) Accurately ripped
07 [55e83aa3] (024/138) Accurately ripped
08 [9c1dcf6e] (024/137) Accurately ripped
09 [388744c2] (023/135) Accurately ripped
10 [7bd12e69] (024/136) Accurately ripped
11 [b98b5c73] (024/136) Accurately ripped
12 [6fc8ed3b] (024/137) Accurately ripped
Offsetted by 1642:
01 [5611dd83] (006/137) Accurately ripped
02 [53a3e357] (006/137) Accurately ripped
03 [1c99a9b4] (006/137) Accurately ripped
04 [e24694b0] (006/138) Accurately ripped
05 [68a38772] (006/137) Accurately ripped
06 [8663af84] (006/138) Accurately ripped
07 [fca5f14b] (006/138) Accurately ripped
08 [ee6ca256] (006/137) Accurately ripped
09 [54a4a082] (006/135) Accurately ripped
10 [fd24ab51] (006/136) Accurately ripped
11 [f06b6f7b] (006/136) Accurately ripped
12 [ebc90ac3] (006/137) Accurately ripped

Track Peak [ CRC32 ] [W/O NULL] [ LOG ]
– 100,0 [E166C5FA] [A0A66973] CRC32
01 98,9 [21650CD6] [DE089D43]
02 75,4 [58B791C3] [80D414CD]
03 100,0 [F35C1E7A] [98EB7FD5]
04 39,3 [6DFDA8AB] [27DCFF40]
05 76,2 [F6E37CBF] [EF4324B2]
06 33,1 [9F0C5699] [8B43D3E4]
07 83,9 [5598531D] [FE9AC074]
08 84,6 [DB597A06] [EA71F4A9]
09 52,3 [87908E11] [7BAA46B3]
10 75,3 [A7F8218B] [32831534]
11 99,1 [F393427C] [7E4AE477]
12 45,2 [4E45027C] [9294E43D]

Thanks to Swamp Fox