Subcategories

Ratt: Dancing Undercover (1986) & Reach For The Sky (1988)

Posted By: v3122
Ratt: Dancing Undercover (1986) & Reach For The Sky (1988)

Ratt: Dancing Undercover (1986) & Reach For The Sky (1988)
EAC | Flac(Image) + Cue + Log & MP3 CBR 320Kbps
2CD | Atlantic | ~ 543 or 216 Mb | Scans Included
Hard Rock / Glam Metal

Ratt's brash, melodic heavy metal made the Los Angeles quintet one of the most popular rock acts of the mid-'80s. The group had its origins in the '70s group Mickey Ratt, which had evolved into Ratt by 1983; at that time the band featured vocalist Stephen Pearcy, guitarist Robbin Crosby, guitarist Warren DeMartini, bassist Juan Croucier, and drummer Bobby Blotzer. The band released its self-titled first album independently in 1983, which led to a major label contract with Atlantic Records. Their first album under this deal, 1984's Out of the Cellar, was a major success, reaching the American Top Ten and selling over three million copies. "Round and Round," the first single drawn from the album, hit number 12, proving the band had pop crossover potential. While their second album, 1985's Invasion of Your Privacy, didn't match the multi-platinum figures of Out of the Cellar, it also reached the Top Ten and sold over a million copies. By that time, the band could sell out concerts across the country and was a staple on MTV and AOR radio. Both Dancin' Undercover (1986) and Reach for the Sky (1988) continued Ratt's platinum streak and their audience, had only slipped slightly by the time of their final album, 1990's Detonator.
In 1992, Pearcy left Ratt to form his own band, Arcade, issuing a pair of releases – 1993's self-titled debut and 1994's A/2 – before forming another new band, Vertex (issuing a lone self-titled release in 1996). With their brand of glam metal out of step with the then-burgeoning alt-rock movement, Ratt decided to sit out much of the '90s, during which time DeMartini issued a solo album, Crazy Enough to Sing to You. But by the late '90s, the public's interest in '80s rock began to perk up, leading to Ratt reuniting in time for 1997's Collage. Two years later, Ratt's second self-titled release of their recording career was issued, following the same formula as its predecessor.

Shortly thereafter, Pearcy left the group once again, as he soon began fronting two bands, the more modern-sounding outfit Vicious Delite (a self-titled debut appeared in 2000) and Nitronic. Pearcy also formed his own record label (Top Fuel Records), and released several collections of archival material: Arcade's A/3: Live & Unreleased; Mickey Ratt's The Garage Tape Dayz 78-81; and, under his own name, the demo collection Before and Laughter. Pearcy's first true solo album, Social Intercourse, was released in 2001. Despite Pearcy's exit from the band, Ratt continued to carry on with new members Jizzy Pearl (former Love/Hate) on vocals, John Corabi (former Mötley Crüe) on guitar, and bassist Robbie Crane joining original members DeMartini and Blotzer. In the summer of 2001, long MIA Ratt guitarist Robbin Crosby disclosed to the public that he was battling AIDS, and Croucier soon began organizing a benefit album for his former bandmate. After struggling for years with the resulting health problems, Crosby died in Los Angeles in June 2002. Pearcy returned to the fold in 2010 for the group's seventh full-length album, Infestation.

by Stephen Thomas Erlewine, AMG
Ratt: Dancing Undercover (1986) & Reach For The Sky (1988)


Ratt: Dancing Undercover (1986) & Reach For The Sky (1988):

Ratt: Dancing Undercover (1986) & Reach For The Sky (1988)

Ratt - Dancing Undercover (1986)
EAC | Flac(Image) + Cue + Log & MP3 CBR 320Kbps
Atlantic, 7 81683-2 | ~ 254 or 104 Mb | Scans Included
Hard Rock / Glam Metal

L.A. pop-metal merchants Ratt thought they were being wise by knowing that they shouldn't mess with a successful formula, so after scoring multi-platinum sales with their first two albums, they decided to reprise most all of their attributes for their third, 1986's Dancing Undercover. Unfortunately, times were quickly changing and a second generation of younger, prettier pop-metal bands was rising up to challenge them (Poison, Cinderella, et al.), so as they trotted out their latest batch of soon-to-be-platinum-selling hits, Ratt had no way of knowing it would be their last brush with the top. Dancing Undercover's slightly disappointing chart peak of number 26 provided an early indication that things were not as they had once been (both of its predecessors had gone Top Ten), and when followed by similarly under-performing new singles "Dance," "Slip of the Lip," and "Body Talk," the decadence die was undoubtedly cast. Increasingly sluggish business on tour would come next (the band first fired, then rehired opening act Poison when it became obvious they were moving more tickets), and despite the presence of a few more perfectly decent album cuts like "One Good Lover," "Drive Me Crazy," and "Looking for Love," Dancing Undercover simply failed to connect with consumers like previous efforts. As for Ratt, they were about to find themselves facing possible "extermination," after fading inspiration and increasing personal strife contributed to the near-career-killing debacle that was their fourth album, 1988's Reach for the Sky.

by Eduardo Rivadavia, AMG
Tracklist:

1. Dance
2. One Good Lover
3. Drive Me Crazy
4. Slip Of The Lip
5. Body Talk
6. Looking For Love
7. 7th Avenue
8. It Doesn't Matter
9. Take A Chance
10. Enough Is Enough

Exact Audio Copy V1.1 from 23. June 2015

EAC extraction logfile from 17. March 2016, 21:17

Ratt / Dancing Undercover

Used drive : TSSTcorpDVD-ROM SH-118CB Adapter: 1 ID: 0

Read mode : Secure
Utilize accurate stream : Yes
Defeat audio cache : Yes
Make use of C2 pointers : No

Read offset correction : 6
Overread into Lead-In and Lead-Out : No
Fill up missing offset samples with silence : Yes
Delete leading and trailing silent blocks : No
Null samples used in CRC calculations : Yes
Used interface : Native Win32 interface for Win NT & 2000

Used output format : User Defined Encoder
Selected bitrate : 1024 kBit/s
Quality : High
Add ID3 tag : No
Command line compressor : C:\Program Files (x86)\Exact Audio Copy\Flac\flac.exe
Additional command line options : -V -8 -T "Date=%year%" -T "Genre=%genre%" %source%


TOC of the extracted CD

Track | Start | Length | Start sector | End sector
––––––––––––––––––––––––––––-
1 | 0:00.32 | 4:20.23 | 32 | 19554
2 | 4:20.55 | 3:07.35 | 19555 | 33614
3 | 7:28.15 | 3:41.15 | 33615 | 50204
4 | 11:09.30 | 3:16.10 | 50205 | 64914
5 | 14:25.40 | 3:48.50 | 64915 | 82064
6 | 18:14.15 | 3:06.70 | 82065 | 96084
7 | 21:21.10 | 3:10.62 | 96085 | 110396
8 | 24:31.72 | 3:08.58 | 110397 | 124554
9 | 27:40.55 | 4:00.65 | 124555 | 142619
10 | 31:41.45 | 3:22.62 | 142620 | 157831


Range status and errors

Selected range

Filename E:\Torrent\Ratt - Collection (5 CD, 1984-1990)\1986 - Dancing Undercover (Atlantic, 7 81683-2, U.S.A.)\Ratt - Dancing Undercover.wav

Peak level 100.0 %
Extraction speed 0.8 X
Range quality 100.0 %
Test CRC 3177B607
Copy CRC 3177B607
Copy OK

No errors occurred


AccurateRip summary

Track 1 accurately ripped (confidence 13) [255FA96B] (AR v2)
Track 2 accurately ripped (confidence 13) [331902E0] (AR v2)
Track 3 accurately ripped (confidence 13) [FA24D53F] (AR v2)
Track 4 accurately ripped (confidence 13) [A3048342] (AR v2)
Track 5 accurately ripped (confidence 13) [C55CDAF0] (AR v2)
Track 6 accurately ripped (confidence 13) [FEBA83E9] (AR v2)
Track 7 accurately ripped (confidence 13) [2618B7A7] (AR v2)
Track 8 accurately ripped (confidence 13) [FA7F61CB] (AR v2)
Track 9 accurately ripped (confidence 13) [DC1AB296] (AR v2)
Track 10 accurately ripped (confidence 13) [D202E682] (AR v2)

All tracks accurately ripped

End of status report

–– CUETools DB Plugin V2.1.6

[CTDB TOCID: pnU5TeoXo0nmWRXWP3ZshG9hNlA-] found
Submit result: pnU5TeoXo0nmWRXWP3ZshG9hNlA- has been confirmed
Track | CTDB Status
1 | (43/43) Accurately ripped
2 | (43/43) Accurately ripped
3 | (43/43) Accurately ripped
4 | (43/43) Accurately ripped
5 | (43/43) Accurately ripped
6 | (43/43) Accurately ripped
7 | (43/43) Accurately ripped
8 | (43/43) Accurately ripped
9 | (43/43) Accurately ripped
10 | (43/43) Accurately ripped


==== Log checksum 62BC72FC9CF764BA6D59B829C3001353D02A50CCE6E6162BEF6F3F1F3190F0E6 ====

foobar2000 1.2.9 / Dynamic Range Meter 1.1.1
log date: 2016-03-22 11:28:02

––––––––––––––––––––––––––––––––––––––––
Analyzed: Ratt / Dancing Undercover
––––––––––––––––––––––––––––––––––––––––

DR Peak RMS Duration Track
––––––––––––––––––––––––––––––––––––––––
DR15 0.00 dB -16.39 dB 4:20 01-Dance
DR16 0.00 dB -17.14 dB 3:07 02-One Good Lover
DR14 -0.80 dB -16.65 dB 3:41 03-Drive Me Crazy
DR16 -0.27 dB -17.84 dB 3:16 04-Slip Of The Lip
DR14 -1.67 dB -17.46 dB 3:49 05-Body Talk
DR15 -1.67 dB -17.72 dB 3:07 06-Looking For Love
DR16 0.00 dB -16.85 dB 3:11 07-7th Avenue
DR15 -1.13 dB -17.46 dB 3:09 08-It Doesn't Matter
DR15 -0.32 dB -17.66 dB 4:01 09-Take A Chance
DR15 0.00 dB -17.38 dB 3:23 10-Enough Is Enough
––––––––––––––––––––––––––––––––––––––––

Number of tracks: 10
Official DR value: DR15

Samplerate: 44100 Hz
Channels: 2
Bits per sample: 16
Bitrate: 919 kbps
Codec: FLAC

[CUETools log; Date: 22.03.2016 11:18:01; Version: 2.1.4]
Pregap length 00:00:32.
[CTDB TOCID: pnU5TeoXo0nmWRXWP3ZshG9hNlA-] found.
Track | CTDB Status
1 | (44/44) Accurately ripped
2 | (44/44) Accurately ripped
3 | (44/44) Accurately ripped
4 | (44/44) Accurately ripped
5 | (44/44) Accurately ripped
6 | (44/44) Accurately ripped
7 | (44/44) Accurately ripped
8 | (44/44) Accurately ripped
9 | (44/44) Accurately ripped
10 | (44/44) Accurately ripped
[AccurateRip ID: 000d74d4-006ac39a-8108380a] found.
Track [ CRC | V2 ] Status
01 [169a1149|255fa96b] (15+13/60) Accurately ripped
02 [c70dd737|331902e0] (15+13/60) Accurately ripped
03 [0d21e9b1|fa24d53f] (15+13/60) Accurately ripped
04 [b19a93f9|a3048342] (15+13/60) Accurately ripped
05 [c716fd00|c55cdaf0] (15+13/61) Accurately ripped
06 [4030769e|feba83e9] (15+13/61) Accurately ripped
07 [e7a08477|2618b7a7] (14+13/60) Accurately ripped
08 [2822503c|fa7f61cb] (15+13/61) Accurately ripped
09 [54cf0091|dc1ab296] (14+13/60) Accurately ripped
10 [03c33e39|d202e682] (15+13/58) Accurately ripped
Offsetted by -709:
01 [0d56370e] (10/60) Accurately ripped
02 [3e33fea5] (10/60) Accurately ripped
03 [a30c2b8b] (10/60) Accurately ripped
04 [63a5921c] (10/60) Accurately ripped
05 [5d2a652d] (10/61) Accurately ripped
06 [769450e8] (10/61) Accurately ripped
07 [9be32187] (10/60) Accurately ripped
08 [96a2a486] (10/61) Accurately ripped
09 [146a3b0b] (10/60) Accurately ripped
10 [a4948d6a] (09/58) Accurately ripped
Offsetted by -443:
01 [f8de6f2c] (00/60) No match (V2 was not tested)
02 [23b75bb6] (00/60) No match (V2 was not tested)
03 [dd56bba6] (00/60) No match (V2 was not tested)
04 [774b8fb1] (00/60) No match (V2 was not tested)
05 [df4c9d24] (00/61) No match (V2 was not tested)
06 [27cdc020] (00/61) No match (V2 was not tested)
07 [0015a9df] (00/60) No match (V2 was not tested)
08 [86af89f2] (00/61) No match (V2 was not tested)
09 [d53d145c] (00/60) No match (V2 was not tested)
10 [e9f26856] (00/58) No match (V2 was not tested)

Track Peak [ CRC32 ] [W/O NULL] [ LOG ]
– 100,0 [3177B607] [7782F4E1] CRC32
01 100,0 [5517B4B0] [2EB74F46]
02 100,0 [13AAF326] [D13C72D6]
03 91,2 [147C4100] [82D48FDB]
04 96,8 [F9C63EB4] [42667C85]
05 82,5 [2346612B] [0F203926]
06 82,5 [CAF7A128] [7AC1A3DE]
07 100,0 [13EF7734] [D96B4AAF]
08 87,8 [E2E70EB7] [9DFAD2AA]
09 96,3 [7D3A11E9] [370C60E3]
10 100,0 [287B7D3E] [B970A714]

Ratt: Dancing Undercover (1986) & Reach For The Sky (1988)

Ratt - Reach For The Sky (1988)
EAC | Flac(Image) + Cue + Log & MP3 CBR 320Kbps
Atlantic, 7 81929-2 | ~ 289 or 112 Mb | Scans Included
Hard Rock / Glam Metal

Although often targeted as one of the worst offenders in the much maligned hair metal scene of the '80s, Ratt's distinctive sonic signatures and generally high level of musicianship are often overlooked. Granted, the lyrics are usually vacuous and the music doesn't possess much staying power as the years go by, but, as pop-metal bands go, Ratt were better than most of their peers. Guitarist Warren DeMartini, in particular, is responsible for some of the most memorable riffs and most masterful solos of the genre. Ratt's fourth album, Reach for the Sky, wisely follows the same formula of the three records that preceded it, yielding some of the band's best material, along with the usual amount of filler. They scored a minor hit with "Way Cool Jr.," (which flaunts a groove Aerosmith would be proud of), and tracks like "City to City" and "No Surprise" also emphasize the band's strengths. But stuff like "I Want a Woman" and "Chain Reaction" demonstrate singer Stephen Pearcy's unfortunate inclination toward dumb rock clichés, a component of Ratt that consistently undermines the musical achievements of the band.

by Andy Hinds, AMG
Tracklist:

1. City To City
2. I Want A Woman
3. Way Cool Jr.
4. Don't Bite The Hand That Feeds
5. I Want To Love You Tonight
6. Chain Reaction
7. No Surprise
8. Bottom Line
9. What's It Gonna Be
10. What I'm After

Exact Audio Copy V1.1 from 23. June 2015

EAC extraction logfile from 17. March 2016, 22:52

Ratt / Reach For The Sky

Used drive : TSSTcorpDVD-ROM SH-118CB Adapter: 1 ID: 0

Read mode : Secure
Utilize accurate stream : Yes
Defeat audio cache : Yes
Make use of C2 pointers : No

Read offset correction : 6
Overread into Lead-In and Lead-Out : No
Fill up missing offset samples with silence : Yes
Delete leading and trailing silent blocks : No
Null samples used in CRC calculations : Yes
Used interface : Native Win32 interface for Win NT & 2000

Used output format : User Defined Encoder
Selected bitrate : 1024 kBit/s
Quality : High
Add ID3 tag : No
Command line compressor : C:\Program Files (x86)\Exact Audio Copy\Flac\flac.exe
Additional command line options : -V -8 -T "Date=%year%" -T "Genre=%genre%" %source%


TOC of the extracted CD

Track | Start | Length | Start sector | End sector
––––––––––––––––––––––––––––-
1 | 0:00.32 | 3:31.15 | 32 | 15871
2 | 3:31.47 | 3:58.48 | 15872 | 33769
3 | 7:30.20 | 4:27.20 | 33770 | 53814
4 | 11:57.40 | 3:08.40 | 53815 | 67954
5 | 15:06.05 | 4:27.60 | 67955 | 88039
6 | 19:33.65 | 3:42.42 | 88040 | 104731
7 | 23:16.32 | 4:03.20 | 104732 | 122976
8 | 27:19.52 | 4:20.40 | 122977 | 142516
9 | 31:40.17 | 4:07.48 | 142517 | 161089
10 | 35:47.65 | 3:35.22 | 161090 | 177236


Range status and errors

Selected range

Filename E:\Torrent\Ratt - Collection (5 CD, 1984-1990)\1988 - Reach For The Sky (Atlantic, 7 81929-2, U.S.A.)\Ratt - Reach For The Sky.wav

Peak level 100.0 %
Extraction speed 0.8 X
Range quality 99.9 %
Test CRC 1867F7E2
Copy CRC 1867F7E2
Copy OK

No errors occurred


AccurateRip summary

Track 1 accurately ripped (confidence 11) [0D97AE5D] (AR v2)
Track 2 accurately ripped (confidence 11) [06FEE096] (AR v2)
Track 3 accurately ripped (confidence 11) [830D00EE] (AR v2)
Track 4 accurately ripped (confidence 11) [E27B64A6] (AR v2)
Track 5 accurately ripped (confidence 11) [AB87E264] (AR v2)
Track 6 accurately ripped (confidence 11) [23C07F2C] (AR v2)
Track 7 accurately ripped (confidence 11) [9FA1F845] (AR v2)
Track 8 accurately ripped (confidence 11) [A036DE77] (AR v2)
Track 9 accurately ripped (confidence 11) [B3FEA3BE] (AR v2)
Track 10 accurately ripped (confidence 11) [26528F26] (AR v2)

All tracks accurately ripped

End of status report

–– CUETools DB Plugin V2.1.6

[CTDB TOCID: zidi4rsMzs3D2PuoVIEtJvyuvx4-] found
Submit result: zidi4rsMzs3D2PuoVIEtJvyuvx4- has been confirmed
Track | CTDB Status
1 | (61/63) Accurately ripped
2 | (63/63) Accurately ripped
3 | (57/63) Accurately ripped
4 | (61/63) Accurately ripped
5 | (61/63) Accurately ripped
6 | (62/63) Accurately ripped
7 | (63/63) Accurately ripped
8 | (61/63) Accurately ripped
9 | (62/63) Accurately ripped
10 | (61/63) Accurately ripped


==== Log checksum 7669B53443AFBB7ED3AD9C4FCA3A9775899D336890ECA45B1106332B29759898 ====

foobar2000 1.2.9 / Dynamic Range Meter 1.1.1
log date: 2016-03-22 12:38:53

––––––––––––––––––––––––––––––––––––––––
Analyzed: Ratt / Reach For The Sky
––––––––––––––––––––––––––––––––––––––––

DR Peak RMS Duration Track
––––––––––––––––––––––––––––––––––––––––
DR14 0.00 dB -15.43 dB 3:31 01-City To City
DR14 -0.05 dB -14.97 dB 3:59 02-I Want A Woman
DR14 0.00 dB -16.10 dB 4:27 03-Way Cool Jr.
DR14 0.00 dB -15.73 dB 3:09 04-Don't Bite The Hand That Feeds
DR14 -0.20 dB -17.33 dB 4:28 05-I Want To Love You Tonight
DR13 0.00 dB -14.98 dB 3:43 06-Chain Reaction
DR14 -0.02 dB -15.97 dB 4:03 07-No Surprise
DR13 -0.30 dB -15.75 dB 4:21 08-Bottom Line
DR14 -0.38 dB -15.73 dB 4:08 09-What's It Gonna Be
DR13 -0.43 dB -15.68 dB 3:35 10-What I'm After
––––––––––––––––––––––––––––––––––––––––

Number of tracks: 10
Official DR value: DR14

Samplerate: 44100 Hz
Channels: 2
Bits per sample: 16
Bitrate: 931 kbps
Codec: FLAC

[CUETools log; Date: 22.03.2016 11:20:19; Version: 2.1.4]
Pregap length 00:00:32.
[CTDB TOCID: zidi4rsMzs3D2PuoVIEtJvyuvx4-] found.
Track | CTDB Status
1 | (62/64) Accurately ripped
2 | (64/64) Accurately ripped
3 | (58/64) Accurately ripped
4 | (62/64) Accurately ripped
5 | (62/64) Accurately ripped
6 | (63/64) Accurately ripped
7 | (64/64) Accurately ripped
8 | (62/64) Accurately ripped
9 | (63/64) Accurately ripped
10 | (62/64) Accurately ripped
[AccurateRip ID: 000ec565-0076a8cd-80093b0a] found.
Track [ CRC | V2 ] Status
01 [8c98b4de|0d97ae5d] (009+011/123) Accurately ripped
02 [853530a1|06fee096] (009+011/126) Accurately ripped
03 [5893cc4d|830d00ee] (009+011/119) Accurately ripped
04 [18fef9d1|e27b64a6] (009+011/125) Accurately ripped
05 [a895a270|ab87e264] (009+011/123) Accurately ripped
06 [ec38b38a|23c07f2c] (009+011/124) Accurately ripped
07 [0616b9b9|9fa1f845] (009+011/127) Accurately ripped
08 [2578ece4|a036de77] (009+011/125) Accurately ripped
09 [cdc0df6c|b3fea3be] (009+011/122) Accurately ripped
10 [2cc111c1|26528f26] (009+011/122) Accurately ripped
Offsetted by 213:
01 [680a29ba] (013/123) Accurately ripped
02 [5fe1b0fc] (013/126) Accurately ripped
03 [65063a3e] (013/119) Accurately ripped
04 [7e53dd25] (013/125) Accurately ripped
05 [7e78318a] (012/123) Accurately ripped
06 [dcb0724a] (013/124) Accurately ripped
07 [5df67643] (013/127) Accurately ripped
08 [535fa4bf] (013/125) Accurately ripped
09 [75a1aa85] (012/122) Accurately ripped
10 [d176fbb3] (013/122) Accurately ripped
Offsetted by 354:
01 [63a3cfe1] (024/123) Accurately ripped
02 [fe09d991] (025/126) Accurately ripped
03 [329e6feb] (024/119) Accurately ripped
04 [909ef664] (025/125) Accurately ripped
05 [c0092320] (025/123) Accurately ripped
06 [171a3500] (024/124) Accurately ripped
07 [f8893e29] (025/127) Accurately ripped
08 [a8cdd391] (024/125) Accurately ripped
09 [4fad65ac] (024/122) Accurately ripped
10 [47318119] (024/122) Accurately ripped
Offsetted by 691:
01 [4fa30578] (010/123) Accurately ripped
02 [54bb8c7f] (010/126) Accurately ripped
03 [2ae43d6c] (010/119) Accurately ripped
04 [af92e884] (010/125) Accurately ripped
05 [072e856c] (010/123) Accurately ripped
06 [9b8f47a2] (010/124) Accurately ripped
07 [f25c3cdc] (010/127) Accurately ripped
08 [815f9d7f] (010/125) Accurately ripped
09 [16aba379] (010/122) Accurately ripped
10 [d5c02526] (010/122) Accurately ripped
Offsetted by 1193:
01 [a3d547cb] (000/123) No match (V2 was not tested)
02 [c8fa0cdf] (000/126) No match (V2 was not tested)
03 [5aa3896b] (000/119) No match (V2 was not tested)
04 [20ad8247] (000/125) No match (V2 was not tested)
05 [ffe08925] (000/123) No match (V2 was not tested)
06 [139292d2] (000/124) No match (V2 was not tested)
07 [1a173668] (000/127) No match (V2 was not tested)
08 [ec71e984] (000/125) No match (V2 was not tested)
09 [6a680b5e] (000/122) No match (V2 was not tested)
10 [3943e9b8] (000/122) No match (V2 was not tested)

Track Peak [ CRC32 ] [W/O NULL] [ LOG ]
– 100,0 [1867F7E2] [A115A66C] CRC32
01 100,0 [4C882B5E] [AA868C80]
02 99,4 [5DFFB8CA] [ABF558F6]
03 100,0 [61D63E57] [7F674530]
04 100,0 [95FEACDB] [6FC82DB4]
05 97,7 [B5A95A7B] [429014F3]
06 100,0 [C3029B23] [625D5B4E]
07 99,7 [8FC13C3E] [40DBC282]
08 96,6 [D5DE20A3] [7B12689C]
09 95,7 [385D6997] [8F0A7EA5]
10 95,1 [EFA5C6AF] [8C4BBE6B]

* * *

All thanks go to Ginger Devil

Ratt in my Blog

Download Ratt: Dancing Undercover (1986) & Reach For The Sky (1988):