Subcategories

Ratt - Detonator (1990) [Japan SHM-CD, 2009]

Posted By: Andi_Deris
Ratt - Detonator (1990) [Japan SHM-CD, 2009]

Ratt - Detonator (1990) [Japan SHM-CD, 2009]
EAC Rip | FLAC: Image+Cue+Log | 383 Mb | MP3 CBR 320 kbps | 122 Mb | Scans | Time: 48:37
Hard Rock, Hair/Glam Metal | Warner Music Japan | WPCR-13570

Detonator is Ratt's fifth studio album, released in August 1990. Though their previous album, Reach for the Sky, went platinum, it met with much criticism regarding the quality of their songs. In an attempt to regain the popularity that Ratt had in the mid-1980s, the band parted ways with long-time producer Beau Hill. Hitmaker Desmond Child and his personal sound engineer Sir Arthur Payson were hired to helm the project.

Ratt - Detonator (1990) [Japan SHM-CD, 2009]




Track Listing

01. Intro to Shame (0:56)
02. Shame, Shame, Shame (4:32)
03. Lovin' You's a Dirty Job (3:14)
04. Scratch That Itch (3:16)
05. One Step Away (4:50)
06. Hard Time (3:46)
07. Heads I Win, Tails You Lose (3:59)
08. All or Nothing (4:14)
09. Can't Wait on Love (4:04)
10. Givin' Yourself Away (5:26)
11. Top Secret (3:52)
12. Lovin' You's a Dirty Job (Ratt Fonic Monster Mix) (6:28)

Produced by Sir Arthur Payson
Executive Producer: Desmond Child

The Band

• Stephen Pearcy - Lead vocals
• Warren DeMartini - Lead guitar, Acoustic & Slide guitars
• Robbin Crosby - Guitars
• Juan Croucier - Bass guitar & Back-up vocals
• Bobby (Blotz) Blotzer - Drums

• Jon Bon Jovi - Backing vocals on "Heads I Win, Tails You Lose"

Notes

Cardboard sleeve reissue from Ratt featuring the high-fidelity SHM-CD format (compatible with standard CD players) and the 24-bit digital remastering. Part of five-album Ratt SHM-CD cardboard sleeve reissue series featuring albums "Out Of The Cellar," "Invation Of Your Privacy," "Dancing Undercover," "Reach For The Sky," and "Detonator."

Exact Audio Copy V0.99 prebeta 5 from 4. May 2009

Отчёт EAC об извлечении, выполненном 14. мая 2010, 12:51

Ratt / Detonator (SHM-CD)

Дисковод: HL-DT-STDVD-RAM GSA-H55L Adapter: 0 ID: 0

Режим чтения : Достоверность
Использование точного потока : Да
Отключение кэша аудио : Да
Использование указателей C2 : Нет

Коррекция смещения при чтении : 102
Способность читать области Lead-in и Lead-out : Нет
Заполнение пропущенных сэмплов тишиной : Да
Удаление блоков с тишиной в начале и конце : Нет
При вычислениях CRC использовались нулевые сэмплы : Да
Интерфейс : Встроенный Win32-интерфейс для Win NT/2000

Выходной формат : Пользовательский кодировщик
Выбранный битрейт : 1024 kBit/s
Качество : Высокий
Добавление ID3-тэга : Нет
Утилита сжатия : C:\Program Files\Exact Audio Copy\FLAC\FLAC.EXE
Дополнительные параметры : -8 -V %s


TOC извлечённого CD

Трек | Старт | Длительность | Начальный сектор | Конечный сектор
––––––––––––––––––––––––––––––––––-
1 | 0:00.00 | 0:56.08 | 0 | 4207
2 | 0:56.08 | 4:32.58 | 4208 | 24665
3 | 5:28.66 | 3:14.45 | 24666 | 39260
4 | 8:43.36 | 3:16.53 | 39261 | 54013
5 | 12:00.14 | 4:50.00 | 54014 | 75763
6 | 16:50.14 | 3:46.57 | 75764 | 92770
7 | 20:36.71 | 3:59.55 | 92771 | 110750
8 | 24:36.51 | 4:14.15 | 110751 | 129815
9 | 28:50.66 | 4:04.04 | 129816 | 148119
10 | 32:54.70 | 5:26.09 | 148120 | 172578
11 | 38:21.04 | 3:52.35 | 172579 | 190013
12 | 42:13.39 | 6:28.27 | 190014 | 219140


Характеристики диапазона извлечения и сообщения об ошибках

Выбранный диапазон

Имя файла D:\flac\Ratt - Detonator\Ratt - Detonator (SHM-CD).wav

Пиковый уровень 100.0 %
Качество диапазона 99.9 %
CRC теста B228BF25
CRC копии B228BF25
Копирование… OK

Ошибок не произошло


AccurateRip: сводка

Трек 1 точное извлечение (доверие 2) [EBC4E565]
Трек 2 точное извлечение (доверие 2) [4DA79ABE]
Трек 3 точное извлечение (доверие 2) [C7D6C6EE]
Трек 4 точное извлечение (доверие 2) [7374877D]
Трек 5 точное извлечение (доверие 2) [9E553C58]
Трек 6 точное извлечение (доверие 2) [D3B0CB0B]
Трек 7 точное извлечение (доверие 2) [0DF73C9E]
Трек 8 точное извлечение (доверие 2) [79C7E519]
Трек 9 точное извлечение (доверие 2) [13412F83]
Трек 10 точное извлечение (доверие 2) [39C78E27]
Трек 11 точное извлечение (доверие 2) [D6F2DFBB]
Трек 12 точное извлечение (доверие 2) [526B5F8D]

Все треки извлечены точно

Конец отчёта


Many thanks to the original uploader: afayurij

–––––––––
Nitroflare