Subcategories

Ray Brown & Cannonball Adderley - With the All-Star Big Band (1962) / Ray Brown / Milt Jackson (1965) [2012]

Posted By: gribovar
Ray Brown & Cannonball Adderley - With the All-Star Big Band (1962) / Ray Brown / Milt Jackson (1965) [2012]

Ray Brown & Cannonball Adderley - With the All-Star Big Band (1962) / Ray Brown / Milt Jackson (1965) [2012]
EAC Rip | FLAC (image+.cue+log) - 471 MB | MP3 CBR 320 kbps (LAME 3.93) - 178 MB | Covers - 54 MB
Genre: Jazz | RAR 3% Rec. | Label: Universal Music (UCCU-3167)

"Ray Brown with the All-Star Big Band" is a 1962 album by the jazz double bassist Ray Brown accompanied by a big band featuring the alto saxophonist Cannonball Adderley.
"Ray Brown / Milt Jackson" is an album by bassist Ray Brown and vibraphonist Milt Jackson recorded in 1965 and released on the Verve label.
Tracklist:

Ray Brown & Cannonball Adderley - With the All-Star Big Band (1962):
01. Work Song
02. It Happened in Monterey
03. My One and Only Love
04. Tricrotism
05. Thumbstring
06. Cannon Bilt
07. Two for the Blues
08. Day In, Day Out
09. Baubles, Bangles and Beads

Ray Brown & Milt Jackson - Ray Brown & Milt Jackson (1965):
10. Lined with a Groove
11. For Someone I Love
12. Dew and Mud
13. I Just Can't Fool Myself
14. Lazy Theme
15. Now Hear My Meaning
16. In a Crowd
17. Monterey Mist

Total time: 01:15:46

Exact Audio Copy V1.0 beta 3 from 29. August 2011

EAC extraction logfile from 12. March 2013, 15:11

Ray Brown / With the All-Star Big Band (1962) / With Milt Jackson (1965)

Used drive : ASUS DRW-24B1LT Adapter: 5 ID: 1

Read mode : Secure
Utilize accurate stream : Yes
Defeat audio cache : Yes
Make use of C2 pointers : No

Read offset correction : 6
Overread into Lead-In and Lead-Out : No
Fill up missing offset samples with silence : Yes
Delete leading and trailing silent blocks : No
Null samples used in CRC calculations : Yes
Used interface : Native Win32 interface for Win NT & 2000

Used output format : User Defined Encoder
Selected bitrate : 768 kBit/s
Quality : High
Add ID3 tag : No
Command line compressor : C:\Program Files\Exact Audio Copy\Flac\flac.exe
Additional command line options : -8 -V -T "ARTIST=%artist%" -T "TITLE=%title%" -T "ALBUM=%albumtitle%" -T "DATE=%year%" -T "TRACKNUMBER=%tracknr%" -T "TOTALTRACKS=%numtracks%" -T "GENRE=%genre%" -T "ALBUMARTIST=%albumartist%" -T "ALBUM ARTIST=%albumartist%" -T "COMMENT=EAC Secure Mode, Test & Copy, AccurateRip, FLAC -8" %source%


TOC of the extracted CD

Track | Start | Length | Start sector | End sector
––––––––––––––––––––––––––––-
1 | 0:00.00 | 5:18.54 | 0 | 23903
2 | 5:18.54 | 3:08.25 | 23904 | 38028
3 | 8:27.04 | 3:58.42 | 38029 | 55920
4 | 12:25.46 | 3:55.60 | 55921 | 73605
5 | 16:21.31 | 4:43.49 | 73606 | 94879
6 | 21:05.05 | 3:35.04 | 94880 | 111008
7 | 24:40.09 | 4:08.30 | 111009 | 129638
8 | 28:48.39 | 2:51.44 | 129639 | 142507
9 | 31:40.08 | 3:33.25 | 142508 | 158507
10 | 35:13.33 | 5:33.45 | 158508 | 183527
11 | 40:47.03 | 4:34.23 | 183528 | 204100
12 | 45:21.26 | 4:17.64 | 204101 | 223439
13 | 49:39.15 | 6:18.43 | 223440 | 251832
14 | 55:57.58 | 4:52.49 | 251833 | 273781
15 | 60:50.32 | 5:15.66 | 273782 | 297472
16 | 66:06.23 | 6:04.53 | 297473 | 324825
17 | 72:11.01 | 3:34.69 | 324826 | 340944


Range status and errors

Selected range

Filename F:\audio\Ray Brown - With the All-Star Big Band-With Milt Jackson.wav

Peak level 99.2 %
Extraction speed 6.8 X
Range quality 100.0 %
Test CRC F4EE36D3
Copy CRC F4EE36D3
Copy OK

No errors occurred


AccurateRip summary

Track 1 not present in database
Track 2 not present in database
Track 3 not present in database
Track 4 not present in database
Track 5 not present in database
Track 6 not present in database
Track 7 not present in database
Track 8 not present in database
Track 9 not present in database
Track 10 not present in database
Track 11 not present in database
Track 12 not present in database
Track 13 not present in database
Track 14 not present in database
Track 15 not present in database
Track 16 not present in database
Track 17 not present in database

None of the tracks are present in the AccurateRip database

End of status report

–– CUETools DB Plugin V2.1.3

[CTDB TOCID: PYNDjlfzZMRWlTfikLIkTHJyvoc-] found, Submit result: PYNDjlfzZMRWlTfikLIkTHJyvoc- has been confirmed
[ba2522d9] (2/2) Accurately ripped


==== Log checksum 91501DCD05491FF5DEC2632F8CED9983A40286B0A1E617B08A671A64983B6827 ====

[CUETools log; Date: 14.03.2018 21:23:06; Version: 2.1.4]
[CTDB TOCID: PYNDjlfzZMRWlTfikLIkTHJyvoc-] found.
Track | CTDB Status
1 | (14/15) Accurately ripped
2 | (14/15) Accurately ripped
3 | (14/15) Accurately ripped
4 | (14/15) Accurately ripped
5 | (14/15) Accurately ripped
6 | (14/15) Accurately ripped
7 | (14/15) Accurately ripped
8 | (14/15) Accurately ripped
9 | (14/15) Accurately ripped
10 | (14/15) Accurately ripped
11 | (14/15) Accurately ripped
12 | (14/15) Accurately ripped
13 | (14/15) Accurately ripped
14 | (14/15) Accurately ripped
15 | (14/15) Accurately ripped
16 | (14/15) Accurately ripped
17 | (14/15) Accurately ripped
[AccurateRip ID: 002cad3c-023b1cf5-fa11c111] found.
Track [ CRC | V2 ] Status
01 [21134295|169f7622] (00+13/13) Accurately ripped
02 [e74753b0|a211cefe] (00+13/13) Accurately ripped
03 [cd08ceb4|41a7535d] (00+13/13) Accurately ripped
04 [84b888a3|ab5789b7] (00+13/13) Accurately ripped
05 [131bb263|04b0edcc] (00+13/13) Accurately ripped
06 [89e770f7|010d66ef] (00+13/13) Accurately ripped
07 [eca8c81f|8aa71f13] (00+13/13) Accurately ripped
08 [2a5eeaad|ba845abb] (00+13/13) Accurately ripped
09 [5129977d|310106dd] (00+13/13) Accurately ripped
10 [eeaca551|147522eb] (00+13/13) Accurately ripped
11 [629b4b91|f1d36af3] (00+13/13) Accurately ripped
12 [635ae61a|100c7c56] (00+13/13) Accurately ripped
13 [9d70f2a7|9acf0779] (00+13/13) Accurately ripped
14 [7316b6b9|3a2c0dd6] (00+13/13) Accurately ripped
15 [60a386a6|dfc61ea2] (00+13/13) Accurately ripped
16 [d0bc2259|16960696] (00+13/13) Accurately ripped
17 [de2665be|e0f617f6] (00+13/13) Accurately ripped

Track Peak [ CRC32 ] [W/O NULL] [ LOG ]
– 99,2 [F4EE36D3] [9EB880FD] CRC32
01 98,8 [F1854DA0] [E0786F69]
02 98,8 [6FACFCC1] [CFCCE290]
03 66,3 [BC69D5E8] [46149F6F]
04 98,8 [68C627E1] [0FBF88E4]
05 96,5 [D45BC6C6] [3CE5511E]
06 98,8 [0266C997] [345784C1]
07 96,9 [9FC9ADF5] [67F1E203]
08 98,8 [5937F9E6] [F5255111]
09 98,8 [FA2E6E07] [DA9B2AF1]
10 99,2 [CBB6C478] [DC1A6FA9]
11 98,8 [127CE13F] [DC335FB3]
12 98,8 [41027AE2] [7B67B37C]
13 98,8 [CBB99223] [FBD74E62]
14 98,8 [4FCC6373] [04BA74B4]
15 98,8 [09E593E6] [F04D0A0C]
16 98,8 [E8A45804] [A773A06C]
17 98,8 [BD105C2E] [57080FC5]

Thanks to fiks22

See also:
Cannonball Adderley - Verve Jazz Masters 31 (1994)
The Cannonball Adderley Quintet - Paris, 1960 (1997)
Milt Jackson - Wizard of the Vibes (1952) [Reissue 2001]
Milt Jackson - Vibrations (1964) [Reissue 2012]
Milt Jackson Quartet - Statements (1962) [Reissue 2010]
Milt Jackson & Oscar Peterson - Ain't But a Few of Us Left (1981) [Reissue 2006]