Subcategories

Ray Charles - My World (1993)

Posted By: gribovar
Ray Charles - My World (1993)

Ray Charles - My World (1993)
EAC Rip | FLAC (tracks+.cue+log) - 307 MB | Covers - 37 MB
Genre: Soul | RAR 3% Rec. | Label: Warner Bros. Records (9 26735-2)

My World marked an attempt to somewhat "modernize" Ray Charles by incorporating elements of hip-hop and New Jack swing into his trademark sound. As a result, the record has aged poorly; the highlights are the songs done in Charles' usual inimitable style, including a reading of Leon Russell's "A Song for You" and a soulful rendition of Paul Simon's "Still Crazy After All These Years."
Tracklist:
01. My World
02. A Song For You
03. None Of Us Are Free
04. So Help Me God
05. Let Me Take Over
06. One Drop Of Love
07. If I Could
08. Love Has A Mind Of Its Own
09. I'll Be There
10. Still Crazy After All These Years

Total time: 44:45

Exact Audio Copy V0.99 prebeta 5 from 4. May 2009

EAC extraction logfile from 23. May 2010, 12:34

Ray Charles / My World

Used drive : HL-DT-STDVD-RAM GSA-H55N Adapter: 0 ID: 2

Read mode : Secure
Utilize accurate stream : Yes
Defeat audio cache : Yes
Make use of C2 pointers : No

Read offset correction : 102
Overread into Lead-In and Lead-Out : Yes
Fill up missing offset samples with silence : Yes
Delete leading and trailing silent blocks : No
Null samples used in CRC calculations : Yes
Used interface : Installed external ASPI interface
Gap handling : Appended to previous track

Used output format : User Defined Encoder
Selected bitrate : 128 kBit/s
Quality : High
Add ID3 tag : No
Command line compressor : G:\Program Files\Exact Audio Copy\Encoder\flac.exe
Additional command line options : -V -8 -T "Genre=%m" -T "Artist=%a" -T "Title=%t" -T "Album=%g" -T "Year=%y" -T "Tracknumber=%n" -T "Comment=EACpb5 -8" %s


TOC of the extracted CD

Track | Start | Length | Start sector | End sector
––––––––––––––––––––––––––––-
1 | 0:00.32 | 4:01.35 | 32 | 18141
2 | 4:01.67 | 4:12.28 | 18142 | 37069
3 | 8:14.20 | 4:59.40 | 37070 | 59534
4 | 13:13.60 | 3:59.35 | 59535 | 77494
5 | 17:13.20 | 5:25.25 | 77495 | 101894
6 | 22:38.45 | 4:22.25 | 101895 | 121569
7 | 27:00.70 | 4:52.30 | 121570 | 143499
8 | 31:53.25 | 4:06.10 | 143500 | 161959
9 | 35:59.35 | 3:47.70 | 161960 | 179054
10 | 39:47.30 | 4:57.65 | 179055 | 201394


Track 1

Filename F:\WAV\01 - My World.wav

Pre-gap length 0:00:02.32

Peak level 100.0 %
Track quality 100.0 %
Test CRC 0ABC6682
Copy CRC 0ABC6682
Accurately ripped (confidence 11) [03B1B248]
Copy OK

Track 2

Filename F:\WAV\02 - A Song For You.wav

Pre-gap length 0:00:00.07

Peak level 100.0 %
Track quality 99.9 %
Test CRC A23A55AB
Copy CRC A23A55AB
Accurately ripped (confidence 12) [B63CFD24]
Copy OK

Track 3

Filename F:\WAV\03 - None Of Us Are Free.wav

Peak level 100.0 %
Track quality 99.9 %
Test CRC E44BD372
Copy CRC E44BD372
Accurately ripped (confidence 11) [DD1C23C9]
Copy OK

Track 4

Filename F:\WAV\04 - So Help Me God.wav

Pre-gap length 0:00:01.40

Peak level 100.0 %
Track quality 100.0 %
Test CRC 3CE610FD
Copy CRC 3CE610FD
Accurately ripped (confidence 13) [412A1535]
Copy OK

Track 5

Filename F:\WAV\05 - Let Me Take Over.wav

Pre-gap length 0:00:00.13

Peak level 100.0 %
Track quality 100.0 %
Test CRC 0DF74284
Copy CRC 0DF74284
Accurately ripped (confidence 13) [894066C1]
Copy OK

Track 6

Filename F:\WAV\06 - One Drop Of Love.wav

Peak level 100.0 %
Track quality 99.9 %
Test CRC E58D83A7
Copy CRC E58D83A7
Accurately ripped (confidence 13) [6F3F5ECC]
Copy OK

Track 7

Filename F:\WAV\07 - If I Could.wav

Peak level 100.0 %
Track quality 100.0 %
Test CRC 8B1F7649
Copy CRC 8B1F7649
Accurately ripped (confidence 13) [E6E9DE29]
Copy OK

Track 8

Filename F:\WAV\08 - Love Has A Mind Of Its Own.wav

Pre-gap length 0:00:00.35

Peak level 100.0 %
Track quality 100.0 %
Test CRC EF154B00
Copy CRC EF154B00
Accurately ripped (confidence 13) [3430AC70]
Copy OK

Track 9

Filename F:\WAV\09 - I'll Be There.wav

Peak level 100.0 %
Track quality 100.0 %
Test CRC 515414BE
Copy CRC 515414BE
Accurately ripped (confidence 13) [07B09CC7]
Copy OK

Track 10

Filename F:\WAV\10 - Still Crazy After All These Years.wav

Peak level 100.0 %
Track quality 99.9 %
Test CRC 6B766432
Copy CRC 6B766432
Accurately ripped (confidence 12) [84EC11B3]
Copy OK


All tracks accurately ripped

No errors occurred

End of status report

[CUETools log; Date: 29.11.2018 2:09:17; Version: 2.1.4]
Pregap length 00:00:32.
[CTDB TOCID: kX52Nch.YJQhDJpu6Z7kNqX87MI-] found.
Track | CTDB Status
1 | (56/56) Accurately ripped
2 | (56/56) Accurately ripped
3 | (56/56) Accurately ripped
4 | (56/56) Accurately ripped
5 | (56/56) Accurately ripped
6 | (56/56) Accurately ripped
7 | (55/56) Accurately ripped
8 | (54/56) Accurately ripped
9 | (56/56) Accurately ripped
10 | (56/56) Accurately ripped
[AccurateRip ID: 0010cf51-0086febc-810a7d0a] found.
Track [ CRC | V2 ] Status
01 [03b1b248|7ca64c99] (17+31/48) Accurately ripped
02 [b63cfd24|32328a94] (19+32/51) Accurately ripped
03 [dd1c23c9|d4859eb4] (16+32/48) Accurately ripped
04 [412a1535|b131a139] (18+33/51) Accurately ripped
05 [894066c1|20276d8a] (19+31/50) Accurately ripped
06 [6f3f5ecc|168bb8ca] (19+32/51) Accurately ripped
07 [e6e9de29|66a1c74d] (19+33/52) Accurately ripped
08 [3430ac70|4a29516a] (19+33/52) Accurately ripped
09 [07b09cc7|b2d44da6] (19+33/52) Accurately ripped
10 [84ec11b3|77c85572] (18+32/50) Accurately ripped

Track Peak [ CRC32 ] [W/O NULL] [ LOG ]
– 100,0 [F0F65532] [3CEEE2B6]
01 100,0 [0ABC6682] [2094F0F2] CRC32
02 100,0 [A23A55AB] [CCEB78E0] CRC32
03 100,0 [E44BD372] [496AE03A] CRC32
04 100,0 [3CE610FD] [25D34A6D] CRC32
05 100,0 [0DF74284] [6DB591DD] CRC32
06 100,0 [E58D83A7] [3B76ED6E] CRC32
07 100,0 [8B1F7649] [6C3B2EE0] CRC32
08 100,0 [EF154B00] [CCCDA454] CRC32
09 100,0 [515414BE] [E6A6831A] CRC32
10 100,0 [6B766432] [3BB5121E] CRC32

Thanks to simple.i

See also:
Ray Charles - The Genius Sings The Blues (1961) [MFSL, 2010]