Subcategories

Ray Manzarek - Carmina Burana (1983) [Reissue 1992]

Posted By: hill0
Ray Manzarek - Carmina Burana (1983) [Reissue 1992]

Ray Manzarek - Carmina Burana (1983) [Reissue 1992]
EAC Rip | FLAC (tracks & cue & log) | 241 MB | MP3 CBR 320 kbps | 94 MB | Artwork (PNG) | 170 MB | 40:07
Genre: Progressive Rock / Art Rock / Folk Rock / Medieval | Country: USA | Label: A&M Records | 394 945-2

American musician, producer, movie director, and writer. He was co-founder and the keyboardist of The Doors, from 1965 to 1973, and in The Doors of the 21st Century from 2001, who subsequently changed their name to Riders On The Storm. He died following a prolonged battle with cancer. Carmina Burana is the third solo album by Ray Manzarek released in 1983. It is a recording of Carmina Burana by Carl Orff.
Ray Manzarek - Carmina Burana (1983) [Reissue 1992]

This is a staggeringly different piece of music for those who only know the Ray Manzarek of "Light My Fire" or "L.A. Woman" fame. The 1983 collaboration with Philip Glass and Kurt Munkacsi holds many revelations. As the post-Morrison Doors splintered off into various side projects, Manzarek's notable The Golden Scarab and The Whole Thing Started With Rock & Roll Now It's Out of Control to the Krieger/Densmore schizophrenic unit known as the Butts Band, as well as guitarist Krieger's jazz-flavored solo discs, the journeymen musicians opened windows beyond the music of the Doors. Carmina Burana's power emerges from the fusion of musical forms, heralded by Manzarek's sincere approach to the project. The liner notes give an explanation of German composer Carl Orff's rediscovery in 1935 of the Medieval poems found in 1803 from 13th century "renegade monks and wandering poets." The modern-day minstrels that Manzarek and Glass are add a contemporary twist to the music Allen Lannon helped bring to America in 1954, when it was first performed on these shores in Boston. There are seven primary musicians who back the chorus, which features ten principal singers conducted by Michael Riesman. The music is intense, evocative, and highly spiritual, with Larry Anderson's drums adding something the rebels from hundreds of years ago would probably be proud of. A four-page pink booklet with Latin and English translations comes with the vinyl LP, and it's all wrapped up in an old-world-meets-new-world setting, including illustration by Hieronymus Bosch, his work previously showing up in rock & roll on Deep Purple's self-titled Tetragrammaton release, itself a pretty heady production. Ray Manzarek's Carmina Burana went out of print after its 1983 vinyl release on A&M, and the artist expressed hope in a January 2002 interview that the music would be re-released on CD. It's too good to remain in the shadows as a cult item, traded on E-Bay or fetching high prices at record shows. It was the popularity of the Doors which gave their keyboard player the opportunity to record such a beautiful and compelling work, and hopefully that significance will lead to these 16 selections finding a wider audience. As an educational tool, it is exquisite; as a listening experience, it is a tremendous addition to the Doors' library. Manzarek's own father liked it, which pleased the artist very much.
Review by Joe Viglione
Ray Manzarek - Carmina Burana (1983) [Reissue 1992]




Tracklist :

01. The Wheel of Fortune (O Fortuna) (3:06)
02. The Wounds of Fate (Fortune Plango Vulnera) (3:45)
03. The Face of Spring (Veris Leta Facies) (4:15)
04. Sunrise (Omnia Sol Temperat) (2:15)
05. Welcome (Ecce Gratum) (2:46)
06. The Dance (Tanz) (2:26)
07. Sweetest Boy (Dulcissime) (0:33)
08. If the Whole World was Mine (Were Diu Werlt Alle Min) (0:54)
09. Boiling Rage (Estuans Interius) (3:16)
10. The Roasted Swan (Olim Lacus Colueram) (2:11)
11. In The Tavern (In Taberna Quando Sumus) (2:35)
12. Love Flies Everywhere (Amor Volat Unique) (2:09)
13. A Young Girl (Stetit Puella) (2:54)
14. Come, My Beauty (Veni Veni Venias) (2:36)
15. The Lovers (Blanzifor et Helena) (1:17)
16. The Wheel of Fortune (O Fortuna) (3:08)

Exact Audio Copy V1.0 beta 1 from 15. November 2010

EAC extraction logfile from 3. May 2011, 13:53

Ray Manzarek / Carmina Burana

Used drive : PHILIPS DVDR1660P1 Adapter: 1 ID: 0

Read mode : Secure
Utilize accurate stream : Yes
Defeat audio cache : Yes
Make use of C2 pointers : No

Read offset correction : 618
Overread into Lead-In and Lead-Out : No
Fill up missing offset samples with silence : Yes
Delete leading and trailing silent blocks : No
Null samples used in CRC calculations : Yes
Used interface : Native Win32 interface for Win NT & 2000
Gap handling : Appended to previous track

Used output format : User Defined Encoder
Selected bitrate : 896 kBit/s
Quality : High
Add ID3 tag : No
Command line compressor : C:\Program Files\Exact Audio Copy\Flac\flac.exe
Additional command line options : -8 -V -T "ARTIST=%a" -T "TITLE=%t" -T "ALBUM=%g" -T "DATE=%y" -T "TRACKNUMBER=%n" -T "TOTALTRACKS=%x" -T "GENRE=%m" -T "ALBUMARTIST=%v" -T "ALBUM ARTIST=%v" -T "COMMENT=EAC Secure Mode, Test & Copy, AccurateRip, FLAC -8" %s


TOC of the extracted CD

Track | Start | Length | Start sector | End sector
––––––––––––––––––––––––––––-
1 | 0:00.32 | 3:05.70 | 32 | 13976
2 | 3:06.27 | 3:44.73 | 13977 | 30849
3 | 6:51.25 | 4:15.25 | 30850 | 49999
4 | 11:06.50 | 2:14.52 | 50000 | 60101
5 | 13:21.27 | 2:45.43 | 60102 | 72519
6 | 16:06.70 | 2:26.30 | 72520 | 83499
7 | 18:33.25 | 0:33.27 | 83500 | 86001
8 | 19:06.52 | 0:53.55 | 86002 | 90031
9 | 20:00.32 | 3:15.48 | 90032 | 104704
10 | 23:16.05 | 2:11.05 | 104705 | 114534
11 | 25:27.10 | 2:35.22 | 114535 | 126181
12 | 28:02.32 | 2:08.50 | 126182 | 135831
13 | 30:11.07 | 2:53.70 | 135832 | 148876
14 | 33:05.02 | 2:36.25 | 148877 | 160601
15 | 35:41.27 | 1:16.45 | 160602 | 166346
16 | 36:57.72 | 3:08.35 | 166347 | 180481


Track 1

Filename E:\Uploads\01 - The Wheel of Fortune (O Fortuna).wav

Pre-gap length 0:00:02.32

Peak level 89.1 %
Extraction speed 3.8 X
Track quality 99.9 %
Test CRC B07A10F3
Copy CRC B07A10F3
Accurately ripped (confidence 13) [C410B996]
Copy OK

Track 2

Filename E:\Uploads\02 - The Wounds of Fate (Fortune Plango Vulnera).wav

Peak level 89.1 %
Extraction speed 5.4 X
Track quality 100.0 %
Test CRC C9F1BE3F
Copy CRC C9F1BE3F
Accurately ripped (confidence 2) [1A0C9B85]
Copy OK

Track 3

Filename E:\Uploads\03 - The Face of Spring (Veris Leta Facies).wav

Pre-gap length 0:00:00.53

Peak level 88.1 %
Extraction speed 5.0 X
Track quality 99.9 %
Test CRC 42A06B75
Copy CRC 42A06B75
Accurately ripped (confidence 10) [E3FBDE43]
Copy OK

Track 4

Filename E:\Uploads\04 - Sunrise (Omnia Sol Temperat).wav

Peak level 21.5 %
Extraction speed 5.6 X
Track quality 100.0 %
Test CRC 7584E791
Copy CRC 7584E791
Accurately ripped (confidence 11) [9054424D]
Copy OK

Track 5

Filename E:\Uploads\05 - Welcome (Ecce Gratum).wav

Peak level 68.4 %
Extraction speed 6.2 X
Track quality 100.0 %
Test CRC 1EA85026
Copy CRC 1EA85026
Accurately ripped (confidence 2) [8A2072E7]
Copy OK

Track 6

Filename E:\Uploads\06 - The Dance (Tanz).wav

Peak level 79.4 %
Extraction speed 6.2 X
Track quality 100.0 %
Test CRC A8C97DE0
Copy CRC A8C97DE0
Accurately ripped (confidence 2) [37C0574C]
Copy OK

Track 7

Filename E:\Uploads\07 - Sweetest Boy (Dulcissime).wav

Peak level 15.9 %
Extraction speed 3.7 X
Track quality 100.0 %
Test CRC 8C6AEB86
Copy CRC 8C6AEB86
Accurately ripped (confidence 2) [69C23706]
Copy OK

Track 8

Filename E:\Uploads\08 - If the Whole World was Mine (Were Diu Werlt Alle Min).wav

Peak level 89.1 %
Extraction speed 4.7 X
Track quality 100.0 %
Test CRC C41A22B4
Copy CRC C41A22B4
Accurately ripped (confidence 2) [32574905]
Copy OK

Track 9

Filename E:\Uploads\09 - Boiling Rage (Estuans Interius).wav

Pre-gap length 0:00:02.30

Peak level 76.3 %
Extraction speed 6.9 X
Track quality 100.0 %
Test CRC 58699616
Copy CRC 58699616
Accurately ripped (confidence 2) [945FE2E0]
Copy OK

Track 10

Filename E:\Uploads\10 - The Roasted Swan (Olim Lacus Colueram).wav

Pre-gap length 0:00:00.53

Peak level 87.2 %
Extraction speed 6.6 X
Track quality 100.0 %
Test CRC 70A1EDDB
Copy CRC 70A1EDDB
Accurately ripped (confidence 2) [99744E1B]
Copy OK

Track 11

Filename E:\Uploads\11 - In The Tavern (In Taberna Quando Sumus).wav

Peak level 88.6 %
Extraction speed 7.0 X
Track quality 100.0 %
Test CRC DCF21AB8
Copy CRC DCF21AB8
Accurately ripped (confidence 2) [26DA8D2D]
Copy OK

Track 12

Filename E:\Uploads\12 - Love Flies Everywhere (Amor Volat Unique).wav

Pre-gap length 0:00:00.72

Peak level 30.2 %
Extraction speed 6.8 X
Track quality 100.0 %
Test CRC 7B0AB53E
Copy CRC 7B0AB53E
Accurately ripped (confidence 2) [92B3ACEA]
Copy OK

Track 13

Filename E:\Uploads\13 - A Young Girl (Stetit Puella).wav

Peak level 89.1 %
Extraction speed 7.5 X
Track quality 100.0 %
Test CRC F1EC7780
Copy CRC F1EC7780
Accurately ripped (confidence 2) [FE75E560]
Copy OK

Track 14

Filename E:\Uploads\14 - Come, My Beauty (Veni Veni Venias).wav

Peak level 77.2 %
Extraction speed 7.6 X
Track quality 100.0 %
Test CRC 66C612FF
Copy CRC 66C612FF
Accurately ripped (confidence 2) [C7C0FA7E]
Copy OK

Track 15

Filename E:\Uploads\15 - The Lovers (Blanzifor et Helena).wav

Peak level 75.7 %
Extraction speed 6.4 X
Track quality 100.0 %
Test CRC 5CFA14EA
Copy CRC 5CFA14EA
Accurately ripped (confidence 2) [810378D1]
Copy OK

Track 16

Filename E:\Uploads\16 - The Wheel of Fortune (O Fortuna).wav

Peak level 75.6 %
Extraction speed 8.2 X
Track quality 100.0 %
Test CRC 5312EAE4
Copy CRC 5312EAE4
Accurately ripped (confidence 2) [01FB5993]
Copy OK


All tracks accurately ripped

No errors occurred

End of status report

==== Log checksum 81F04CCB1BC2179D405E52A5757DBE08FC70FC35EF49C6F8DD6E85781A28348A ====

[CUETools log; Date: 11.08.2016 15:39:34; Version: 2.1.5]
Pregap length 00:00:32.
[CTDB TOCID: cv5AkjwLmOB06uti5RtlxUQ0t34-] found.
Track | CTDB Status
1 | (20/20) Accurately ripped
2 | (18/20) Accurately ripped
3 | (18/20) Accurately ripped
4 | (20/20) Accurately ripped
5 | (20/20) Accurately ripped
6 | (20/20) Accurately ripped
7 | (20/20) Accurately ripped
8 | (18/20) Accurately ripped
9 | (18/20) Accurately ripped
10 | (20/20) Accurately ripped
11 | (20/20) Accurately ripped
12 | (20/20) Accurately ripped
13 | (20/20) Accurately ripped
14 | (20/20) Accurately ripped
15 | (20/20) Accurately ripped
16 | (20/20) Accurately ripped
[AccurateRip ID: 0018ca01-0121235f-e3096610] found.
Track [ CRC | V2 ] Status
01 [c410b996|86ae2267] (15+13/40) Accurately ripped
02 [1a0c9b85|dffbad74] (13+14/39) Accurately ripped
03 [e3fbde43|d81ce68f] (11+13/38) Accurately ripped
04 [9054424d|dea54043] (13+13/38) Accurately ripped
05 [8a2072e7|8b3a6f8f] (11+14/37) Accurately ripped
06 [37c0574c|07c0c52c] (13+14/39) Accurately ripped
07 [69c23706|65e9e2ac] (13+14/39) Accurately ripped
08 [32574905|01814756] (13+14/39) Accurately ripped
09 [945fe2e0|d7555876] (13+14/39) Accurately ripped
10 [99744e1b|c31291ec] (13+14/39) Accurately ripped
11 [26da8d2d|b7466a5c] (13+14/39) Accurately ripped
12 [92b3acea|9871199e] (13+14/39) Accurately ripped
13 [fe75e560|645199e6] (13+14/39) Accurately ripped
14 [c7c0fa7e|7ef41c62] (13+14/39) Accurately ripped
15 [810378d1|e5bd419b] (13+14/39) Accurately ripped
16 [01fb5993|f69c28c9] (13+14/39) Accurately ripped
Offsetted by -1328:
01 [fd03e10c] (02/40) Accurately ripped
02 [89c50c89] (02/39) Accurately ripped
03 [3d03b28b] (02/38) Accurately ripped
04 [c1bd0a8b] (02/38) Accurately ripped
05 [5733673b] (02/37) Accurately ripped
06 [f9bc74b9] (02/39) Accurately ripped
07 [95cd5109] (02/39) Accurately ripped
08 [905b14dc] (02/39) Accurately ripped
09 [cb04a618] (02/39) Accurately ripped
10 [7eca013a] (02/39) Accurately ripped
11 [a3598ad1] (02/39) Accurately ripped
12 [48e4f250] (02/39) Accurately ripped
13 [91a66dc3] (02/39) Accurately ripped
14 [9ee2fffc] (02/39) Accurately ripped
15 [3cdbd3d8] (02/39) Accurately ripped
16 [1765e5f4] (02/39) Accurately ripped
Offsetted by -664:
01 [247025d5] (03/40) Accurately ripped
02 [ed1b466b] (03/39) Accurately ripped
03 [6ea2fbd2] (03/38) Accurately ripped
04 [e6a978ea] (03/38) Accurately ripped
05 [b5292775] (03/37) Accurately ripped
06 [02c0dbd0] (03/39) Accurately ripped
07 [5e6d4915] (03/39) Accurately ripped
08 [485eb64e] (03/39) Accurately ripped
09 [d81e3adc] (03/39) Accurately ripped
10 [abf859e8] (03/39) Accurately ripped
11 [41a86413] (03/39) Accurately ripped
12 [06ab5ef3] (03/39) Accurately ripped
13 [f5323411] (03/39) Accurately ripped
14 [9782b6f3] (03/39) Accurately ripped
15 [61827d24] (03/39) Accurately ripped
16 [7a20def8] (03/39) Accurately ripped
Offsetted by 546:
01 [5eaa2f97] (04/40) Accurately ripped
02 [e073ed02] (04/39) Accurately ripped
03 [5e41d2d7] (04/38) Accurately ripped
04 [bf30b66f] (04/38) Accurately ripped
05 [af12bf51] (04/37) Accurately ripped
06 [14161d06] (04/39) Accurately ripped
07 [a5fe6ff8] (04/39) Accurately ripped
08 [a283c8b7] (04/39) Accurately ripped
09 [2865d25f] (04/39) Accurately ripped
10 [891c0525] (04/39) Accurately ripped
11 [0f2dae85] (04/39) Accurately ripped
12 [3f4e45f0] (04/39) Accurately ripped
13 [c74d93f3] (04/39) Accurately ripped
14 [cc9df4ca] (04/39) Accurately ripped
15 [43605e5d] (04/39) Accurately ripped
16 [57b1d659] (04/39) Accurately ripped
Offsetted by -1989:
01 [49f1d6d9] (00/40) No match (V2 was not tested)
02 [fed250bc] (00/39) No match (V2 was not tested)
03 [4322533f] (00/38) No match (V2 was not tested)
04 [68b33803] (00/38) No match (V2 was not tested)
05 [301ba08a] (00/37) No match (V2 was not tested)
06 [839c9f4f] (00/39) No match (V2 was not tested)
07 [5ea7cd04] (00/39) No match (V2 was not tested)
08 [be34aca0] (00/39) No match (V2 was not tested)
09 [cbdc1abe] (00/39) No match (V2 was not tested)
10 [74569cbb] (00/39) No match (V2 was not tested)
11 [9e23f6ec] (00/39) No match (V2 was not tested)
12 [f93c9081] (00/39) No match (V2 was not tested)
13 [3b1d2fba] (00/39) No match (V2 was not tested)
14 [987f95af] (00/39) No match (V2 was not tested)
15 [fd165576] (00/39) No match (V2 was not tested)
16 [1e0c087c] (00/39) No match (V2 was not tested)

Track Peak [ CRC32 ] [W/O NULL] [ LOG ]
– 89,1 [2A565F58] [53DF4752]
01 89,1 [B07A10F3] [5928D25E] CRC32
02 89,1 [C9F1BE3F] [B029F72A] CRC32
03 88,1 [42A06B75] [DB615CC7] CRC32
04 21,4 [7584E791] [606B00AE] CRC32
05 68,4 [1EA85026] [5819ECFD] CRC32
06 79,4 [A8C97DE0] [C3CC3227] CRC32
07 15,9 [8C6AEB86] [389BBCF4] CRC32
08 89,1 [C41A22B4] [9714107F] CRC32
09 76,3 [58699616] [6DEB5D1A] CRC32
10 87,2 [70A1EDDB] [0FED2623] CRC32
11 88,6 [DCF21AB8] [7A1FB06D] CRC32
12 30,2 [7B0AB53E] [FB4EB6EC] CRC32
13 89,1 [F1EC7780] [F3B7C62F] CRC32
14 77,2 [66C612FF] [FBD9B880] CRC32
15 75,7 [5CFA14EA] [3FA35986] CRC32
16 75,6 [5312EAE4] [CC61CB0A] CRC32


Musicians

Ray Manzarek : Piano, Organ, Misc. keyboards
Michael Riesman: Synthesizer and Orchestrations
Larry Anderson: Drums
Ted Hall: Guitar
Doug Hodges: Bass
Adam Holzman: Synthesizer
Jack Kripl: Saxophone, Flute

Ray Manzarek - Carmina Burana (1983) [Reissue 1992]

All thanks goes to the original releaser
=====