Subcategories

Ray Parker Jr. - Greatest Hits (1982) [1992 Japan Reissue]

Posted By: jclane
Ray Parker Jr. - Greatest Hits (1982) [1992 Japan Reissue]

Ray Parker Jr. - Greatest Hits (1992)
EAC Rip | FLAC Image + Cue + Log | 235 MB | Complete Scans, 300 dpi JPEG | 13 MB
MP3 CBR @320 kbps (LAME 3.99) | Joint Stereo | 99 MB
BMG Victor Inc. Tokyo, Japan / Arista | BVCA-2028 | R&B, Funk

This ten-track compilation from Arista, released just after Ray Parker, Jr. went full-blown solo, skims from the four albums he made with Raydio (with the exception of Rock On, there are two picks from each one), throws in a pair of non-album cuts ("Bad Boy," "The People Next Door"), and oddly leads off with his first solo album's title track. While it does include the big hits ("You Can't Change That," "A Woman Needs Love (Just Like You Do)," "Jack and Jill," "That Old Song"), it's hardly definitive since it misses out on a lot of strong album-based material. Once we truly entered the CD age, a number of anthologies came around that were more in-depth (if as flawed) than this one.

Track Listing:

01. The Other Woman
02. You Can't Change That
03. Is This a Love Thing
04. A Woman Needs Love (Just Like You Do)
05. Jack and Jill
06. Bad Boy
07. Two Places at the Same Time
08. For Those Who Like to Groove
09. That Old Song
10. The People Next Door


Exact Audio Copy V0.99 prebeta 5 from 4. May 2009

Отчёт EAC об извлечении, выполненном 4. июня 2009, 11:02

Ray Parker Jr. / Greatest Hits

Дисковод: PLEXTOR CD-R PREMIUM2 Adapter: 1 ID: 0

Режим чтения : Достоверность
Использование точного потока : Да
Отключение кэша аудио : Да
Использование указателей C2 : Нет

Коррекция смещения при чтении : 30
Способность читать области Lead-in и Lead-out : Да
Заполнение пропущенных сэмплов тишиной : Да
Удаление блоков с тишиной в начале и конце : Нет
При вычислениях CRC использовались нулевые сэмплы : Да
Интерфейс : Установленный внешний ASPI-интерфейс

Выходной формат : Пользовательский кодировщик
Выбранный битрейт : 1024 kBit/s
Качество : Высокий
Добавление ID3-тэга : Нет
Утилита сжатия : C:\Program Files\Exact Audio Copy\FLAC\FLAC.EXE
Дополнительные параметры : -6 -V -T "ARTIST=%a" -T "TITLE=%t" -T "ALBUM=%g" -T "DATE=%y" -T "TRACKNUMBER=%n" -T "GENRE=%m" -T "COMMENT=%e" %s -o %d

TOC извлечённого CD

Трек | Старт | Длительность | Начальный сектор | Конечный сектор
––––––––––––––––––––––––––––––––––-
1 | 0:00.37 | 4:05.70 | 37 | 18481
2 | 4:06.32 | 3:24.67 | 18482 | 33848
3 | 7:31.24 | 4:14.50 | 33849 | 52948
4 | 11:45.74 | 4:04.63 | 52949 | 71311
5 | 15:50.62 | 4:38.00 | 71312 | 92161
6 | 20:28.62 | 4:15.50 | 92162 | 111336
7 | 24:44.37 | 3:56.42 | 111337 | 129078
8 | 28:41.04 | 4:33.45 | 129079 | 149598
9 | 33:14.49 | 4:10.70 | 149599 | 168418
10 | 37:25.44 | 4:28.68 | 168419 | 188586

Характеристики диапазона извлечения и сообщения об ошибках

Выбранный диапазон

Имя файла C:\Documents and Settings\Anatoliy\Мои документы\Ray Parker Jr. - Greatest Hits\Ray Parker Jr. - Greatest Hits.wav

Пиковый уровень 100.0 %
Качество диапазона 100.0 %
CRC копии C2724BF0
Копирование… OK

Ошибок не произошло

AccurateRip: сводка

Трек 1 нет в базе данных
Трек 2 нет в базе данных
Трек 3 нет в базе данных
Трек 4 нет в базе данных
Трек 5 нет в базе данных
Трек 6 нет в базе данных
Трек 7 нет в базе данных
Трек 8 нет в базе данных
Трек 9 нет в базе данных
Трек 10 нет в базе данных

Ни одного трека нет в базе AccurateRip

Конец отчёта


[CUETools log; Date: 17/01/2013 19:01:35; Version: 2.1.4]
Pregap length 00:00:37.
[AccurateRip ID: 000f8004-007cc509-8809d20a] found.
Track [ CRC | V2 ] Status
01 [78e4125e|cb14f630] (0+0/0) No match
02 [f412867f|37d3b688] (0+0/0) No match
03 [4a439d19|4b8eeb2f] (0+0/0) No match
04 [165cfcd1|3a285ca4] (0+0/0) No match
05 [4dbb7bd4|db3019fe] (0+0/0) No match
06 [bba10b64|b19741c7] (0+0/0) No match
07 [5f197d15|23e81048] (0+0/0) No match
08 [b85d1c5d|cd4d7ed1] (0+0/0) No match
09 [a0e8004a|e77f332a] (0+0/0) No match
10 [ff689042|ef25adb2] (0+0/0) No match
Offsetted by -66:
01 [80bdbd3c] (0/0) No match (V2 was not tested)
02 [993bce9f] (0/0) No match (V2 was not tested)
03 [02574a65] (0/0) No match (V2 was not tested)
04 [1f070621] (0/0) No match (V2 was not tested)
05 [a270f50c] (0/0) No match (V2 was not tested)
06 [af19f0f2] (0/0) No match (V2 was not tested)
07 [5910f0e1] (0/0) No match (V2 was not tested)
08 [ad6fd487] (0/0) No match (V2 was not tested)
09 [f892e6fe] (0/0) No match (V2 was not tested)
10 [22f725e6] (0/0) No match (V2 was not tested)

Track Peak [ CRC32 ] [W/O NULL]
– 100,0 [C2724BF0] [2A737EB0]
01 88,8 [73903234] [0C8557B0]
02 81,4 [AF3502C5] [EC2BB9F1]
03 87,9 [4F4DD20C] [773D2BBA]
04 89,3 [19F6E1A6] [ABC892AB]
05 83,4 [1E6AD214] [6E9CE1D1]
06 93,2 [56909832] [F0A693F0]
07 83,6 [5855565A] [E45718AF]
08 91,2 [5B953030] [B32E7DB6]
09 85,3 [BC8EF0AB] [E617CF7B]
10 100,0 [7070E4AF] [509C5C55]


Original Released Date: 1982
CD Released Date: 1992 by BMG Victor Inc. Tokyo, Japan
Format: CD, Compilation
Length: 41:54

Ray Parker Jr. - Greatest Hits (1982) [1992 Japan Reissue]
Ray Parker Jr. - Greatest Hits (1982) [1992 Japan Reissue]

******************************************************

CD Rip by anatolij51

The files are interchangeable!