Tags
Language
Tags

Reba McEntire - 50 Greatest Hits (2008)

Posted By: Rtax
Reba McEntire - 50 Greatest Hits (2008)

Reba McEntire - 50 Greatest Hits (2008)
EAC Rip | FLAC (tracks, cue, log, scans) - 1.2 GB | MP3 CBR 320 kbps - 566 MB
3:03:50 | Folk, Country | Label: MCA Nashville

It was 1984 when Reba left Mercury for MCA-it was also the year her career took off as she won the creative control she'd been seeking. Of these 50 hits, 46 were Top 10s: her #1s How Blue; Somebody Should Leave; Little Rock; Whoever's in New England; One Promise Too Late; Love Will Find Its Way to You; Cathy's Clown; You Lie; For My Broken Heart; Is There Life Out There , and more, including duets with Vince Gill, Brooks & Dunn, Kelly Clarkson and Linda Davis!

Tracklist
CD1
01 How Blue
02 Someone Should Leave
03 Have I Got A Deal For You
04 Only In My Mind
05 Whoever's In New England
06 Little Rock
07 What Am I Gonna Do About You
08 Let The Music Lift You Up
09 One Promise Too Late
10 The Last One To Know
11 Love Will Find Its Way To You
12 Sunday Kind Of Love
13 I Know How He Feels
14 New Fool At An Old Game
15 Cathy's Clown
16 'Til Love Comes Around
17 Walk On

CD2
01 You Lie
02 Rumor Has It
03 Fancy
04 Fallin' Out Of Love
05 For My Broken Heart
06 Is There Life Out There
07 The Night The Lights Went Out In Georgia
08 The Greatest Man I Never Knew
09 Take It Back
10 The Heart Won't Lie
11 It's Your Call
12 Does He Love You
13 Why Haven't I Heard From You
14 She Thinks His Name Was John
15 'Till You Love Me
16 The Heart Is A Lonely Hunter
17 And Still

CD3
01 Ring On Her Finger, Time On Her Hands
02 Starting Over Again
03 The Fear Of Being Alone
04 How Was I To Know
05 I'd Rather Ride Around With You
06 What If It's You
07 If You See Him, If You See Her (with Brooks & Dunn)
08 Forever Love
09 Wrong Night
10 One Honest Heart
11 What Do You Say
12 I'll Be
13 I'm A Survivor
14 Someone
15 He Gets That From Me
16 Because Of You (with Kelly Clarkson)
Exact Audio Copy V1.0 beta 3 from 29. August 2011

EAC extraction logfile from 10. March 2013, 6:31

Reba McEntire / Reba - 50 Greatest Hits (CD 1)

Used drive : TSSTcorpCDDVDW SH-222AB Adapter: 2 ID: 1

Read mode : Secure
Utilize accurate stream : Yes
Defeat audio cache : No
Make use of C2 pointers : No

Read offset correction : 6
Overread into Lead-In and Lead-Out : No
Fill up missing offset samples with silence : Yes
Delete leading and trailing silent blocks : No
Null samples used in CRC calculations : Yes
Used interface : Native Win32 interface for Win NT & 2000
Gap handling : Not detected, thus appended to previous track

Used output format : Internal WAV Routines
Sample format : 44.100 Hz; 16 Bit; Stereo


TOC of the extracted CD

Track | Start | Length | Start sector | End sector
––––––––––––––––––––––––––––-
1 | 0:00.00 | 2:43.06 | 0 | 12230
2 | 2:43.06 | 3:33.63 | 12231 | 28268
3 | 6:16.69 | 2:47.00 | 28269 | 40793
4 | 9:03.69 | 3:40.60 | 40794 | 57353
5 | 12:44.54 | 3:24.15 | 57354 | 72668
6 | 16:08.69 | 3:08.20 | 72669 | 86788
7 | 19:17.14 | 3:30.29 | 86789 | 102567
8 | 22:47.43 | 4:26.51 | 102568 | 122568
9 | 27:14.19 | 3:28.21 | 122569 | 138189
10 | 30:42.40 | 3:17.25 | 138190 | 152989
11 | 33:59.65 | 3:38.22 | 152990 | 169361
12 | 37:38.12 | 3:04.16 | 169362 | 183177
13 | 40:42.28 | 3:19.17 | 183178 | 198119
14 | 44:01.45 | 3:49.09 | 198120 | 215303
15 | 47:50.54 | 3:02.43 | 215304 | 228996
16 | 50:53.22 | 3:43.52 | 228997 | 245773
17 | 54:36.74 | 3:14.44 | 245774 | 260367


Track 1

Filename C:\Users\Test_Station\Music\01 How Blue.wav

Peak level 99.9 %
Extraction speed 2.8 X
Track quality 100.0 %
Test CRC BF6EA71D
Copy CRC BF6EA71D
Cannot be verified as accurate (confidence 12) [AAAAE85F], AccurateRip returned [91900910] (AR v2)
Copy OK

Track 2

Filename C:\Users\Test_Station\Music\02 Someone Should Leave.wav

Peak level 99.9 %
Extraction speed 3.2 X
Track quality 100.0 %
Test CRC 6D37CB6B
Copy CRC 6D37CB6B
Cannot be verified as accurate (confidence 12) [5B0AD8C7], AccurateRip returned [B0E42A20] (AR v2)
Copy OK

Track 3

Filename C:\Users\Test_Station\Music\03 Have I Got A Deal For You.wav

Peak level 99.9 %
Extraction speed 3.2 X
Track quality 99.9 %
Test CRC 8B793F5D
Copy CRC 8B793F5D
Cannot be verified as accurate (confidence 12) [CE71236C], AccurateRip returned [ED6B5B65] (AR v2)
Copy OK

Track 4

Filename C:\Users\Test_Station\Music\04 Only In My Mind.wav

Peak level 99.9 %
Extraction speed 3.6 X
Track quality 100.0 %
Test CRC A75DE1D9
Copy CRC A75DE1D9
Cannot be verified as accurate (confidence 12) [28C5CE54], AccurateRip returned [20ACB043] (AR v2)
Copy OK

Track 5

Filename C:\Users\Test_Station\Music\05 Whoever's In New England.wav

Peak level 99.9 %
Extraction speed 3.7 X
Track quality 99.9 %
Test CRC DE605D3D
Copy CRC DE605D3D
Cannot be verified as accurate (confidence 13) [B3440099], AccurateRip returned [9EE87108] (AR v2)
Copy OK

Track 6

Filename C:\Users\Test_Station\Music\06 Little Rock.wav

Peak level 99.9 %
Extraction speed 4.0 X
Track quality 100.0 %
Test CRC 7E131FD7
Copy CRC 7E131FD7
Cannot be verified as accurate (confidence 13) [E6E5672C], AccurateRip returned [DC7E9CF3] (AR v2)
Copy OK

Track 7

Filename C:\Users\Test_Station\Music\07 What Am I Gonna Do About You.wav

Peak level 99.9 %
Extraction speed 4.2 X
Track quality 100.0 %
Test CRC 76412621
Copy CRC 76412621
Cannot be verified as accurate (confidence 13) [83AD0118], AccurateRip returned [2084095A] (AR v2)
Copy OK

Track 8

Filename C:\Users\Test_Station\Music\08 Let The Music Lift You Up.wav

Peak level 99.9 %
Extraction speed 4.5 X
Track quality 100.0 %
Test CRC B4A755C9
Copy CRC B4A755C9
Cannot be verified as accurate (confidence 12) [94D73735], AccurateRip returned [982EFA72] (AR v2)
Copy OK

Track 9

Filename C:\Users\Test_Station\Music\09 One Promise Too Late.wav

Peak level 99.9 %
Extraction speed 4.7 X
Track quality 100.0 %
Test CRC C7D911C7
Copy CRC C7D911C7
Cannot be verified as accurate (confidence 13) [79A31FB0], AccurateRip returned [846BFD6A] (AR v2)
Copy OK

Track 10

Filename C:\Users\Test_Station\Music\10 The Last One To Know.wav

Peak level 99.9 %
Extraction speed 4.9 X
Track quality 100.0 %
Test CRC 40CC9E84
Copy CRC 40CC9E84
Cannot be verified as accurate (confidence 12) [6B4D815F], AccurateRip returned [D7C71812] (AR v2)
Copy OK

Track 11

Filename C:\Users\Test_Station\Music\11 Love Will Find Its Way To You.wav

Peak level 99.9 %
Extraction speed 5.0 X
Track quality 100.0 %
Test CRC 41D22E3C
Copy CRC 41D22E3C
Cannot be verified as accurate (confidence 13) [64832D36], AccurateRip returned [84487199] (AR v2)
Copy OK

Track 12

Filename C:\Users\Test_Station\Music\12 Sunday Kind Of Love.wav

Peak level 98.0 %
Extraction speed 5.2 X
Track quality 100.0 %
Test CRC 63232F89
Copy CRC 63232F89
Cannot be verified as accurate (confidence 12) [7DC5AB63], AccurateRip returned [D4D16151] (AR v2)
Copy OK

Track 13

Filename C:\Users\Test_Station\Music\13 I Know How He Feels.wav

Peak level 98.1 %
Extraction speed 5.4 X
Track quality 100.0 %
Test CRC F6CE49DB
Copy CRC F6CE49DB
Cannot be verified as accurate (confidence 12) [86D850C1], AccurateRip returned [F5960730] (AR v2)
Copy OK

Track 14

Filename C:\Users\Test_Station\Music\14 New Fool At An Old Game.wav

Peak level 98.2 %
Extraction speed 5.5 X
Track quality 100.0 %
Test CRC B601EDB7
Copy CRC B601EDB7
Cannot be verified as accurate (confidence 12) [2E5A894C], AccurateRip returned [FD9119FE] (AR v2)
Copy OK

Track 15

Filename C:\Users\Test_Station\Music\15 Cathy's Clown.wav

Peak level 96.8 %
Extraction speed 5.3 X
Track quality 99.9 %
Test CRC EA1C5693
Copy CRC EA1C5693
Cannot be verified as accurate (confidence 13) [CD75E7C9], AccurateRip returned [1F1051DC] (AR v2)
Copy OK

Track 16

Filename C:\Users\Test_Station\Music\16 'Til Love Comes Around.wav

Peak level 95.2 %
Extraction speed 5.8 X
Track quality 100.0 %
Test CRC 94F3FAF0
Copy CRC 94F3FAF0
Cannot be verified as accurate (confidence 12) [6DC04EE8], AccurateRip returned [12B23BA9] (AR v2)
Copy OK

Track 17

Filename C:\Users\Test_Station\Music\17 Walk On.wav

Peak level 98.3 %
Extraction speed 5.9 X
Track quality 100.0 %
Test CRC 18483041
Copy CRC 18483041
Cannot be verified as accurate (confidence 13) [629F005F], AccurateRip returned [A21E7FB5] (AR v2)
Copy OK


No tracks could be verified as accurate
You may have a different pressing from the one(s) in the database

No errors occurred

End of status report

==== Log checksum C45B16CAA4197777FF13FBB10B7F61417CE8B69CA447AB3511BA75C4ED584F31 ====


Exact Audio Copy V1.0 beta 3 from 29. August 2011

EAC extraction logfile from 10. March 2013, 7:09

Reba McEntire / Reba - 50 Greatest Hits (CD 2)

Used drive : TSSTcorpCDDVDW SH-222AB Adapter: 2 ID: 1

Read mode : Secure
Utilize accurate stream : Yes
Defeat audio cache : No
Make use of C2 pointers : No

Read offset correction : 6
Overread into Lead-In and Lead-Out : No
Fill up missing offset samples with silence : Yes
Delete leading and trailing silent blocks : No
Null samples used in CRC calculations : Yes
Used interface : Native Win32 interface for Win NT & 2000
Gap handling : Not detected, thus appended to previous track

Used output format : Internal WAV Routines
Sample format : 44.100 Hz; 16 Bit; Stereo


TOC of the extracted CD

Track | Start | Length | Start sector | End sector
––––––––––––––––––––––––––––-
1 | 0:00.00 | 3:59.42 | 0 | 17966
2 | 3:59.42 | 3:48.32 | 17967 | 35098
3 | 7:47.74 | 4:56.71 | 35099 | 57369
4 | 12:44.70 | 4:35.13 | 57370 | 78007
5 | 17:20.08 | 4:19.05 | 78008 | 97437
6 | 21:39.13 | 3:53.31 | 97438 | 114943
7 | 25:32.44 | 4:16.45 | 114944 | 134188
8 | 29:49.14 | 3:14.66 | 134189 | 148804
9 | 33:04.05 | 3:17.33 | 148805 | 163612
10 | 36:21.38 | 3:22.39 | 163613 | 178801
11 | 39:44.02 | 3:10.18 | 178802 | 193069
12 | 42:54.20 | 4:20.22 | 193070 | 212591
13 | 47:14.42 | 3:28.39 | 212592 | 228230
14 | 50:43.06 | 4:21.13 | 228231 | 247818
15 | 55:04.19 | 3:51.14 | 247819 | 265157
16 | 58:55.33 | 3:51.71 | 265158 | 282553
17 | 62:47.29 | 3:28.53 | 282554 | 298206


Track 1

Filename C:\Users\Test_Station\Music\01 You Lie.wav

Peak level 99.9 %
Extraction speed 2.9 X
Track quality 100.0 %
Test CRC E36B728B
Copy CRC E36B728B
Cannot be verified as accurate (confidence 13) [D39B0E1E], AccurateRip returned [5425E661] (AR v2)
Copy OK

Track 2

Filename C:\Users\Test_Station\Music\02 Rumor Has It.wav

Peak level 99.9 %
Extraction speed 3.2 X
Track quality 99.9 %
Test CRC 8C67868B
Copy CRC 8C67868B
Cannot be verified as accurate (confidence 13) [281ABD31], AccurateRip returned [C98B72E5] (AR v2)
Copy OK

Track 3

Filename C:\Users\Test_Station\Music\03 Fancy.wav

Peak level 99.9 %
Extraction speed 3.6 X
Track quality 100.0 %
Test CRC D4CAE43C
Copy CRC D4CAE43C
Cannot be verified as accurate (confidence 13) [B9F8F553], AccurateRip returned [C2BF4A52] (AR v2)
Copy OK

Track 4

Filename C:\Users\Test_Station\Music\04 Fallin' Out Of Love.wav

Peak level 99.9 %
Extraction speed 3.9 X
Track quality 100.0 %
Test CRC CF382557
Copy CRC CF382557
Cannot be verified as accurate (confidence 13) [F3CB9C86], AccurateRip returned [E241CBBE] (AR v2)
Copy OK

Track 5

Filename C:\Users\Test_Station\Music\05 For My Broken Heart.wav

Peak level 99.9 %
Extraction speed 4.2 X
Track quality 100.0 %
Test CRC AC42CDC4
Copy CRC AC42CDC4
Cannot be verified as accurate (confidence 13) [77031C02], AccurateRip returned [83F032FE] (AR v2)
Copy OK

Track 6

Filename C:\Users\Test_Station\Music\06 Is There Life Out There.wav

Peak level 99.9 %
Extraction speed 4.4 X
Track quality 100.0 %
Test CRC F0602AE2
Copy CRC F0602AE2
Cannot be verified as accurate (confidence 13) [81165754], AccurateRip returned [48F6AC71] (AR v2)
Copy OK

Track 7

Filename C:\Users\Test_Station\Music\07 The Night The Lights Went Out In Georgia.wav

Peak level 99.9 %
Extraction speed 4.5 X
Track quality 99.9 %
Test CRC 17D06AED
Copy CRC 17D06AED
Cannot be verified as accurate (confidence 13) [9899AFB0], AccurateRip returned [AD3E7B98] (AR v2)
Copy OK

Track 8

Filename C:\Users\Test_Station\Music\08 The Greatest Man I Never Knew.wav

Peak level 99.9 %
Extraction speed 4.5 X
Track quality 99.9 %
Test CRC 25B6271C
Copy CRC 25B6271C
Cannot be verified as accurate (confidence 13) [2360B42F], AccurateRip returned [7D8DF1AB] (AR v2)
Copy OK

Track 9

Filename C:\Users\Test_Station\Music\09 Take It Back.wav

Peak level 93.6 %
Extraction speed 4.9 X
Track quality 100.0 %
Test CRC F616BEBB
Copy CRC F616BEBB
Cannot be verified as accurate (confidence 12) [1ED07F8D], AccurateRip returned [699F1958] (AR v2)
Copy OK

Track 10

Filename C:\Users\Test_Station\Music\10 The Heart Won't Lie.wav

Peak level 98.4 %
Extraction speed 4.9 X
Track quality 99.9 %
Test CRC 1DB6761A
Copy CRC 1DB6761A
Cannot be verified as accurate (confidence 13) [08DF3844], AccurateRip returned [82C6F255] (AR v2)
Copy OK

Track 11

Filename C:\Users\Test_Station\Music\11 It's Your Call.wav

Peak level 96.0 %
Extraction speed 5.0 X
Track quality 99.9 %
Test CRC 1C026CA4
Copy CRC 1C026CA4
Cannot be verified as accurate (confidence 13) [47CEE1A6], AccurateRip returned [9C7B4C6D] (AR v2)
Copy OK

Track 12

Filename C:\Users\Test_Station\Music\12 Does He Love You.wav

Peak level 98.8 %
Extraction speed 5.2 X
Track quality 99.9 %
Test CRC FF7BE19B
Copy CRC FF7BE19B
Cannot be verified as accurate (confidence 13) [0DB6AAA6], AccurateRip returned [B58B83E4] (AR v2)
Copy OK

Track 13

Filename C:\Users\Test_Station\Music\13 Why Haven't I Heard From You.wav

Peak level 97.0 %
Extraction speed 5.6 X
Track quality 100.0 %
Test CRC 83501757
Copy CRC 83501757
Cannot be verified as accurate (confidence 12) [7825CFED], AccurateRip returned [ECCC0A40] (AR v2)
Copy OK

Track 14

Filename C:\Users\Test_Station\Music\14 She Thinks His Name Was John.wav

Peak level 92.3 %
Extraction speed 5.7 X
Track quality 100.0 %
Test CRC 27B243C6
Copy CRC 27B243C6
Cannot be verified as accurate (confidence 12) [12D7D9B1], AccurateRip returned [60395344] (AR v2)
Copy OK

Track 15

Filename C:\Users\Test_Station\Music\15 Till You Love Me.wav

Peak level 96.9 %
Extraction speed 5.9 X
Track quality 100.0 %
Test CRC EA3E9623
Copy CRC EA3E9623
Cannot be verified as accurate (confidence 12) [A8A05ED6], AccurateRip returned [10478A3E] (AR v2)
Copy OK

Track 16

Filename C:\Users\Test_Station\Music\16 The Heart Is A Lonely Hunter.wav

Peak level 89.2 %
Extraction speed 6.0 X
Track quality 100.0 %
Test CRC F70CB693
Copy CRC F70CB693
Cannot be verified as accurate (confidence 12) [09DAF4BE], AccurateRip returned [4C924F16] (AR v2)
Copy OK

Track 17

Filename C:\Users\Test_Station\Music\17 And Still.wav

Peak level 98.6 %
Extraction speed 6.1 X
Track quality 100.0 %
Test CRC 245B1768
Copy CRC 245B1768
Cannot be verified as accurate (confidence 12) [507A3656], AccurateRip returned [F2C4FDD1] (AR v2)
Copy OK


No tracks could be verified as accurate
You may have a different pressing from the one(s) in the database

No errors occurred

End of status report

==== Log checksum 5677E59F240BF3573504DECB0729BE1C87E21D0FAC17EF8C4701614DFFF1A819 ====


Exact Audio Copy V1.0 beta 3 from 29. August 2011

EAC extraction logfile from 10. March 2013, 8:00

Reba McEntire / Reba: 50 Greatest Hits [Disc 3]

Used drive : TSSTcorpCDDVDW SH-222AB Adapter: 2 ID: 1

Read mode : Secure
Utilize accurate stream : Yes
Defeat audio cache : No
Make use of C2 pointers : No

Read offset correction : 6
Overread into Lead-In and Lead-Out : No
Fill up missing offset samples with silence : Yes
Delete leading and trailing silent blocks : No
Null samples used in CRC calculations : Yes
Used interface : Native Win32 interface for Win NT & 2000
Gap handling : Not detected, thus appended to previous track

Used output format : Internal WAV Routines
Sample format : 44.100 Hz; 16 Bit; Stereo


TOC of the extracted CD

Track | Start | Length | Start sector | End sector
––––––––––––––––––––––––––––-
1 | 0:00.00 | 4:14.29 | 0 | 19078
2 | 4:14.29 | 4:11.47 | 19079 | 37950
3 | 8:26.01 | 3:03.17 | 37951 | 51692
4 | 11:29.18 | 3:40.63 | 51693 | 68255
5 | 15:10.06 | 3:29.14 | 68256 | 83944
6 | 18:39.20 | 4:07.15 | 83945 | 102484
7 | 22:46.35 | 3:56.50 | 102485 | 120234
8 | 26:43.10 | 3:53.08 | 120235 | 137717
9 | 30:36.18 | 2:51.61 | 137718 | 150603
10 | 33:28.04 | 3:54.69 | 150604 | 168222
11 | 37:22.73 | 3:29.56 | 168223 | 183953
12 | 40:52.54 | 4:28.20 | 183954 | 204073
13 | 45:20.74 | 3:06.36 | 204074 | 218059
14 | 48:27.35 | 3:51.14 | 218060 | 235398
15 | 52:18.49 | 3:38.66 | 235399 | 251814
16 | 55:57.40 | 3:43.48 | 251815 | 268587


Track 1

Filename C:\Users\Test_Station\Music\01 Ring On Her Finger, Time On Her Hands.wav

Peak level 98.4 %
Extraction speed 2.9 X
Track quality 100.0 %
Test CRC 36072FEA
Copy CRC 36072FEA
Cannot be verified as accurate (confidence 14) [C9C21D14], AccurateRip returned [E35A647D] (AR v2)
Copy OK

Track 2

Filename C:\Users\Test_Station\Music\02 Starting Over Again.wav

Peak level 99.9 %
Extraction speed 3.2 X
Track quality 99.9 %
Test CRC B39FF87D
Copy CRC B39FF87D
Cannot be verified as accurate (confidence 13) [6BD072B4], AccurateRip returned [7B68C94D] (AR v2)
Copy OK

Track 3

Filename C:\Users\Test_Station\Music\03 The Fear Of Being Alone.wav

Peak level 92.2 %
Extraction speed 3.4 X
Track quality 99.9 %
Test CRC 0A20807B
Copy CRC 0A20807B
Cannot be verified as accurate (confidence 14) [5C7674F5], AccurateRip returned [1B6C7F18] (AR v2)
Copy OK

Track 4

Filename C:\Users\Test_Station\Music\04 How Was I To Know.wav

Peak level 93.2 %
Extraction speed 3.8 X
Track quality 100.0 %
Test CRC 24A06232
Copy CRC 24A06232
Cannot be verified as accurate (confidence 14) [876D0C60], AccurateRip returned [DFB7BEDD] (AR v2)
Copy OK

Track 5

Filename C:\Users\Test_Station\Music\05 I'd Rather Ride Around With You.wav

Peak level 87.9 %
Extraction speed 4.0 X
Track quality 100.0 %
Test CRC B77C3B82
Copy CRC B77C3B82
Cannot be verified as accurate (confidence 13) [2961285B], AccurateRip returned [D92490AD] (AR v2)
Copy OK

Track 6

Filename C:\Users\Test_Station\Music\06 What If It's You.wav

Peak level 97.0 %
Extraction speed 4.2 X
Track quality 100.0 %
Test CRC D740A2FD
Copy CRC D740A2FD
Cannot be verified as accurate (confidence 13) [7ED5BD58], AccurateRip returned [E656793F] (AR v2)
Copy OK

Track 7

Filename C:\Users\Test_Station\Music\07 If You See Him, If You See Her (with Brooks & Dunn).wav

Peak level 98.3 %
Extraction speed 4.5 X
Track quality 100.0 %
Test CRC 9D126BBA
Copy CRC 9D126BBA
Cannot be verified as accurate (confidence 14) [F858B833], AccurateRip returned [957DD46C] (AR v2)
Copy OK

Track 8

Filename C:\Users\Test_Station\Music\08 Forever Love.wav

Peak level 98.9 %
Extraction speed 4.7 X
Track quality 100.0 %
Test CRC 1C34FDC9
Copy CRC 1C34FDC9
Cannot be verified as accurate (confidence 13) [269E546E], AccurateRip returned [2F5B0395] (AR v2)
Copy OK

Track 9

Filename C:\Users\Test_Station\Music\09 Wrong Night.wav

Peak level 90.3 %
Extraction speed 4.8 X
Track quality 100.0 %
Test CRC 2F6E73D3
Copy CRC 2F6E73D3
Cannot be verified as accurate (confidence 13) [1D31EF09], AccurateRip returned [088467B6] (AR v2)
Copy OK

Track 10

Filename C:\Users\Test_Station\Music\10 One Honest Heart.wav

Peak level 90.0 %
Extraction speed 5.0 X
Track quality 100.0 %
Test CRC F550E492
Copy CRC F550E492
Cannot be verified as accurate (confidence 13) [05D9E5A7], AccurateRip returned [80D912EC] (AR v2)
Copy OK

Track 11

Filename C:\Users\Test_Station\Music\11 What Do You Say.wav

Peak level 99.9 %
Extraction speed 5.2 X
Track quality 100.0 %
Test CRC AA64BC6F
Copy CRC AA64BC6F
Cannot be verified as accurate (confidence 14) [89A8B130], AccurateRip returned [A0F02E4D] (AR v2)
Copy OK

Track 12

Filename C:\Users\Test_Station\Music\12 I'll Be.wav

Peak level 97.3 %
Extraction speed 5.2 X
Track quality 99.9 %
Test CRC 42A73A8B
Copy CRC 42A73A8B
Cannot be verified as accurate (confidence 11) [47CAB9C6], AccurateRip returned [9E3CD583] (AR v2)
Copy OK

Track 13

Filename C:\Users\Test_Station\Music\13 I'm A Survivor.wav

Peak level 93.0 %
Extraction speed 5.5 X
Track quality 100.0 %
Test CRC 3317CA11
Copy CRC 3317CA11
Cannot be verified as accurate (confidence 14) [CE8859E2], AccurateRip returned [33C86BF2] (AR v2)
Copy OK

Track 14

Filename C:\Users\Test_Station\Music\14 Someone.wav

Peak level 96.3 %
Extraction speed 5.7 X
Track quality 100.0 %
Test CRC A24BF3C6
Copy CRC A24BF3C6
Cannot be verified as accurate (confidence 12) [0F00B775], AccurateRip returned [26D6F03A] (AR v2)
Copy OK

Track 15

Filename C:\Users\Test_Station\Music\15 He Gets That From Me.wav

Peak level 97.4 %
Extraction speed 5.9 X
Track quality 100.0 %
Test CRC 55DDF804
Copy CRC 55DDF804
Cannot be verified as accurate (confidence 11) [F841FC04], AccurateRip returned [EC5A67DD] (AR v2)
Copy OK

Track 16

Filename C:\Users\Test_Station\Music\16 Because Of You (with Kelly Clarkson).wav

Peak level 97.2 %
Extraction speed 6.0 X
Track quality 100.0 %
Test CRC 94E48104
Copy CRC 94E48104
Cannot be verified as accurate (confidence 12) [59C35E93], AccurateRip returned [076D4DA3] (AR v2)
Copy OK


No tracks could be verified as accurate
You may have a different pressing from the one(s) in the database

No errors occurred

End of status report

==== Log checksum C1632ED8A3966091F04FA50C3CBD98EED9E18F0985C6EB760DA6ECCCB7979DC0 ====


Reba McEntire - 50 Greatest Hits (2008)