Subcategories

Rebekka Karijord - Mother Tongue (2017)

Posted By: Pisulik
Rebekka Karijord - Mother Tongue (2017)

Rebekka Karijord - Mother Tongue (2017)
EAC Rip | FLAC (Tracks) +cue, log, m3u, covers - 229 MB | MP3 CBR 320 kbps - 110 MB | 00:46:19
Indie Pop | Label: Control Freak Kitten Records

Quite often, important and vivid art is derived from trauma of one kind or another, and the end product is the result of processing exactly what, why and how things happened. The clue here is in the album title, as Norwegian songwriter, soundtrack composer, playwright and short-story writer Rebekka Karijord documents the premature birth (at six months) of her first child. Veering between blissfully upbeat (The Orbit), seriously poppy (Your Name), purposefully experimental (I Will Follow You into the Wild is incomprehensible to all but Karijord, surely), delicately folksy (Six Careful Hands) and almost religious (Mausoleum), Mother Tongue showcases an artist whose creative expressiveness is in keeping with her instinctive role as a sensible communicator.

TRACKLIST

01. Morula
02. Waimanalo
03. I Will Follow You Into The Wild
04. The Orbit
05. Your Name
06. Six Careful Hands
07. Home
08. Stones
09. Statistics
10. Mother Tongue
11. Mausoleum

Exact Audio Copy V1.3 from 2. September 2016

EAC extraction logfile from 26. September 2017, 9:44

Rebekka Karijord / Mother Tongue

Used drive : hp CDDVDW TS-L633N Adapter: 1 ID: 0

Read mode : Secure
Utilize accurate stream : Yes
Defeat audio cache : Yes
Make use of C2 pointers : No

Read offset correction : 6
Overread into Lead-In and Lead-Out : No
Fill up missing offset samples with silence : Yes
Delete leading and trailing silent blocks : No
Null samples used in CRC calculations : Yes
Used interface : Native Win32 interface for Win NT & 2000
Gap handling : Appended to previous track

Used output format : User Defined Encoder
Selected bitrate : 1024 kBit/s
Quality : High
Add ID3 tag : No
Command line compressor : C:\Program Files (x86)\Exact Audio Copy\Flac\flac.exe
Additional command line options : -8 -e -p -V -T "ARTIST=%artist%" -T "TITLE=%title%" -T "ALBUM=%albumtitle%" -T "DATE=%year%" -T "TRACKNUMBER=%tracknr%" -T "GENRE=%genre%" -T "PERFORMER=%albuminterpret%" -T "COMPOSER=%composer%" %haslyrics%–tag-from-file=LYRICS="%lyricsfile%"%haslyrics% -T "ALBUMARTIST=%albumartist%" -T "DISCNUMBER=%cdnumber%" -T "TOTALDISCS=%totalcds%" -T "TOTALTRACKS=%numtracks%" -T "COMMENT=%comment%" %source% -o %dest%


TOC of the extracted CD

Track | Start | Length | Start sector | End sector
––––––––––––––––––––––––––––-
1 | 0:00.00 | 5:10.01 | 0 | 23250
2 | 5:10.01 | 5:28.48 | 23251 | 47898
3 | 10:38.49 | 1:23.50 | 47899 | 54173
4 | 12:02.24 | 3:29.72 | 54174 | 69920
5 | 15:32.21 | 5:01.73 | 69921 | 92568
6 | 20:34.19 | 2:59.42 | 92569 | 106035
7 | 23:33.61 | 5:03.42 | 106036 | 128802
8 | 28:37.28 | 4:06.63 | 128803 | 147315
9 | 32:44.16 | 4:42.08 | 147316 | 168473
10 | 37:26.24 | 5:53.51 | 168474 | 194999
11 | 43:20.00 | 3:05.42 | 195000 | 208916


Track 1

Filename D:\EAC RIPS HP - RED\Rebekka Karijord - 2017 - Mother Tongue [FLAC] {Control Freak Kitten Records - CFK031 - 5055869543910}\01 - Morula.wav

Pre-gap length 0:00:02.00

Peak level 94.4 %
Extraction speed 2.7 X
Track quality 100.0 %
Test CRC 034A5044
Copy CRC 034A5044
Accurately ripped (confidence 2) [FD86BA16] (AR v2)
Copy OK

Track 2

Filename D:\EAC RIPS HP - RED\Rebekka Karijord - 2017 - Mother Tongue [FLAC] {Control Freak Kitten Records - CFK031 - 5055869543910}\02 - Waimanalo.wav

Peak level 94.4 %
Extraction speed 2.6 X
Track quality 99.9 %
Test CRC 78DE9152
Copy CRC 78DE9152
Accurately ripped (confidence 2) [007869D0] (AR v2)
Copy OK

Track 3

Filename D:\EAC RIPS HP - RED\Rebekka Karijord - 2017 - Mother Tongue [FLAC] {Control Freak Kitten Records - CFK031 - 5055869543910}\03 - I Will Follow You Into the Wild.wav

Peak level 29.7 %
Extraction speed 1.7 X
Track quality 99.8 %
Test CRC C7C2929E
Copy CRC C7C2929E
Accurately ripped (confidence 2) [AEB5EF6B] (AR v2)
Copy OK

Track 4

Filename D:\EAC RIPS HP - RED\Rebekka Karijord - 2017 - Mother Tongue [FLAC] {Control Freak Kitten Records - CFK031 - 5055869543910}\04 - The Orbit.wav

Peak level 94.6 %
Extraction speed 3.2 X
Track quality 100.0 %
Test CRC 05D5240F
Copy CRC 05D5240F
Accurately ripped (confidence 2) [A2906CE1] (AR v2)
Copy OK

Track 5

Filename D:\EAC RIPS HP - RED\Rebekka Karijord - 2017 - Mother Tongue [FLAC] {Control Freak Kitten Records - CFK031 - 5055869543910}\05 - Your Name.wav

Peak level 94.4 %
Extraction speed 3.6 X
Track quality 100.0 %
Test CRC 899C2B4A
Copy CRC 899C2B4A
Accurately ripped (confidence 3) [BCDEF8D8] (AR v2)
Copy OK

Track 6

Filename D:\EAC RIPS HP - RED\Rebekka Karijord - 2017 - Mother Tongue [FLAC] {Control Freak Kitten Records - CFK031 - 5055869543910}\06 - Six Careful Hands.wav

Peak level 74.0 %
Extraction speed 3.5 X
Track quality 100.0 %
Test CRC B6F3643F
Copy CRC B6F3643F
Accurately ripped (confidence 2) [686B8B57] (AR v2)
Copy OK

Track 7

Filename D:\EAC RIPS HP - RED\Rebekka Karijord - 2017 - Mother Tongue [FLAC] {Control Freak Kitten Records - CFK031 - 5055869543910}\07 - Home.wav

Peak level 94.4 %
Extraction speed 4.0 X
Track quality 100.0 %
Test CRC BD47230A
Copy CRC BD47230A
Accurately ripped (confidence 2) [00DB352B] (AR v2)
Copy OK

Track 8

Filename D:\EAC RIPS HP - RED\Rebekka Karijord - 2017 - Mother Tongue [FLAC] {Control Freak Kitten Records - CFK031 - 5055869543910}\08 - Stones.wav

Peak level 94.4 %
Extraction speed 4.1 X
Track quality 100.0 %
Test CRC BA4287A4
Copy CRC BA4287A4
Accurately ripped (confidence 3) [64F62E88] (AR v2)
Copy OK

Track 9

Filename D:\EAC RIPS HP - RED\Rebekka Karijord - 2017 - Mother Tongue [FLAC] {Control Freak Kitten Records - CFK031 - 5055869543910}\09 - Statistics.wav

Peak level 94.4 %
Extraction speed 4.3 X
Track quality 100.0 %
Test CRC 44C5C0E7
Copy CRC 44C5C0E7
Accurately ripped (confidence 3) [CBBC7937] (AR v2)
Copy OK

Track 10

Filename D:\EAC RIPS HP - RED\Rebekka Karijord - 2017 - Mother Tongue [FLAC] {Control Freak Kitten Records - CFK031 - 5055869543910}\10 - Mother Tongue.wav

Peak level 94.4 %
Extraction speed 4.6 X
Track quality 100.0 %
Test CRC 168A1232
Copy CRC 168A1232
Accurately ripped (confidence 2) [494C9792] (AR v2)
Copy OK

Track 11

Filename D:\EAC RIPS HP - RED\Rebekka Karijord - 2017 - Mother Tongue [FLAC] {Control Freak Kitten Records - CFK031 - 5055869543910}\11 - Mausoleum.wav

Peak level 83.5 %
Extraction speed 4.4 X
Track quality 100.0 %
Test CRC 38181186
Copy CRC 38181186
Accurately ripped (confidence 3) [1D3A3A6D] (AR v2)
Copy OK


All tracks accurately ripped

No errors occurred

End of status report

–– CUETools DB Plugin V2.1.6

[CTDB TOCID: 2XI2BJWzvOjMXyDuRUHxtk3.bq4-] found
Submit result: 2XI2BJWzvOjMXyDuRUHxtk3.bq4- has been confirmed
Track | CTDB Status
1 | (4/4) Accurately ripped
2 | (4/4) Accurately ripped
3 | (4/4) Accurately ripped
4 | (4/4) Accurately ripped
5 | (4/4) Accurately ripped
6 | (4/4) Accurately ripped
7 | (4/4) Accurately ripped
8 | (4/4) Accurately ripped
9 | (4/4) Accurately ripped
10 | (4/4) Accurately ripped
11 | (4/4) Accurately ripped


==== Log checksum 8C144B545BEA2CFC3F51F12C53775A06668CBB84D16F4AB7FA1A27009AA2150E ====