Subcategories

Red Hot Chili Peppers - Mother's Milk (1989) [MFSL, UDCD 683]

Posted By: v3122
Red Hot Chili Peppers - Mother's Milk (1989) [MFSL, UDCD 683]

Red Hot Chili Peppers - Mother's Milk (1989)
EAC | Flac(Image) + Cue + Log & MP3 CBR 320Kbps
1996 | Mobile Fidelity Sound Lab, UDCD 683 | ~ 310 or 106 Mb | Scans(jpg) -> 46 Mb
Alternative Rock, Grunge, Crossover

A pivotal album for the Red Hot Chili Peppers, 1989's Mother's Milk turned the tide and transformed the band from underground funk-rocking rappers to mainstream bad boys with seemingly very little effort. Mother's Milk brought them to MTV, scored them a deal with Warner Bros., and let both frontman Anthony Kiedis and the ubiquitous Flea get back into a good groove following the death of co-founding member Hillel Slovak. With a new lineup coalescing around the remaining duo plus new drummer Chad Smith and guitarist John Frusciante, and with producer Michael Beinhorn again behind the boards, the band took everything that The Uplift Mofo Party Plan hinted at, and brought it fully to bear for this new venture. If anyone doubted the pulsating power of the opener, "Good Time Boys," it took only a few bars of band's outrageous and brilliant interpretation of the Stevie Wonder classic "Higher Ground" to prove that this new lineup was onto something special. Wrapping up with the aptly titled and truly punked-out "Punk Rock Classic" and the band's own punched-up tribute to "Magic Johnson," Mother's Milk was everything the band had hoped for, and a little more besides. Effortlessly going gold as "Knock Me Down" and "Taste the Pain" careened into the charts, the album not only set the stage for the band's Blood Sugar Sex Magic domination, it also proved that funk never died; it had just swapped skins.

by Amy Hanson, allmusic
Red Hot Chili Peppers - Mother's Milk (1989):

Red Hot Chili Peppers - Mother's Milk (1989) [MFSL, UDCD 683]

Tracklist:

01. Good Time Boys [05:01]
02. Higher Ground [03:22]
03. Subway To Venus [04:24]
04. Magic Johnson [02:57]
05. Nobody Weird Like Me [03:49]
06. Knock Me Down [03:44]
07. Taste The Pain [04:31]
08. Stone Cold Bush [03:06]
09. Fire [02:03]
10. Pretty Little Ditty [01:36]
11. Punk Rock Classic [01:46]
12. Sexy Mexican Maid [03:23]
13. Johnny, Kick A Hole In The Sky [05:12]

Exact Audio Copy V0.99 prebeta 5 from 4. May 2009

EAC extraction logfile from 12. December 2013, 9:19

RED HOT CHILI PEPPERS / Mother's Milk ( UDCD 683 )

Used drive : ASUS DRW-24B3ST Adapter: 5 ID: 0

Read mode : Secure
Utilize accurate stream : Yes
Defeat audio cache : Yes
Make use of C2 pointers : No

Read offset correction : 6
Overread into Lead-In and Lead-Out : No
Fill up missing offset samples with silence : Yes
Delete leading and trailing silent blocks : No
Null samples used in CRC calculations : Yes
Used interface : Native Win32 interface for Win NT & 2000

Used output format : User Defined Encoder
Selected bitrate : 1024 kBit/s
Quality : High
Add ID3 tag : No
Command line compressor : C:\Program Files (x86)\EAC\WV\wavpack.exe
Additional command line options : -h -hh -m %s %d


TOC of the extracted CD

Track | Start | Length | Start sector | End sector
––––––––––––––––––––––––––––-
1 | 0:00.00 | 5:01.60 | 0 | 22634
2 | 5:01.60 | 3:22.72 | 22635 | 37856
3 | 8:24.57 | 4:24.53 | 37857 | 57709
4 | 12:49.35 | 2:57.15 | 57710 | 70999
5 | 15:46.50 | 3:49.60 | 71000 | 88234
6 | 19:36.35 | 3:44.55 | 88235 | 105089
7 | 23:21.15 | 4:31.37 | 105090 | 125451
8 | 27:52.52 | 3:06.13 | 125452 | 139414
9 | 30:58.65 | 2:03.22 | 139415 | 148661
10 | 33:02.12 | 1:36.40 | 148662 | 155901
11 | 34:38.52 | 1:46.50 | 155902 | 163901
12 | 36:25.27 | 3:23.03 | 163902 | 179129
13 | 39:48.30 | 5:12.00 | 179130 | 202529


Range status and errors

Selected range

Filename G:\{MFSL}\RED HOT CHILI PEPPERS © 1989- Mother's Milk (US 1996 MFSL • UDCD 683)\RED HOT CHILI PEPPERS - Mother's Milk ( UDCD 683 ).wav

Peak level 98.1 %
Range quality 100.0 %
Test CRC 857823B5
Copy CRC 857823B5
Copy OK

No errors occurred


AccurateRip summary

Track 1 accurately ripped (confidence 19) [1AD6ED5C]
Track 2 accurately ripped (confidence 22) [521F0FDE]
Track 3 accurately ripped (confidence 20) [FE54945C]
Track 4 accurately ripped (confidence 21) [87ACC8EA]
Track 5 accurately ripped (confidence 20) [F7E8BFC5]
Track 6 accurately ripped (confidence 22) [91031B56]
Track 7 accurately ripped (confidence 21) [DC8CEBF4]
Track 8 accurately ripped (confidence 20) [BC1F2137]
Track 9 accurately ripped (confidence 21) [455C9434]
Track 10 accurately ripped (confidence 23) [06B4B6F9]
Track 11 accurately ripped (confidence 20) [F530A1E3]
Track 12 accurately ripped (confidence 20) [A03B6D9A]
Track 13 accurately ripped (confidence 20) [61106D84]

All tracks accurately ripped

End of status report

foobar2000 1.2.9 / Dynamic Range Meter 1.1.1
log date: 2016-12-04 00:51:01

––––––––––––––––––––––––––––––––––––––––
Analyzed: RED HOT CHILI PEPPERS / Mother's Milk ( UDCD 683 )
––––––––––––––––––––––––––––––––––––––––

DR Peak RMS Duration Track
––––––––––––––––––––––––––––––––––––––––
DR12 -0.17 dB -13.81 dB 5:02 01-Good Time Boys
DR13 -0.43 dB -14.42 dB 3:23 02-Higher Ground
DR12 -0.42 dB -15.02 dB 4:25 03-Subway To Venus
DR12 -0.48 dB -14.44 dB 2:57 04-Magic Johnson
DR11 -0.26 dB -14.24 dB 3:50 05-Nobody Weird Like Me
DR12 -0.71 dB -14.55 dB 3:45 06-Knock Me Down
DR12 -0.82 dB -15.60 dB 4:31 07-Taste The Pain
DR12 -0.35 dB -14.31 dB 3:06 08-Stone Cold Bush
DR10 -0.35 dB -11.62 dB 2:03 09-Fire
DR10 -4.66 dB -16.92 dB 1:37 10-Pretty Little Ditty
DR11 -0.25 dB -13.30 dB 1:47 11-Punk Rock Classic
DR13 -0.43 dB -16.07 dB 3:23 12-Sexy Mexican Maid
DR13 -0.22 dB -14.35 dB 5:12 13-Johnny, Kick A Hole In The Sky
––––––––––––––––––––––––––––––––––––––––

Number of tracks: 13
Official DR value: DR12

Samplerate: 44100 Hz
Channels: 2
Bits per sample: 16
Bitrate: 935 kbps
Codec: FLAC

[CUETools log; Date: 04.12.2016 0:50:50; Version: 2.1.4]
[CTDB TOCID: Qrer._rSbWmnH.aKx3cHUPTzyj4-] found.
Track | CTDB Status
1 | (20/20) Accurately ripped
2 | (20/20) Accurately ripped
3 | (20/20) Accurately ripped
4 | (20/20) Accurately ripped
5 | (20/20) Accurately ripped
6 | (20/20) Accurately ripped
7 | (20/20) Accurately ripped
8 | (20/20) Accurately ripped
9 | (20/20) Accurately ripped
10 | (20/20) Accurately ripped
11 | (20/20) Accurately ripped
12 | (19/20) Accurately ripped
13 | (20/20) Accurately ripped
[AccurateRip ID: 0016d9b0-00dec965-b10a8c0d] found.
Track [ CRC | V2 ] Status
01 [1ad6ed5c|cc1d9dc3] (19+25/53) Accurately ripped
02 [521f0fde|37b6f0ef] (22+26/57) Accurately ripped
03 [fe54945c|51283ae0] (20+25/54) Accurately ripped
04 [87acc8ea|e1057342] (21+25/55) Accurately ripped
05 [f7e8bfc5|f9a58b1a] (20+25/54) Accurately ripped
06 [91031b56|1b9faaa0] (22+25/56) Accurately ripped
07 [dc8cebf4|9c8c66dd] (21+25/55) Accurately ripped
08 [bc1f2137|353ccc03] (20+25/54) Accurately ripped
09 [455c9434|acf57f03] (21+25/55) Accurately ripped
10 [06b4b6f9|7285131b] (23+25/57) Accurately ripped
11 [f530a1e3|7f14f4a5] (20+25/54) Accurately ripped
12 [a03b6d9a|bc6ca772] (20+25/54) Accurately ripped
13 [61106d84|734fe48f] (20+25/54) Accurately ripped
Offsetted by 30:
01 [0ad687bc] (02/53) Accurately ripped
02 [2dda55ea] (02/57) Accurately ripped
03 [728d6575] (02/54) Accurately ripped
04 [135ce45a] (02/55) Accurately ripped
05 [3233503a] (02/54) Accurately ripped
06 [1964e561] (02/56) Accurately ripped
07 [d664d2b9] (02/55) Accurately ripped
08 [326c3e76] (02/54) Accurately ripped
09 [6b628553] (02/55) Accurately ripped
10 [1a973843] (02/57) Accurately ripped
11 [e4f19ba4] (02/54) Accurately ripped
12 [564ec4f1] (02/54) Accurately ripped
13 [6518809a] (02/54) Accurately ripped
Offsetted by 36:
01 [c0c2f878] (02/53) Accurately ripped
02 [3b09d956] (02/57) Accurately ripped
03 [703bf691] (02/54) Accurately ripped
04 [58da0c68] (02/55) Accurately ripped
05 [10f1f47a] (02/54) Accurately ripped
06 [76ffd5c3] (02/56) Accurately ripped
07 [5d764695] (02/55) Accurately ripped
08 [477b1dca] (02/54) Accurately ripped
09 [a0aa1e5e] (02/55) Accurately ripped
10 [931e8574] (02/57) Accurately ripped
11 [e302c213] (02/54) Accurately ripped
12 [7b9f6fac] (02/54) Accurately ripped
13 [cc4d5138] (02/54) Accurately ripped
Offsetted by -30:
01 [3e6a2e1e] (00/53) No match (V2 was not tested)
02 [9f535a45] (00/57) No match (V2 was not tested)
03 [f762cc5e] (00/54) No match (V2 was not tested)
04 [1340e314] (00/55) No match (V2 was not tested)
05 [a385aba5] (00/54) No match (V2 was not tested)
06 [e9b056bc] (00/56) No match (V2 was not tested)
07 [7d74e3d2] (00/55) No match (V2 was not tested)
08 [63281602] (00/54) No match (V2 was not tested)
09 [99a0e57a] (00/55) No match (V2 was not tested)
10 [329bd038] (00/57) No match (V2 was not tested)
11 [0daffcb9] (00/54) No match (V2 was not tested)
12 [f2001119] (00/54) No match (V2 was not tested)
13 [5d085a6e] (00/54) No match (V2 was not tested)

Track Peak [ CRC32 ] [W/O NULL] [ LOG ]
– 98,1 [857823B5] [26B7146C] CRC32
01 98,1 [DE435DDE] [E8ADFA1C]
02 95,1 [7564FC88] [709CF299]
03 95,2 [CD6F6BF8] [E6947C66]
04 94,6 [F07136ED] [48B4792F]
05 97,0 [50DB437E] [FB19FF89]
06 92,1 [53293849] [52D1EB97]
07 90,9 [8A034843] [3544A318]
08 96,0 [F994CA11] [50640245]
09 96,0 [3E5F8C07] [09DBA373]
10 58,5 [F21A8009] [6BC7D702]
11 97,1 [FAB25987] [EE4E7997]
12 95,1 [5B07991F] [EC27B900]
13 97,4 [325E8EDC] [81AA464B]

Red Hot Chili Peppers - Mother's Milk (1989) [MFSL, UDCD 683]

All thanks go to the original releaser

Red Hot Chili Peppers in my Blog

Download Red Hot Chili Peppers - Mother's Milk (1989):