Subcategories

Red Noise - Sarcelles-Locheres (1970) [Reissue 2009]

Posted By: gribovar
Red Noise - Sarcelles-Locheres (1970) [Reissue 2009]

Red Noise - Sarcelles-Locheres (1970) [Reissue 2009]
EAC Rip | FLAC (image+.cue+log) - 246 MB | MP3 CBR 320 kbps (LAME 3.93) - 91 MB | Covers - 54 MB
Genre: Avant-Prog | RAR 3% Rec. | Label: Futura Records (Futura Red 01)

Red Noise were formed as a French anarchic outfit in late 1960s by Patrick Vian (guitar), a son of a French poet / writer / jazz musician Boris Vian. It's said they've played on stage defended in barricades in Université Sorbonne. They released one and only album "Sarcelles Lochères" in 1970 and soon were disbanded in the same year. Their indomitable spirit for rock music could be taken over by another French project named Komintern.

Tracklist:
01. Cosmic, Toilet Ditty
02. Caka Slow / Vertebrate Twist
03. Obsession Sexuelle N°1
04. Galactic Sewer-Song
05. Obsession Sexuelle N°2
06. Red Noise Live au Café des Sports
07. Existential-Import Of The Screw-Driver Eternity Twist
08. 20 Mirror Mozarts Composing On Tea Bag And 1/2 Cup Bra
09. Red Noise en Direct du Buffet de la Gare (2e partie)
10. À la Mémoire du Rockeur Inconnu
11. Petit Précis d’Instruction Civique
12. Sarcelles, C’est l’Avenir

Total time: 38:51

Exact Audio Copy V0.99 prebeta 4 from 23. January 2008

Отчёт EAC об извлечении, выполненном 1. мая 2012, 22:45

RED NOISE / Sarcelles-Locheres

Дисковод: TSSTcorpCD/DVDW SH-S183A Adapter: 4 ID: 1

Режим чтения : Достоверность
Использование точного потока : Да
Отключение кэша аудио : Да
Использование указателей C2 : Нет

Коррекция смещения при чтении : 6
Способность читать области Lead-in и Lead-out : Нет
Заполнение пропущенных сэмплов тишиной : Да
Удаление блоков с тишиной в начале и конце : Нет
При вычислениях CRC использовались нулевые сэмплы : Да
Интерфейс : Встроенный Win32-интерфейс для Win NT/2000

Выходной формат : Внутренние WAV-операции
Формат сэмплов : 44.100 Гц; 16 бит; стерео


TOC извлечённого CD

Трек | Старт | Длительность | Начальный сектор | Конечный сектор
––––––––––––––––––––––––––––––––––-
1 | 0:00.32 | 0:39.65 | 32 | 3021
2 | 0:40.22 | 4:20.50 | 3022 | 22571
3 | 5:00.72 | 0:28.63 | 22572 | 24734
4 | 5:29.60 | 4:03.65 | 24735 | 43024
5 | 9:33.50 | 0:12.30 | 43025 | 43954
6 | 9:46.05 | 2:07.70 | 43955 | 53549
7 | 11:54.00 | 2:02.47 | 53550 | 62746
8 | 13:56.47 | 2:28.40 | 62747 | 73886
9 | 16:25.12 | 2:14.45 | 73887 | 83981
10 | 18:39.57 | 0:39.65 | 83982 | 86971
11 | 19:19.47 | 0:35.60 | 86972 | 89656
12 | 19:55.32 | 18:56.00 | 89657 | 174856


Характеристики диапазона извлечения и сообщения об ошибках

Выбранный диапазон

Имя файла D:\TEMP\RED NOISE - 1970 - Sarcelles-Locheres.wav

Пиковый уровень 100.0 %
Качество диапазона 99.9 %
CRC теста F05D077A
CRC копии F05D077A
Копирование… OK

Ошибок не произошло


AccurateRip: сводка

Трек 1 нет в базе данных
Трек 2 нет в базе данных
Трек 3 нет в базе данных
Трек 4 нет в базе данных
Трек 5 нет в базе данных
Трек 6 нет в базе данных
Трек 7 нет в базе данных
Трек 8 нет в базе данных
Трек 9 нет в базе данных
Трек 10 нет в базе данных
Трек 11 нет в базе данных
Трек 12 нет в базе данных

Ни одного трека нет в базе AccurateRip

Конец отчёта

[CUETools log; Date: 10.11.2016 21:20:09; Version: 2.1.4]
Pregap length 00:00:32.
[CTDB TOCID: nIeXwhTSYHBG0Ph4Jaar.ZccKac-] found.
Track | CTDB Status
1 | (3/3) Accurately ripped
2 | (3/3) Accurately ripped
3 | (3/3) Accurately ripped
4 | (3/3) Accurately ripped
5 | (3/3) Accurately ripped
6 | (3/3) Accurately ripped
7 | (3/3) Accurately ripped
8 | (3/3) Accurately ripped
9 | (3/3) Accurately ripped
10 | (3/3) Accurately ripped
11 | (3/3) Accurately ripped
12 | (3/3) Accurately ripped
[AccurateRip ID: 000ba471-006ffbb5-93091b0c] found.
Track [ CRC | V2 ] Status
01 [72abcd98|ed382e7a] (0+4/4) Accurately ripped
02 [a0565fb4|5fd823cf] (0+4/4) Accurately ripped
03 [a6aafdea|6e18a171] (0+4/4) Accurately ripped
04 [ed1e753a|152fdc88] (0+4/4) Accurately ripped
05 [8652a0b5|bc9610ff] (0+4/4) Accurately ripped
06 [f2831f8b|b73464bf] (0+4/4) Accurately ripped
07 [a39ebb88|ac8a5c89] (0+4/4) Accurately ripped
08 [44d6379d|7fb48011] (0+4/4) Accurately ripped
09 [72b62add|ac21675f] (0+4/4) Accurately ripped
10 [17fad4c3|ce4eb119] (0+5/5) Accurately ripped
11 [b68e9e1a|aedfaa64] (0+5/5) Accurately ripped
12 [84c2b7d5|906cf48a] (0+5/5) Accurately ripped

Track Peak [ CRC32 ] [W/O NULL] [ LOG ]
– 100,0 [F05D077A] [6D78C9B9] CRC32
01 99,9 [DB455DF6] [21E7AC60]
02 98,8 [27819C64] [C7ECD609]
03 88,3 [C8BC2130] [FAA16511]
04 100,0 [FDDED338] [9EC3978D]
05 94,6 [A549500C] [ACB01C51]
06 83,4 [10005070] [3C292D67]
07 65,6 [668D85CC] [E62B2C9C]
08 97,4 [9190932B] [582B8F29]
09 91,9 [1A871285] [59A8FE4A]
10 93,9 [269C06CE] [B0129031]
11 71,7 [AD577DF3] [20F6B339]
12 99,2 [B63E88F7] [B685235D]

Thanks to spAceLover

See also:
Patrick Vian - Bruits et Temps Analogues (1976) [Reissue 2013]

LOSSLESS:
Nitroflare.com
_______________

MP3 320 kbps:
Nitroflare.com
_______________

Covers:
Nitroflare.com

LOSSLESS:
Rapidgator.net
_______________

MP3 320 kbps:
Rapidgator.net
_______________

Covers:
Rapidgator.net