Subcategories

Red Snapper - Making Bones (1998)

Posted By: Designol
Red Snapper - Making Bones (1998)

Red Snapper - Making Bones (1998)
EAC | FLAC | Image (Cue&Log) ~ 367 Mb (incl 5%) | Mp3 (CBR320/Stereo) ~ 145 Mb (incl 5%) | Scans included
Genre: Future Jazz, Trip-Hop, Breaks | Label: Warp | # WARPCD56, RTD 126.3443.2 | Time: 00:55:33

A full decade of acid jazz never produced a more stunning fusion of electronic music with live instrumentation than Making Bones. Poised halfway between Sly & Robbie and Roni Size, Red Snapper's first album for a worldwide audience surfs a wave of breakbeat funk that includes nods to dub, punk, soul, drum'n'bass and hip-hop. The rock-steady rhythm section of Richard Thair (drums) and Ali Friend (bass) holds the groove better than any sampler, tying together radically different material like classic British soul on "Image of You," metallic drum'n'bass on "The Sleepless" (with excellent rapping by MC Det) and the fusion update "Bogeyman" (with trumpeter Byron Wallen). It's obvious the Snapper have mastered all aspects of '90s electronic dance, and Making Bones is proof positive.

Review by John Bush, Allmusic.com
Red Snapper - Making Bones (1998)



Tracklist:

01. The Sleepless (4:47)
02. Crease (6:22)
03. Image of You (6:14)
04. Bogeyman (5:01)
05. The Tunnel (5:25)
06. Like a Moving Truck (5:20)
07. Spitalfields (7:02)
08. Seeing Red (4:52)
09. Suckerpunch (5:13)
10. 4 Dead Monks (05:17)


Exact Audio Copy V0.99 prebeta 4 from 23. January 2008

EAC extraction logfile from 13. March 2009, 15:07

Red Snapper / Making Bones

Used drive : PIONEER DVD-RW DVR-215D Adapter: 2 ID: 1

Read mode : Secure
Utilize accurate stream : Yes
Defeat audio cache : Yes
Make use of C2 pointers : No

Read offset correction : 48
Overread into Lead-In and Lead-Out : No
Fill up missing offset samples with silence : Yes
Delete leading and trailing silent blocks : No
Null samples used in CRC calculations : Yes
Used interface : Installed external ASPI interface

Used output format : Internal WAV Routines
Sample format : 44.100 Hz; 16 Bit; Stereo


TOC of the extracted CD

Track | Start | Length | Start sector | End sector
––––––––––––––––––––––––––––-
1 | 0:00.00 | 4:46.72 | 0 | 21521
2 | 4:46.72 | 6:21.55 | 21522 | 50151
3 | 11:08.52 | 6:14.00 | 50152 | 78201
4 | 17:22.52 | 5:01.13 | 78202 | 100789
5 | 22:23.65 | 5:25.22 | 100790 | 125186
6 | 27:49.12 | 5:20.35 | 125187 | 149221
7 | 33:09.47 | 7:01.68 | 149222 | 180864
8 | 40:11.40 | 4:51.40 | 180865 | 202729
9 | 45:03.05 | 5:13.05 | 202730 | 226209
10 | 50:16.10 | 5:16.45 | 226210 | 249954


Range status and errors

Selected range

Filename D:\torrent\Red Snapper - Making Bones\Red Snapper - Making Bones.wav

Peak level 97.9 %
Range quality 100.0 %
Test CRC 6D289CEF
Copy CRC 6D289CEF
Copy OK

No errors occurred


AccurateRip summary

Track 1 cannot be verified as accurate (confidence 9) [8119C979], AccurateRip returned [2136F21B]
Track 2 cannot be verified as accurate (confidence 9) [A98A71D3], AccurateRip returned [D7340839]
Track 3 cannot be verified as accurate (confidence 9) [86A612F9], AccurateRip returned [3F7FBC3B]
Track 4 cannot be verified as accurate (confidence 8) [C4CE714F], AccurateRip returned [40B0F541]
Track 5 cannot be verified as accurate (confidence 9) [AF68F73D], AccurateRip returned [7B3A960D]
Track 6 cannot be verified as accurate (confidence 8) [E30FAB19], AccurateRip returned [9142D57B]
Track 7 cannot be verified as accurate (confidence 8) [FEC878A9], AccurateRip returned [065CF63B]
Track 8 cannot be verified as accurate (confidence 9) [337FA98F], AccurateRip returned [166E8137]
Track 9 cannot be verified as accurate (confidence 9) [CE03232A], AccurateRip returned [715674A8]
Track 10 cannot be verified as accurate (confidence 8) [D0971AFD], AccurateRip returned [A48512BB]

No tracks could be verified as accurate
You may have a different pressing from the one(s) in the database

End of status report

foobar2000 1.2.1 / Dynamic Range Meter 1.1.1
log date: 2013-02-14 17:58:45

––––––––––––––––––––––––––––––––––––––––
Analyzed: Red Snapper / Making Bones
––––––––––––––––––––––––––––––––––––––––

DR Peak RMS Duration Track
––––––––––––––––––––––––––––––––––––––––
DR9 -0.18 dB -10.72 dB 4:47 01-The Sleepless
DR9 -0.18 dB -11.13 dB 6:22 02-Crease
DR12 -0.18 dB -14.49 dB 6:14 03-Image of You
DR11 -0.18 dB -13.61 dB 5:01 04-Bogeyman
DR8 -0.18 dB -10.61 dB 5:25 05-The Tunnel
DR10 -0.18 dB -12.83 dB 5:20 06-Like a Moving Truck
DR10 -0.18 dB -12.48 dB 7:02 07-Spitalfields
DR9 -0.18 dB -10.61 dB 4:52 08-Seeing Red
DR9 -0.18 dB -10.95 dB 5:13 09-Suckerpunch
DR9 -0.18 dB -11.73 dB 5:17 10-4 Dead Monks
––––––––––––––––––––––––––––––––––––––––

Number of tracks: 10
Official DR value: DR10

Samplerate: 44100 Hz
Channels: 2
Bits per sample: 16
Bitrate: 850 kbps
Codec: FLAC
================================================================================

Red Snapper - Making Bones (1998)

Red Snapper - Making Bones (1998)

All thanks to original releaser - boccador

More interesting music in My Blog